<?xml version="1.0" standalone="no"?>
<!DOCTYPE svg PUBLIC "-//W3C//DTD SVG 1.1//EN" "http://www.w3.org/Graphics/SVG/1.1/DTD/svg11.dtd" >
<svg>
<metadata>
Created by FontForge 20110222 at Wed Nov 27 02:02:55 2013
 By Orthosie Webhosting
2009 Albert-Jan Pool published by FSI FontShop International GmbH
</metadata>
<defs>
<font id="DINOffcPro-Light" horiz-adv-x="559" >
  <font-face 
    font-family="DIN Offc Pro Light"
    font-weight="350"
    font-stretch="normal"
    units-per-em="1000"
    panose-1="2 11 5 4 2 1 1 1 1 2"
    ascent="764"
    descent="-236"
    x-height="482"
    cap-height="712"
    bbox="-100 -236 1174 1132"
    underline-thickness="38"
    underline-position="-103"
    unicode-range="U+0020-FEFF"
  />
<missing-glyph 
d="M97 0v712h365v-712h-365zM424 674h-289v-636h289v636z" />
    <glyph glyph-name=".notdef" 
d="M97 0v712h365v-712h-365zM424 674h-289v-636h289v636z" />
    <glyph glyph-name=".null" horiz-adv-x="0" 
 />
    <glyph glyph-name="nonmarkingreturn" horiz-adv-x="255" 
 />
    <glyph glyph-name="space" unicode=" " horiz-adv-x="255" 
 />
    <glyph glyph-name="exclam" unicode="!" horiz-adv-x="304" 
d="M191 192h-49l-3 520h55zM133 0v67h67v-67h-67z" />
    <glyph glyph-name="quotedbl" unicode="&#x22;" horiz-adv-x="408" 
d="M95 556v156h63v-156h-63zM250 556v156h63v-156h-63z" />
    <glyph glyph-name="numbersign" unicode="#" horiz-adv-x="639" 
d="M488 437l-25 -153h96v-44h-103l-38 -240h-51l39 240h-176l-37 -240h-51l38 240h-96v44h103l25 153h-99v45h105l36 230h52l-37 -230h175l36 230h50l-36 -230h94v-45h-100zM437 437h-175l-25 -153h175z" />
    <glyph glyph-name="dollar" unicode="$" horiz-adv-x="587" 
d="M528 191q0 -87 -57.5 -139t-160.5 -57v-109h-45v108q-70 3 -119 25.5t-95 68.5l38 38q43 -44 83 -61.5t93 -21.5v295q-51 5 -87 21t-56 33q-56 48 -56 131q0 85 52.5 136.5t146.5 57.5v89h45v-89q57 -3 98.5 -21.5t83.5 -54.5l-35 -35q-29 26 -62.5 43.5t-84.5 21.5v-290
q37 -6 62 -11.5t42 -11.5t29 -13t23 -16q29 -24 45.5 -59.5t16.5 -78.5zM265 671q-69 -5 -107.5 -44t-38.5 -102q0 -62 37 -93q24 -20 52 -30t57 -14v283zM474 189q0 67 -39 100q-13 11 -25.5 17.5t-26.5 10.5t-31.5 6.5t-41.5 6.5v-287q76 5 120 42.5t44 103.5z" />
    <glyph glyph-name="percent" unicode="%" horiz-adv-x="828" 
d="M288 583q0 45 -19.5 71.5t-67.5 26.5t-68 -26.5t-20 -71.5v-103q0 -45 20 -71t68 -26t67.5 26t19.5 71v103zM332 478q0 -60 -36 -96.5t-95 -36.5t-95.5 36.5t-36.5 96.5v107q0 60 36.5 97t95.5 37t95 -37t36 -97v-107zM226 0l332 712h45l-332 -712h-45zM715 231
q0 45 -19.5 71.5t-67.5 26.5t-68 -26.5t-20 -71.5v-103q0 -45 20 -71t68 -26t67.5 26t19.5 71v103zM759 126q0 -60 -36 -96.5t-95 -36.5t-95.5 36.5t-36.5 96.5v107q0 60 36.5 97t95.5 37t95 -37t36 -97v-107z" />
    <glyph glyph-name="ampersand" unicode="&#x26;" horiz-adv-x="746" 
d="M593 0l-69 84q-10 -10 -29 -25.5t-46.5 -29.5t-63.5 -24.5t-80 -10.5q-49 0 -89.5 14.5t-70 41.5t-45.5 64.5t-16 82.5q0 41 13 72t35 56.5t52 47.5t63 45q-14 17 -28 35t-25.5 37.5t-18.5 41t-7 44.5q0 30 11.5 56t31 45t46 30t56.5 11t56.5 -11t46 -30.5t31 -45.5
t11.5 -56q0 -44 -24 -74.5t-58 -53.5l-53 -36l204 -247q12 18 20 35t13 37.5t7 45.5t2 59h53q0 -67 -14 -121t-48 -96l102 -124h-69zM278 382q-28 -19 -53.5 -37.5t-44.5 -39.5t-30.5 -46.5t-11.5 -58.5q0 -35 12 -64t34 -50t52.5 -32.5t67.5 -11.5q43 0 89.5 15.5
t100.5 63.5zM405 575q0 42 -26.5 68.5t-65.5 26.5t-65 -26t-26 -66q0 -14 3 -26.5t11 -27.5t21.5 -33.5t34.5 -43.5q25 16 45.5 30t35.5 29t23.5 31.5t8.5 37.5z" />
    <glyph glyph-name="quotesingle" unicode="'" horiz-adv-x="253" 
d="M95 556v156h63v-156h-63z" />
    <glyph glyph-name="parenleft" unicode="(" horiz-adv-x="284" 
d="M97 633q0 24 3.5 47t15.5 46q6 11 12 20t14 18t17.5 19t22.5 23l37 -37q-17 -17 -31 -31.5t-23 -33.5q-8 -16 -11 -35t-3 -42v-542q0 -23 3 -42t11 -35q9 -19 23 -33.5t31 -31.5l-37 -37q-26 26 -40.5 42t-25.5 38q-13 25 -16 46t-3 47v554z" />
    <glyph glyph-name="parenright" unicode=")" horiz-adv-x="284" 
d="M187 79q0 -26 -3 -47t-16 -46q-11 -22 -25.5 -38t-40.5 -42l-37 37q17 17 31 31.5t23 33.5q8 16 11 35t3 42v542q0 23 -3 42t-11 35q-9 19 -23 33.5t-31 31.5l37 37q25 -26 40 -42t26 -38q12 -23 15.5 -46t3.5 -47v-554z" />
    <glyph glyph-name="asterisk" unicode="*" horiz-adv-x="467" 
d="M373 438l-120 73l3 -141h-45l3 141l-120 -73l-22 38l123 68l-123 68l22 38l120 -73l-3 141h45l-3 -141l120 73l22 -38l-123 -68l123 -68z" />
    <glyph glyph-name="plus" unicode="+" horiz-adv-x="514" 
d="M281 240v-181h-47v181h-181v47h181v180h47v-180h180v-47h-180z" />
    <glyph glyph-name="comma" unicode="," horiz-adv-x="258" 
d="M95 -136v204h68v-136z" />
    <glyph glyph-name="hyphen" unicode="-" horiz-adv-x="426" 
d="M82 240v47h262v-47h-262z" />
    <glyph glyph-name="period" unicode="." horiz-adv-x="264" 
d="M95 0v74h74v-74h-74z" />
    <glyph glyph-name="slash" unicode="/" horiz-adv-x="338" 
d="M53 -74h-53l285 860h53z" />
    <glyph glyph-name="zero" unicode="0" horiz-adv-x="514" 
d="M444 184q0 -42 -14 -76.5t-38.5 -60t-59 -39.5t-75.5 -14t-75.5 14t-59.5 39.5t-38.5 60t-13.5 76.5v344q0 42 13.5 76.5t38.5 60t59.5 39.5t75.5 14t75.5 -14t59 -39.5t38.5 -60t14 -76.5v-344zM393 523q0 31 -8.5 58.5t-26 48t-43 32t-58.5 11.5t-58.5 -11.5t-43 -32
t-26 -48t-8.5 -58.5v-334q0 -32 8.5 -59t26 -47.5t43 -32t58.5 -11.5t58.5 11.5t43 32t26 47.5t8.5 59v334z" />
    <glyph glyph-name="one" unicode="1" horiz-adv-x="514" 
d="M262 0v654l-129 -114v61l129 111h51v-712h-51z" />
    <glyph glyph-name="two" unicode="2" horiz-adv-x="514" 
d="M72 0v45l286 375q21 27 30.5 53.5t9.5 57.5q0 64 -35.5 103t-101.5 39q-28 0 -53 -8t-43.5 -25.5t-29.5 -44.5t-11 -64h-51q0 40 13 74t37 59t59 39.5t79 14.5q43 0 77.5 -13.5t59 -38t38 -59t13.5 -76.5q0 -40 -11 -71t-38 -66l-267 -349h316v-45h-377z" />
    <glyph glyph-name="three" unicode="3" horiz-adv-x="514" 
d="M447 190q0 -48 -15.5 -84.5t-42.5 -61.5t-64 -38t-80 -13q-42 0 -77.5 11t-62.5 33t-43.5 56t-19.5 80h51q3 -36 16.5 -62t34.5 -42t47 -23.5t54 -7.5q32 0 59.5 10.5t48 30t32 47.5t11.5 64q0 72 -36.5 112t-118.5 40h-12v45h12q72 0 106.5 37t34.5 106q0 35 -10.5 62
t-29.5 45t-44 27.5t-54 9.5q-63 0 -99 -35t-43 -95h-51q4 42 20 74.5t41.5 55t59 34t72.5 11.5q42 0 77 -13.5t59.5 -38t38.5 -59.5t14 -78q0 -57 -23.5 -98t-77.5 -64q60 -20 87.5 -64.5t27.5 -113.5z" />
    <glyph glyph-name="four" unicode="4" horiz-adv-x="514" 
d="M376 117v-117h-51v117h-282v45l262 550h54l-262 -550h228v226h51v-226h95v-45h-95z" />
    <glyph glyph-name="five" unicode="5" horiz-adv-x="514" 
d="M451 233q0 -26 -1.5 -51.5t-7 -49.5t-16.5 -46.5t-30 -41.5q-51 -51 -137 -51q-91 0 -137 48q-42 42 -48 116h51q8 -57 39.5 -88t94.5 -31q29 0 55 9.5t43 26.5q16 16 24.5 35t12.5 40t5 42.5t1 41.5q0 33 -4.5 67t-18.5 61.5t-40.5 44.5t-69.5 17q-49 0 -83.5 -19.5
t-45.5 -55.5h-45v364h342v-45h-297v-252q47 53 135 53q77 0 120 -43q19 -19 30.5 -42t17.5 -48t8 -51t2 -51z" />
    <glyph glyph-name="six" unicode="6" horiz-adv-x="514" 
d="M448 201q0 -43 -12.5 -80.5t-36.5 -65.5t-59 -44.5t-80 -16.5t-80 15t-59.5 41.5t-37 63t-12.5 80.5q0 35 9 69.5t31 79.5l183 369h51l-164 -329q37 17 83 17q43 0 77.5 -15.5t58 -42.5t36 -63t12.5 -78zM397 197q0 32 -9 60.5t-26 50.5t-43 34.5t-60 12.5
q-63 0 -100 -43t-37 -115t37 -115t100 -43t100.5 43t37.5 115z" />
    <glyph glyph-name="seven" unicode="7" horiz-adv-x="514" 
d="M207 0h-52l252 667h-270v-112h-51v157h373v-45z" />
    <glyph glyph-name="eight" unicode="8" horiz-adv-x="514" 
d="M460 192q0 -43 -15.5 -79t-43 -62.5t-64.5 -41.5t-80 -15t-80 15t-64.5 41.5t-43 62.5t-15.5 79q0 63 31 107t82 71q-98 54 -98 162q0 39 14 73t38.5 59t59 39.5t76.5 14.5t76.5 -14.5t59 -39.5t38.5 -59t14 -73q0 -110 -97 -162q51 -27 81.5 -71t30.5 -107zM409 192
q0 33 -11.5 61t-32 48.5t-48.5 32.5t-60 12t-60 -12t-48.5 -32.5t-32 -48.5t-11.5 -61t11.5 -61t32 -48.5t48.5 -32t60 -11.5t60 11.5t48.5 32t32 48.5t11.5 61zM394 532q0 31 -10 57t-28 44.5t-43.5 29t-55.5 10.5t-55.5 -10.5t-43.5 -29t-28 -44.5t-10 -57t10 -57
t28 -44.5t43.5 -29t55.5 -10.5t55.5 10.5t43.5 29t28 44.5t10 57z" />
    <glyph glyph-name="nine" unicode="9" horiz-adv-x="514" 
d="M443 518q0 -35 -9 -69.5t-31 -79.5l-183 -369h-51l164 329q-37 -17 -84 -17q-44 0 -78 15.5t-57.5 42.5t-35.5 63t-12 78q0 43 12.5 80.5t36.5 65.5t59 44.5t80 16.5t80 -15t59.5 -41.5t37 -63.5t12.5 -80zM392 515q0 72 -37.5 115t-100.5 43t-100 -43t-37 -115
q0 -32 8.5 -60.5t26 -50.5t43 -34.5t59.5 -12.5q63 0 100.5 43t37.5 115z" />
    <glyph glyph-name="colon" unicode=":" horiz-adv-x="292" 
d="M123 0v74h74v-74h-74zM123 312v74h74v-74h-74z" />
    <glyph glyph-name="semicolon" unicode=";" horiz-adv-x="292" 
d="M125 -136v204h68v-136zM123 312v74h74v-74h-74z" />
    <glyph glyph-name="less" unicode="&#x3c;" horiz-adv-x="514" 
d="M105 239v48l304 161v-55l-254 -130l254 -130v-55z" />
    <glyph glyph-name="equal" unicode="=" horiz-adv-x="514" 
d="M53 163v47h408v-47h-408zM53 316v47h408v-47h-408z" />
    <glyph glyph-name="greater" unicode="&#x3e;" horiz-adv-x="514" 
d="M105 78v55l254 130l-254 130v55l304 -161v-48z" />
    <glyph glyph-name="question" unicode="?" horiz-adv-x="488" 
d="M438 542q0 -35 -12 -62.5t-32 -56.5l-85 -125q-10 -14 -14 -31t-4 -29v-47h-51v45q0 29 7 48.5t22 41.5l84 124q15 23 24.5 43t9.5 49q0 28 -9.5 52t-27 41.5t-41 27.5t-50.5 10q-29 0 -53 -10.5t-40.5 -28.5t-25.5 -42t-9 -50h-51q0 36 13 68t36.5 56t56.5 38t73 14
q38 0 71 -13.5t57 -37t37.5 -56t13.5 -69.5zM232 0v67h67v-67h-67z" />
    <glyph glyph-name="at" unicode="@" horiz-adv-x="697" 
d="M569 0v59q-25 -34 -58 -50t-81 -16q-89 0 -139 65q-23 31 -33 73t-10 110q0 66 9 108.5t30 72.5q22 32 59.5 49.5t82.5 17.5q46 0 80 -16.5t60 -51.5v89q0 43 -9 69.5t-32 49.5q-22 22 -49 32t-65 10h-132q-38 0 -64.5 -10t-48.5 -32q-23 -23 -32 -49t-9 -70v-353
q0 -26 2.5 -44t9.5 -32t19 -26.5t31 -26.5l-35 -35q-23 16 -38 31.5t-24 34t-12.5 42t-3.5 56.5v350q0 48 14.5 86t40.5 65q52 54 141 54h150q87 0 141 -54q56 -56 56 -151v-507h-51zM569 241q0 37 -4 73t-18.5 65t-41 47t-71.5 18t-71.5 -18t-41 -47t-18.5 -65t-4 -73
t4 -73t18.5 -65t41 -47t71.5 -18t71.5 18t41 47t18.5 65t4 73z" />
    <glyph glyph-name="A" unicode="A" horiz-adv-x="602" 
d="M529 0l-62 173h-332l-62 -173h-58l262 712h48l262 -712h-58zM152 221h298l-149 419z" />
    <glyph glyph-name="B" unicode="B" horiz-adv-x="671" 
d="M589 194q0 -48 -15 -84t-42.5 -60.5t-66 -37t-85.5 -12.5h-270v712h262q44 0 82 -12.5t65.5 -36.5t43 -58.5t15.5 -78.5q0 -57 -29.5 -100t-81.5 -60q58 -20 90 -64.5t32 -107.5zM535 194q0 69 -44 107.5t-117 38.5h-210v-292h210q73 0 117 38.5t44 107.5zM524 526
q0 37 -12.5 63t-34 42.5t-50.5 24.5t-61 8h-202v-276h202q32 0 61 8t50.5 24.5t34 42.5t12.5 63z" />
    <glyph glyph-name="C" unicode="C" horiz-adv-x="644" 
d="M568 202q-9 -48 -30 -86.5t-52.5 -65.5t-72 -41.5t-87.5 -14.5q-54 0 -97.5 18t-75.5 50q-25 25 -39 49.5t-21 57.5t-9 77.5t-2 109.5t2 109.5t9 77.5t21 57.5t39 49.5q32 32 75.5 50t97.5 18q97 0 160.5 -55.5t81.5 -152.5h-55q-16 75 -65.5 117.5t-121.5 42.5
q-80 0 -135 -55q-19 -19 -30 -41t-16.5 -51.5t-7 -70t-1.5 -96.5t1.5 -96.5t7 -70t16.5 -51.5t30 -41q55 -55 135 -55q72 0 122.5 42.5t66.5 117.5h53z" />
    <glyph glyph-name="D" unicode="D" horiz-adv-x="678" 
d="M596 356q0 -40 -1 -81t-8 -79t-21 -72t-39 -59q-65 -65 -178 -65h-239v712h239q113 0 178 -65q25 -26 39 -59.5t21 -72t8 -79t1 -80.5zM542 356q0 35 -1 71t-6 69.5t-15.5 62.5t-30.5 50q-31 32 -70.5 43.5t-82.5 11.5h-172v-616h172q43 0 82.5 11.5t70.5 43.5
q20 21 30.5 50t15.5 62.5t6 69.5t1 71z" />
    <glyph glyph-name="E" unicode="E" horiz-adv-x="598" 
d="M110 0v712h432v-48h-378v-281h322v-48h-322v-287h378v-48h-432z" />
    <glyph glyph-name="F" unicode="F" horiz-adv-x="576" 
d="M164 664v-293h322v-48h-322v-323h-54v712h432v-48h-378z" />
    <glyph glyph-name="G" unicode="G" horiz-adv-x="651" 
d="M571 248q0 -57 -13 -97t-45 -75q-35 -38 -84 -60t-103 -22t-97.5 18t-75.5 50q-25 25 -39 49.5t-21 57.5t-9 77.5t-2 109.5t2 109.5t9 77.5t21 57.5t39 49.5q32 32 75.5 50t97.5 18q46 0 87 -15t73 -42t53.5 -65.5t29.5 -85.5h-54q-16 75 -66.5 117.5t-122.5 42.5
q-80 0 -135 -55q-19 -19 -30 -41t-16.5 -51.5t-7 -70t-1.5 -96.5t1.5 -96.5t7 -70t16.5 -51.5t30 -41q55 -55 135 -55q42 0 81 17.5t67 51.5q23 29 33 62t10 79v64h-191v48h245v-116z" />
    <glyph glyph-name="H" unicode="H" horiz-adv-x="699" 
d="M535 0v335h-371v-335h-54v712h54v-329h371v329h54v-712h-54z" />
    <glyph glyph-name="I" unicode="I" horiz-adv-x="274" 
d="M110 0v712h54v-712h-54z" />
    <glyph glyph-name="J" unicode="J" horiz-adv-x="498" 
d="M398 210q0 -49 -15 -88.5t-42.5 -68t-67 -44t-87.5 -15.5q-95 0 -156 61l37 37q20 -20 46 -35t73 -15q78 0 118 46t40 133v491h54v-502z" />
    <glyph glyph-name="K" unicode="K" horiz-adv-x="645" 
d="M563 0l-229 399l-170 -206v-193h-54v712h54v-445l361 445h65l-220 -272l257 -440h-64z" />
    <glyph glyph-name="L" unicode="L" horiz-adv-x="572" 
d="M110 0v712h54v-664h378v-48h-432z" />
    <glyph glyph-name="M" unicode="M" horiz-adv-x="818" 
d="M654 0v587l-216 -487h-54l-220 487v-587h-54v712h54l248 -549l242 549h54v-712h-54z" />
    <glyph glyph-name="N" unicode="N" horiz-adv-x="739" 
d="M575 0l-411 619v-619h-54v712h54l411 -617v617h54v-712h-54z" />
    <glyph glyph-name="O" unicode="O" horiz-adv-x="652" 
d="M570 356q0 -65 -2 -109.5t-9 -77.5t-21 -57.5t-39 -49.5q-32 -32 -75.5 -50t-97.5 -18t-97.5 18t-75.5 50q-25 25 -39 49.5t-21 57.5t-9 77.5t-2 109.5t2 109.5t9 77.5t21 57.5t39 49.5q32 32 75.5 50t97.5 18t97.5 -18t75.5 -50q25 -25 39 -49.5t21 -57.5t9 -77.5
t2 -109.5zM516 356q0 56 -1.5 96.5t-7 70t-16.5 51.5t-30 41q-55 55 -135 55t-135 -55q-19 -19 -30 -41t-16.5 -51.5t-7 -70t-1.5 -96.5t1.5 -96.5t7 -70t16.5 -51.5t30 -41q55 -55 135 -55t135 55q19 19 30 41t16.5 51.5t7 70t1.5 96.5z" />
    <glyph glyph-name="P" unicode="P" horiz-adv-x="631" 
d="M586 507q0 -49 -16.5 -87t-45 -64.5t-68 -40t-85.5 -13.5h-207v-302h-54v712h261q46 0 85.5 -14t68 -40t45 -64t16.5 -87zM532 507q0 80 -46.5 118.5t-120.5 38.5h-201v-314h201q74 0 120.5 38.5t46.5 118.5z" />
    <glyph glyph-name="Q" unicode="Q" horiz-adv-x="651" 
d="M570 356q0 -58 -1.5 -99.5t-6.5 -72.5t-15 -54.5t-28 -45.5l84 -84l-36 -36l-84 83q-30 -25 -70 -39t-87 -14q-54 0 -97.5 18t-75.5 50q-25 25 -39 49.5t-21 57.5t-9 77.5t-2 109.5t2 109.5t9 77.5t21 57.5t39 49.5q32 32 75.5 50t97.5 18t97.5 -18t75.5 -50
q25 -25 39 -49.5t21 -57.5t9 -77.5t2 -109.5zM516 356q0 56 -1.5 96.5t-7 70t-16.5 51.5t-30 41q-55 55 -135 55t-135 -55q-19 -19 -30 -41t-16.5 -51.5t-7 -70t-1.5 -96.5t1.5 -96.5t7 -70t16.5 -51.5t30 -41q55 -55 135 -55q70 0 121 42l-100 100l36 36l98 -99
q12 18 19 39t10.5 48.5t4.5 63.5t1 84z" />
    <glyph glyph-name="R" unicode="R" horiz-adv-x="657" 
d="M530 0l-170 328h-196v-328h-54v712h271q43 0 80.5 -12.5t65 -36.5t43 -60t15.5 -82q0 -81 -44.5 -130t-119.5 -62l172 -329h-63zM531 520q0 74 -44 109t-113 35h-210v-288h210q69 0 113 35t44 109z" />
    <glyph glyph-name="S" unicode="S" horiz-adv-x="587" 
d="M528 191q0 -45 -16.5 -81.5t-47.5 -62t-75.5 -39.5t-100.5 -14q-79 0 -133.5 22.5t-103.5 71.5l38 38q24 -24 46.5 -40t46.5 -26t50.5 -14t58.5 -4q85 0 134 38.5t49 108.5q0 67 -39 100q-9 8 -18.5 14t-21 10t-27 7.5t-36.5 6.5l-83 13q-82 12 -127 51q-56 47 -56 132
q0 45 15.5 81t44 61.5t69.5 39t92 13.5q66 0 112.5 -18.5t92.5 -58.5l-35 -35q-16 15 -33 27t-37.5 21t-46 13.5t-56.5 4.5q-78 0 -121.5 -39t-43.5 -108q0 -64 36 -94q19 -16 45.5 -26t56.5 -15l83 -13q25 -4 43 -8t32.5 -9.5t27 -13.5t24.5 -18q29 -25 45 -59t16 -78z" />
    <glyph glyph-name="T" unicode="T" horiz-adv-x="539" 
d="M296 664v-664h-54v664h-212v48h479v-48h-213z" />
    <glyph glyph-name="U" unicode="U" horiz-adv-x="688" 
d="M588 231q0 -52 -18 -95.5t-50.5 -75t-77 -49t-98.5 -17.5t-98.5 17.5t-77 49t-50.5 75t-18 95.5v481h54v-474q0 -44 13.5 -80.5t38.5 -62t60 -39.5t78 -14t78 14t60 39.5t38.5 62t13.5 80.5v474h54v-481z" />
    <glyph glyph-name="V" unicode="V" horiz-adv-x="534" 
d="M290 0h-46l-234 712h57l200 -617l200 617h57z" />
    <glyph glyph-name="W" unicode="W" horiz-adv-x="842" 
d="M644 0h-55l-168 620l-168 -620h-55l-178 712h57l150 -619l166 619h56l166 -619l150 619h57z" />
    <glyph glyph-name="X" unicode="X" horiz-adv-x="532" 
d="M451 0l-186 317l-186 -317h-61l218 365l-204 347h63l170 -299l171 299h62l-204 -347l220 -365h-63z" />
    <glyph glyph-name="Y" unicode="Y" horiz-adv-x="494" 
d="M274 295v-295h-54v295l-210 417h58l181 -360l177 360h58z" />
    <glyph glyph-name="Z" unicode="Z" 
d="M63 0v57l375 607h-360v48h418v-48l-378 -616h378v-48h-433z" />
    <glyph glyph-name="bracketleft" unicode="[" horiz-adv-x="290" 
d="M97 -74v860h148v-45h-97v-770h97v-45h-148z" />
    <glyph glyph-name="backslash" unicode="\" horiz-adv-x="338" 
d="M285 -74l-285 860h53l285 -860h-53z" />
    <glyph glyph-name="bracketright" unicode="]" horiz-adv-x="293" 
d="M45 -74v42h100v776h-100v42h151v-860h-151z" />
    <glyph glyph-name="asciicircum" unicode="^" horiz-adv-x="514" 
d="M387 422l-130 242l-130 -242h-51l158 296h46l158 -296h-51z" />
    <glyph glyph-name="underscore" unicode="_" horiz-adv-x="514" 
d="M0 -160v38h514v-38h-514z" />
    <glyph glyph-name="grave" unicode="`" horiz-adv-x="500" 
d="M239 590l-106 147h67l97 -147h-58z" />
    <glyph glyph-name="a" unicode="a" horiz-adv-x="524" 
d="M380 0v48q-31 -31 -63.5 -42.5t-83.5 -11.5q-54 0 -86.5 10t-55.5 34q-17 17 -26 42t-9 52q0 66 44.5 102.5t123.5 36.5h156v54q0 58 -30.5 88t-105.5 30q-51 0 -80.5 -14t-52.5 -47l-37 32q31 43 70.5 58.5t99.5 15.5q97 0 142 -41t45 -117v-330h-51zM380 230h-150
q-123 0 -123 -97q0 -48 30 -71t96 -23q33 0 63.5 6t56.5 31q27 25 27 92v62z" />
    <glyph glyph-name="b" unicode="b" horiz-adv-x="540" 
d="M471 241q0 -57 -12.5 -112.5t-49.5 -92.5q-19 -19 -49.5 -30.5t-68.5 -11.5q-42 0 -76.5 13t-66.5 55v-62h-51v712h51v-292q32 42 66.5 55t76.5 13q38 0 68.5 -11.5t49.5 -30.5q37 -37 49.5 -92.5t12.5 -112.5zM420 241q0 37 -4.5 73.5t-19 65t-41.5 46t-71 17.5
t-71 -17.5t-41.5 -46t-19 -65t-4.5 -73.5q0 -38 4.5 -74t19 -64.5t41.5 -46t71 -17.5t71 17.5t41.5 46t19 64.5t4.5 74z" />
    <glyph glyph-name="c" unicode="c" horiz-adv-x="493" 
d="M440 68q-38 -43 -74 -58.5t-85 -15.5q-50 0 -89 17t-66.5 49t-42 78t-14.5 103t14.5 103t42 78t66.5 49t89 17q49 0 85 -15.5t74 -58.5l-35 -32q-31 34 -58.5 47.5t-65.5 13.5q-85 0 -128 -64q-18 -26 -25.5 -57.5t-7.5 -80.5t7.5 -80.5t25.5 -57.5q43 -64 128 -64
q38 0 65.5 13.5t58.5 47.5z" />
    <glyph glyph-name="d" unicode="d" horiz-adv-x="540" 
d="M392 0v62q-32 -42 -66.5 -55t-76.5 -13q-38 0 -68.5 11.5t-49.5 30.5q-37 37 -49.5 92.5t-12.5 112.5t12.5 112.5t49.5 92.5q19 19 49.5 30.5t68.5 11.5q42 0 76.5 -13t66.5 -55v292h51v-712h-51zM392 241q0 37 -4.5 73.5t-19 65t-41.5 46t-71 17.5t-71 -17.5t-41.5 -46
t-19 -65t-4.5 -73.5q0 -38 4.5 -74t19 -64.5t41.5 -46t71 -17.5t71 17.5t41.5 46t19 64.5t4.5 74z" />
    <glyph glyph-name="e" unicode="e" horiz-adv-x="523" 
d="M120 230q0 -93 39.5 -141.5t117.5 -48.5q43 0 72.5 13.5t60.5 44.5l38 -30q-18 -18 -36.5 -32t-39 -23.5t-44.5 -14t-54 -4.5q-100 0 -152.5 63t-52.5 184q0 118 51 182.5t142 64.5t142 -61.5t51 -173.5v-23h-335zM404 271q-1 17 -2 29.5t-2.5 22.5t-4.5 19t-8 20
q-16 38 -49.5 59.5t-75.5 21.5t-75 -21.5t-50 -59.5q-5 -11 -8 -20t-4.5 -19t-2.5 -22.5t-2 -29.5h284z" />
    <glyph glyph-name="f" unicode="f" horiz-adv-x="304" 
d="M163 444v-444h-51v444h-66v38h66v104q0 55 29.5 90.5t86.5 35.5h44v-45h-35q-38 0 -56 -21t-18 -59v-105h109v-38h-109z" />
    <glyph glyph-name="g" unicode="g" horiz-adv-x="540" 
d="M443 -27q0 -45 -13 -83.5t-38.5 -66.5t-62 -43.5t-83.5 -15.5q-27 0 -48 3.5t-39.5 11.5t-35.5 20t-36 29l34 34q14 -13 27 -23t27 -16.5t31 -10t40 -3.5q38 0 65.5 12.5t45.5 35t26.5 53t8.5 66.5v86q-32 -42 -66.5 -55t-76.5 -13q-38 0 -68.5 11.5t-49.5 30.5
q-37 37 -49.5 92.5t-12.5 112.5t12.5 112.5t49.5 92.5q19 19 49.5 30.5t68.5 11.5q42 0 76.5 -13t66.5 -55v62h51v-509zM392 241q0 37 -4.5 73.5t-19 65t-41.5 46t-71 17.5t-71 -17.5t-41.5 -46t-19 -65t-4.5 -73.5q0 -38 4.5 -74t19 -64.5t41.5 -46t71 -17.5t71 17.5
t41.5 46t19 64.5t4.5 74z" />
    <glyph glyph-name="h" unicode="h" 
d="M417 0v299q0 70 -33.5 107t-99.5 37t-101 -37t-35 -107v-299h-51v712h51v-287q54 63 142 63q84 0 131 -47.5t47 -132.5v-308h-51z" />
    <glyph glyph-name="i" unicode="i" horiz-adv-x="245" 
d="M97 0v482h51v-482h-51zM91 649v63h63v-63h-63z" />
    <glyph glyph-name="j" unicode="j" horiz-adv-x="245" 
d="M148 -105q0 -57 -28 -91t-88 -34h-44v45h35q43 0 58.5 19.5t15.5 61.5v586h51v-587zM91 649v63h63v-63h-63z" />
    <glyph glyph-name="k" unicode="k" horiz-adv-x="527" 
d="M424 0l-166 265l-110 -127v-138h-51v712h51v-502l239 272h65l-159 -180l194 -302h-63z" />
    <glyph glyph-name="l" unicode="l" horiz-adv-x="287" 
d="M211 0q-60 0 -88 34t-28 91v587h51v-586q0 -42 15.5 -61.5t58.5 -19.5h35v-45h-44z" />
    <glyph glyph-name="m" unicode="m" horiz-adv-x="878" 
d="M737 0v299q0 70 -33.5 107t-99.5 37q-63 0 -99.5 -36t-36.5 -99v-308h-51v299q0 70 -33.5 107t-99.5 37t-101 -37.5t-35 -106.5v-299h-51v482h51v-57q54 63 143 63q54 0 93.5 -22.5t61.5 -65.5q27 43 68.5 65.5t95.5 22.5q40 0 72 -12t55 -34q51 -49 51 -134v-308h-51z
" />
    <glyph glyph-name="n" unicode="n" 
d="M417 0v299q0 70 -33.5 107t-99.5 37t-101 -37.5t-35 -106.5v-299h-51v482h51v-57q54 63 142 63q81 0 128 -46q50 -48 50 -134v-308h-51z" />
    <glyph glyph-name="o" unicode="o" horiz-adv-x="526" 
d="M457 241q0 -52 -11 -104t-49 -90q-53 -53 -134 -53t-134 53q-38 38 -49 90t-11 104t11 104t49 90q53 53 134 53t134 -53q38 -38 49 -90t11 -104zM406 241q0 21 -1 43t-5.5 43.5t-13 40.5t-23.5 34q-41 41 -100 41t-100 -41q-15 -15 -23.5 -34t-13 -40.5t-5.5 -43.5
t-1 -43t1 -43t5.5 -43.5t13 -40.5t23.5 -34q41 -41 100 -41t100 41q15 15 23.5 34t13 40.5t5.5 43.5t1 43z" />
    <glyph glyph-name="p" unicode="p" horiz-adv-x="540" 
d="M471 241q0 -57 -12.5 -112.5t-49.5 -92.5q-19 -19 -49.5 -30.5t-68.5 -11.5q-42 0 -76.5 13t-66.5 55v-292h-51v712h51v-62q32 42 66.5 55t76.5 13q38 0 68.5 -11.5t49.5 -30.5q37 -37 49.5 -92.5t12.5 -112.5zM420 241q0 37 -4.5 73.5t-19 65t-41.5 46t-71 17.5
t-71 -17.5t-41.5 -46t-19 -65t-4.5 -73.5q0 -38 4.5 -74t19 -64.5t41.5 -46t71 -17.5t71 17.5t41.5 46t19 64.5t4.5 74z" />
    <glyph glyph-name="q" unicode="q" horiz-adv-x="540" 
d="M392 -230v292q-32 -42 -66.5 -55t-76.5 -13q-38 0 -68.5 11.5t-49.5 30.5q-37 37 -49.5 92.5t-12.5 112.5t12.5 112.5t49.5 92.5q19 19 49.5 30.5t68.5 11.5q42 0 76.5 -13t66.5 -55v62h51v-712h-51zM392 241q0 37 -4.5 73.5t-19 65t-41.5 46t-71 17.5t-71 -17.5
t-41.5 -46t-19 -65t-4.5 -73.5q0 -38 4.5 -74t19 -64.5t41.5 -46t71 -17.5t71 17.5t41.5 46t19 64.5t4.5 74z" />
    <glyph glyph-name="r" unicode="r" horiz-adv-x="409" 
d="M368 405q-22 22 -41.5 30t-49.5 8q-31 0 -55 -12t-40.5 -32t-25 -46.5t-8.5 -55.5v-297h-51v482h51v-64q21 34 59.5 52t81.5 18q35 0 62.5 -10t53.5 -36z" />
    <glyph glyph-name="s" unicode="s" horiz-adv-x="494" 
d="M438 137q0 -66 -51.5 -104.5t-141.5 -38.5q-63 0 -110.5 17t-84.5 52l35 35q56 -59 158 -59q145 0 145 98q0 38 -22 57t-70 24l-80 7q-145 12 -145 126q0 63 47 100t126 37q51 0 94 -13.5t75 -37.5l-34 -34q-56 41 -135 41q-60 0 -91.5 -24t-31.5 -69q0 -38 23.5 -57
t74.5 -24l78 -7q30 -3 56 -10t44.5 -21t29.5 -37t11 -58z" />
    <glyph glyph-name="t" unicode="t" horiz-adv-x="325" 
d="M225 0q-57 0 -86.5 35.5t-29.5 90.5v318h-66v38h66v154h51v-154h109v-38h-109v-319q0 -38 18 -59t56 -21h35v-45h-44z" />
    <glyph glyph-name="u" unicode="u" 
d="M411 0v57q-54 -63 -142 -63q-81 0 -128 46q-50 48 -50 134v308h51v-299q0 -70 33.5 -107t99.5 -37t101 37.5t35 106.5v299h51v-482h-51z" />
    <glyph glyph-name="v" unicode="v" horiz-adv-x="430" 
d="M240 0h-50l-176 482h56l145 -422l145 422h56z" />
    <glyph glyph-name="w" unicode="w" horiz-adv-x="712" 
d="M544 0h-52l-136 402l-136 -402h-52l-154 482h56l123 -422l138 422h50l138 -422l123 422h56z" />
    <glyph glyph-name="x" unicode="x" horiz-adv-x="460" 
d="M358 0l-127 203l-129 -203h-62l163 246l-156 236h62l122 -194l120 194h62l-156 -236l163 -246h-62z" />
    <glyph glyph-name="y" unicode="y" horiz-adv-x="430" 
d="M192 -131q-14 -40 -33 -56q-18 -17 -42.5 -24t-48.5 -7h-24v45h19q21 0 34.5 3.5t23.5 11.5t17 20.5t13 30.5l39 107l-176 482h56l145 -422l145 422h56z" />
    <glyph glyph-name="z" unicode="z" horiz-adv-x="452" 
d="M54 0v48l290 389h-274v45h328v-48l-291 -389h291v-45h-344z" />
    <glyph glyph-name="braceleft" unicode="{" horiz-adv-x="316" 
d="M252 -74q-37 0 -59.5 6t-37.5 21q-14 14 -20 34t-6 61v207q0 42 -18 60q-8 8 -18.5 13.5t-24.5 5.5h-18v44h18q14 0 24.5 5.5t18.5 13.5q18 18 18 60v207q0 41 6 61t20 34q15 15 37.5 21t59.5 6h14v-45h-13q-27 0 -39 -2.5t-20 -10.5t-11 -22.5t-3 -42.5v-207
q0 -39 -14.5 -61.5t-46.5 -38.5q32 -16 46.5 -38.5t14.5 -61.5v-207q0 -28 3 -42.5t11 -22.5t20 -10.5t39 -2.5h13v-45h-14z" />
    <glyph glyph-name="bar" unicode="|" horiz-adv-x="317" 
d="M133 -74v860h51v-860h-51z" />
    <glyph glyph-name="braceright" unicode="}" horiz-adv-x="316" 
d="M248 334q-14 0 -24.5 -5.5t-18.5 -13.5q-18 -18 -18 -60v-207q0 -41 -6 -61t-20 -34q-15 -15 -37.5 -21t-59.5 -6h-14v45h13q27 0 39 2.5t20 10.5t11 22.5t3 42.5v207q0 39 14.5 61.5t46.5 38.5q-32 16 -46.5 38.5t-14.5 61.5v207q0 28 -3 42.5t-11 22.5t-20 10.5
t-39 2.5h-13v45h14q37 0 59.5 -6t37.5 -21q14 -14 20 -34t6 -61v-207q0 -42 18 -60q8 -8 18.5 -13.5t24.5 -5.5h18v-44h-18z" />
    <glyph glyph-name="asciitilde" unicode="~" horiz-adv-x="514" 
d="M461 277q-20 -20 -35.5 -32.5t-28.5 -19t-25 -8.5t-27 -2q-25 0 -50 10t-52 21q-21 9 -38.5 16t-37.5 7q-11 0 -19.5 -1.5t-17.5 -6t-20 -13.5t-26 -24l-31 31q20 20 35.5 32.5t28.5 19t25 8.5t27 2q25 0 50 -10t52 -21q21 -9 38.5 -16t37.5 -7q11 0 19.5 1.5t17.5 6
t20 13.5t26 24z" />
    <glyph glyph-name="uni00A0" unicode="&#xa0;" horiz-adv-x="255" 
 />
    <glyph glyph-name="exclamdown" unicode="&#xa1;" horiz-adv-x="304" 
d="M110 -230l3 520h49l3 -520h-55zM104 415v67h67v-67h-67z" />
    <glyph glyph-name="cent" unicode="&#xa2;" horiz-adv-x="498" 
d="M440 193q-18 -20 -35 -34t-34.5 -22.5t-36.5 -12.5t-42 -5v-119h-43v121q-85 11 -132.5 75t-47.5 170t47.5 170t132.5 75v101h43v-99q46 -2 78.5 -18t69.5 -56l-35 -32q-29 32 -54 45.5t-59 15.5v-404q34 2 59 15.5t54 45.5zM249 565q-61 -10 -96 -61
q-18 -26 -25.5 -57.5t-7.5 -80.5t7.5 -80.5t25.5 -57.5q35 -51 96 -61v398z" />
    <glyph glyph-name="sterling" unicode="&#xa3;" horiz-adv-x="537" 
d="M114 0v342h-64v38h64v122q0 49 15 88.5t42.5 68t67 44t87.5 15.5q95 0 156 -61l-37 -37q-20 20 -46 35t-73 15q-78 0 -118 -46t-40 -133v-111h158v-38h-158v-294h314v-48h-368z" />
    <glyph glyph-name="currency" unicode="&#xa4;" horiz-adv-x="657" 
d="M545 265q0 -39 -12 -74t-35 -63l74 -74l-32 -32l-75 74q-57 -48 -137 -48t-137 48l-74 -74l-32 32l74 74q-48 57 -48 137q0 39 12.5 74.5t35.5 63.5l-74 73l32 32l74 -73q28 23 63 35t74 12t74 -12t63 -35l75 73l32 -32l-74 -73q23 -28 35 -63.5t12 -74.5zM497 265
q0 35 -13 66t-36 54t-54 36t-66 13t-66 -13t-54 -36t-36 -54t-13 -66t13 -66t36 -54t54 -36t66 -13t66 13t54 36t36 54t13 66z" />
    <glyph glyph-name="yen" unicode="&#xa5;" horiz-adv-x="493" 
d="M320 386h108v-38h-127l-27 -53v-53h154v-38h-154v-204h-54v204h-155v38h155v53l-27 53h-128v38h109l-164 326h57l181 -361l179 361h56z" />
    <glyph glyph-name="brokenbar" unicode="&#xa6;" horiz-adv-x="328" 
d="M133 -74v350h51v-350h-51zM133 436v350h51v-350h-51z" />
    <glyph glyph-name="section" unicode="&#xa7;" horiz-adv-x="566" 
d="M469 247q0 -32 -9 -58.5t-24 -48t-35 -37.5t-42 -26q48 -16 75.5 -54t27.5 -92q0 -36 -13 -67t-37 -53t-57 -34.5t-72 -12.5q-38 0 -70 10.5t-56.5 30t-39.5 48.5t-18 66h54q5 -54 39 -80.5t91 -26.5t91 30.5t34 88.5q0 40 -25.5 70t-68.5 42l-83 23q-64 18 -99 66.5
t-35 114.5q0 31 9 58t24 48.5t35 37.5t42 26q-48 20 -73.5 53t-25.5 88q0 37 14 67t37.5 50.5t55.5 31.5t68 11q35 0 66.5 -10t55.5 -29t39 -47.5t17 -64.5h-53q-5 57 -37.5 80.5t-87.5 23.5q-57 0 -89.5 -28t-32.5 -85q0 -46 26 -71t65 -36l83 -23q63 -18 98.5 -67
t35.5 -114zM415 247q0 29 -6.5 54t-28.5 47q-41 41 -97 41q-59 0 -97 -41q-20 -22 -27.5 -45.5t-7.5 -55.5q0 -34 9 -58.5t26 -42.5q38 -41 97 -41t97 41q17 19 26 42.5t9 58.5z" />
    <glyph glyph-name="dieresis" unicode="&#xa8;" horiz-adv-x="500" 
d="M117 600v77h58v-77h-58zM325 600v77h58v-77h-58z" />
    <glyph glyph-name="copyright" unicode="&#xa9;" horiz-adv-x="894" 
d="M809 356q0 -75 -28.5 -141t-77.5 -115t-115 -77.5t-141 -28.5t-141 28.5t-115 77.5t-77.5 115t-28.5 141t28.5 141t77.5 115t115 77.5t141 28.5t141 -28.5t115 -77.5t77.5 -115t28.5 -141zM761 356q0 64 -25 122t-67.5 101.5t-100 69t-121.5 25.5q-65 0 -122 -25.5
t-99.5 -69t-67.5 -101.5t-25 -122q0 -65 25 -122.5t67.5 -101t99.5 -69t122 -25.5q64 0 121.5 25.5t100 69t67.5 101t25 122.5zM582 202q-29 -26 -59 -39t-72 -13q-46 0 -79.5 16.5t-55 44.5t-32 65.5t-10.5 79.5t10.5 79.5t32 66t55 45t79.5 16.5q42 0 71 -12.5t60 -40.5
l-30 -30q-27 24 -49 33t-52 9q-38 0 -63.5 -13.5t-40.5 -36.5t-21.5 -53t-6.5 -63t6.5 -63t21.5 -52.5t40.5 -36t63.5 -13.5q30 0 52 8.5t49 32.5z" />
    <glyph glyph-name="ordfeminine" unicode="&#xaa;" horiz-adv-x="447" 
d="M313 327v36q-24 -23 -49.5 -32t-64.5 -9q-42 0 -67.5 7.5t-44.5 27.5q-14 14 -21 33.5t-7 41.5q0 54 35 82.5t98 28.5h121v42q0 45 -24 68t-81 23q-40 0 -63 -10.5t-41 -37.5l-32 27q26 35 58 47.5t78 12.5q75 0 111.5 -33t36.5 -93v-262h-43zM313 508h-116
q-95 0 -95 -75q0 -37 23 -54.5t74 -17.5q26 0 50 4.5t44 23.5q20 20 20 72v47z" />
    <glyph glyph-name="guillemotleft" unicode="&#xab;" horiz-adv-x="527" 
d="M42 265l196 196v-66l-130 -130l130 -130v-66zM249 265l196 196v-66l-130 -130l130 -130v-66z" />
    <glyph glyph-name="logicalnot" unicode="&#xac;" horiz-adv-x="514" 
d="M414 107v133h-361v47h408v-180h-47z" />
    <glyph glyph-name="uni00AD" unicode="&#xad;" horiz-adv-x="426" 
d="M82 240v47h262v-47h-262z" />
    <glyph glyph-name="registered" unicode="&#xae;" horiz-adv-x="894" 
d="M809 356q0 -75 -28.5 -141t-77.5 -115t-115 -77.5t-141 -28.5t-141 28.5t-115 77.5t-77.5 115t-28.5 141t28.5 141t77.5 115t115 77.5t141 28.5t141 -28.5t115 -77.5t77.5 -115t28.5 -141zM762 356q0 65 -25 123t-67.5 101.5t-100 69t-122.5 25.5t-122.5 -25.5t-100 -69
t-67.5 -101.5t-25 -123t25 -123t67.5 -101.5t100 -69t122.5 -25.5t122.5 25.5t100 69t67.5 101.5t25 123zM444 323h-66v-167h-45v401h128q25 0 47.5 -9t39.5 -24.5t27 -37.5t10 -47q0 -45 -25.5 -73t-65.5 -39l101 -171h-52zM540 439q0 33 -24 55t-60 22h-78v-153h78
q36 0 60 21.5t24 54.5z" />
    <glyph glyph-name="macron" unicode="&#xaf;" horiz-adv-x="500" 
d="M102 610v46h296v-46h-296z" />
    <glyph glyph-name="degree" unicode="&#xb0;" horiz-adv-x="458" 
d="M386 562q0 -33 -12.5 -61.5t-33.5 -49.5t-49.5 -33.5t-61.5 -12.5t-61.5 12.5t-49.5 33.5t-33.5 49.5t-12.5 61.5t12.5 61.5t33.5 49.5t49.5 33.5t61.5 12.5t61.5 -12.5t49.5 -33.5t33.5 -49.5t12.5 -61.5zM341 562q0 24 -8.5 45t-24 36.5t-36 24.5t-44.5 9t-44.5 -8.5
t-35 -24t-23 -36.5t-8.5 -46t8.5 -46t23.5 -36.5t35.5 -24t44.5 -8.5t44.5 8.5t35.5 24t23.5 36.5t8.5 46z" />
    <glyph glyph-name="plusminus" unicode="&#xb1;" horiz-adv-x="514" 
d="M281 270v-182h-47v182h-181v47h181v181h47v-181h180v-47h-180zM53 0v47h408v-47h-408z" />
    <glyph glyph-name="twosuperior" unicode="&#xb2;" horiz-adv-x="313" 
d="M44 285v40l168 213q23 31 23 62q0 35 -19 55.5t-54 20.5q-29 0 -51.5 -17t-22.5 -59h-44q0 51 32 83.5t86 32.5t86 -31t32 -85q0 -26 -8 -45t-26 -42l-149 -188h183v-40h-236z" />
    <glyph glyph-name="threesuperior" unicode="&#xb3;" horiz-adv-x="313" 
d="M282 403q0 -30 -9.5 -52.5t-26.5 -38t-40 -23.5t-49 -8t-48.5 7t-39.5 21t-27.5 35.5t-11.5 50.5h45q2 -40 26.5 -57t55.5 -17q34 0 57.5 22t23.5 60t-20.5 59.5t-63.5 21.5h-8v39h8q38 0 57 20.5t19 55.5q0 38 -22.5 57.5t-51.5 19.5q-34 0 -53.5 -19t-22.5 -51h-44
q4 52 37.5 81t82.5 29q54 0 86 -31t32 -85q0 -69 -57 -94q65 -24 65 -103z" />
    <glyph glyph-name="acute" unicode="&#xb4;" horiz-adv-x="500" 
d="M261 590h-58l97 147h67z" />
    <glyph glyph-name="mu" unicode="&#xb5;" horiz-adv-x="556" 
d="M408 0v57q-54 -63 -142 -63q-79 0 -127 45v-269h-51v712h51v-299q0 -70 33.5 -107t99.5 -37t101 37.5t35 106.5v299h51v-482h-51z" />
    <glyph glyph-name="paragraph" unicode="&#xb6;" horiz-adv-x="579" 
d="M418 -230v894h-123v-894h-51v562q-48 0 -85 16.5t-62.5 43.5t-38.5 61t-13 69q0 37 13.5 71t40.5 60.5t66.5 42.5t90.5 16h213v-942h-51z" />
    <glyph glyph-name="periodcentered" unicode="&#xb7;" horiz-adv-x="264" 
d="M95 227v74h74v-74h-74z" />
    <glyph glyph-name="cedilla" unicode="&#xb8;" horiz-adv-x="500" 
d="M244 -220h-63l72 150h55z" />
    <glyph glyph-name="onesuperior" unicode="&#xb9;" horiz-adv-x="313" 
d="M152 285v378l-80 -71v51l80 69h44v-427h-44z" />
    <glyph glyph-name="ordmasculine" unicode="&#xba;" horiz-adv-x="452" 
d="M380 519q0 -42 -8.5 -82.5t-39.5 -71.5q-42 -42 -106 -42t-106 42q-31 31 -39.5 71.5t-8.5 82.5t8.5 82.5t39.5 71.5q42 42 106 42t106 -42q31 -31 39.5 -71.5t8.5 -82.5zM337 519q0 32 -5 67t-28 58q-32 32 -78 32t-78 -32q-23 -23 -28 -58t-5 -67t5 -67t28 -58
q15 -15 35 -23.5t43 -8.5t43 8.5t35 23.5q23 23 28 58t5 67z" />
    <glyph glyph-name="guillemotright" unicode="&#xbb;" horiz-adv-x="527" 
d="M82 69v66l130 130l-130 130v66l196 -196zM289 69v66l130 130l-130 130v66l196 -196z" />
    <glyph glyph-name="onequarter" unicode="&#xbc;" horiz-adv-x="803" 
d="M152 285v378l-80 -71v51l80 69h44v-427h-44zM258 0h-45l332 712h45zM728 67v-67h-44v67h-170v40l154 320h47l-153 -320h122v120h44v-120h52v-40h-52z" />
    <glyph glyph-name="onehalf" unicode="&#xbd;" horiz-adv-x="803" 
d="M152 285v378l-80 -71v51l80 69h44v-427h-44zM258 0h-45l332 712h45zM534 0v40l168 213q23 31 23 62q0 35 -19 55.5t-54 20.5q-29 0 -51.5 -17t-22.5 -59h-44q0 51 32 83.5t86 32.5t86 -31t32 -85q0 -26 -8 -45t-26 -42l-149 -188h183v-40h-236z" />
    <glyph glyph-name="threequarters" unicode="&#xbe;" horiz-adv-x="803" 
d="M282 403q0 -30 -9.5 -52.5t-26.5 -38t-40 -23.5t-49 -8t-48.5 7t-39.5 21t-27.5 35.5t-11.5 50.5h45q2 -40 26.5 -57t55.5 -17q34 0 57.5 22t23.5 60t-20.5 59.5t-63.5 21.5h-8v39h8q38 0 57 20.5t19 55.5q0 38 -22.5 57.5t-51.5 19.5q-34 0 -53.5 -19t-22.5 -51h-44
q4 52 37.5 81t82.5 29q54 0 86 -31t32 -85q0 -69 -57 -94q65 -24 65 -103zM258 0h-45l332 712h45zM728 67v-67h-44v67h-170v40l154 320h47l-153 -320h122v120h44v-120h52v-40h-52z" />
    <glyph glyph-name="questiondown" unicode="&#xbf;" horiz-adv-x="488" 
d="M408 -60q0 -36 -13 -68t-36.5 -56t-56.5 -38t-73 -14q-38 0 -71 13.5t-57 37t-37.5 55.5t-13.5 70q0 35 12 62.5t32 56.5l85 125q10 14 14 31t4 29v47h51v-45q0 -29 -7 -48.5t-22 -41.5l-84 -124q-15 -23 -24.5 -43t-9.5 -49q0 -28 9.5 -52t27 -41.5t41 -27.5t50.5 -10
q29 0 53 10.5t40.5 28.5t25.5 42t9 50h51zM189 415v67h67v-67h-67z" />
    <glyph glyph-name="Agrave" unicode="&#xc0;" horiz-adv-x="602" 
d="M529 0l-62 173h-332l-62 -173h-58l262 712h48l262 -712h-58zM152 221h298l-149 419zM291 780l-106 147h67l97 -147h-58z" />
    <glyph glyph-name="Aacute" unicode="&#xc1;" horiz-adv-x="602" 
d="M529 0l-62 173h-332l-62 -173h-58l262 712h48l262 -712h-58zM152 221h298l-149 419zM313 780h-58l97 147h67z" />
    <glyph glyph-name="Acircumflex" unicode="&#xc2;" horiz-adv-x="602" 
d="M529 0l-62 173h-332l-62 -173h-58l262 712h48l262 -712h-58zM152 221h298l-149 419zM395 780l-93 109l-93 -109h-57l123 147h54l123 -147h-57z" />
    <glyph glyph-name="Atilde" unicode="&#xc3;" horiz-adv-x="602" 
d="M529 0l-62 173h-332l-62 -173h-58l262 712h48l262 -712h-58zM152 221h298l-149 419zM451 843q-17 -17 -30.5 -27t-24.5 -14.5t-19 -5.5t-15 -1q-17 0 -31.5 5t-37.5 19q-14 8 -27.5 14.5t-28.5 6.5q-12 0 -24 -5t-35 -28l-30 29q17 17 30.5 27t24 14.5t19 5.5t15.5 1
q22 0 36.5 -6.5t32.5 -17.5q16 -10 28.5 -15.5t27.5 -5.5q11 0 23.5 5t35.5 28l30 -29v0z" />
    <glyph glyph-name="Adieresis" unicode="&#xc4;" horiz-adv-x="602" 
d="M529 0l-62 173h-332l-62 -173h-58l262 712h48l262 -712h-58zM152 221h298l-149 419zM169 790v77h58v-77h-58zM377 790v77h58v-77h-58z" />
    <glyph glyph-name="Aring" unicode="&#xc5;" horiz-adv-x="602" 
d="M529 0l-62 173h-332l-62 -173h-58l262 712h48l262 -712h-58zM152 221h298l-149 419zM415 861q0 -24 -9 -44.5t-24.5 -36.5t-36 -25t-44.5 -9t-44.5 9t-36 25t-24.5 36.5t-9 44.5t9 44.5t24.5 36t36 24.5t44.5 9t44.5 -9t36 -24.5t24.5 -36t9 -44.5zM374 861
q0 30 -21.5 51t-51.5 21t-51.5 -21t-21.5 -51t21.5 -51.5t51.5 -21.5t51.5 21.5t21.5 51.5z" />
    <glyph glyph-name="AE" unicode="&#xc6;" horiz-adv-x="901" 
d="M414 0v173h-255l-90 -173h-59l377 712h458v-48h-378v-284h322v-48h-322v-284h378v-48h-431zM414 664l-232 -443h232v443z" />
    <glyph glyph-name="Ccedilla" unicode="&#xc7;" horiz-adv-x="644" 
d="M568 202q-9 -48 -30 -86.5t-52.5 -65.5t-72 -41.5t-87.5 -14.5q-54 0 -97.5 18t-75.5 50q-25 25 -39 49.5t-21 57.5t-9 77.5t-2 109.5t2 109.5t9 77.5t21 57.5t39 49.5q32 32 75.5 50t97.5 18q97 0 160.5 -55.5t81.5 -152.5h-55q-16 75 -65.5 117.5t-121.5 42.5
q-80 0 -135 -55q-19 -19 -30 -41t-16.5 -51.5t-7 -70t-1.5 -96.5t1.5 -96.5t7 -70t16.5 -51.5t30 -41q55 -55 135 -55q72 0 122.5 42.5t66.5 117.5h53zM302 -220h-63l72 150h55z" />
    <glyph glyph-name="Egrave" unicode="&#xc8;" horiz-adv-x="598" 
d="M110 0v712h432v-48h-378v-281h322v-48h-322v-287h378v-48h-432zM304 780l-106 147h67l97 -147h-58z" />
    <glyph glyph-name="Eacute" unicode="&#xc9;" horiz-adv-x="598" 
d="M110 0v712h432v-48h-378v-281h322v-48h-322v-287h378v-48h-432zM326 780h-58l97 147h67z" />
    <glyph glyph-name="Ecircumflex" unicode="&#xca;" horiz-adv-x="598" 
d="M110 0v712h432v-48h-378v-281h322v-48h-322v-287h378v-48h-432zM408 780l-93 109l-93 -109h-57l123 147h54l123 -147h-57z" />
    <glyph glyph-name="Edieresis" unicode="&#xcb;" horiz-adv-x="598" 
d="M110 0v712h432v-48h-378v-281h322v-48h-322v-287h378v-48h-432zM182 790v77h58v-77h-58zM390 790v77h58v-77h-58z" />
    <glyph glyph-name="Igrave" unicode="&#xcc;" horiz-adv-x="274" 
d="M110 0v712h54v-712h-54zM114 780l-106 147h67l97 -147h-58z" />
    <glyph glyph-name="Iacute" unicode="&#xcd;" horiz-adv-x="274" 
d="M162 780h-58l97 147h67zM110 0v712h54v-712h-54z" />
    <glyph glyph-name="Icircumflex" unicode="&#xce;" horiz-adv-x="274" 
d="M110 0v712h54v-712h-54zM233 780l-93 109l-93 -109h-57l123 147h54l123 -147h-57z" />
    <glyph glyph-name="Idieresis" unicode="&#xcf;" horiz-adv-x="274" 
d="M110 0v712h54v-712h-54zM5 790v77h58v-77h-58zM213 790v77h58v-77h-58z" />
    <glyph glyph-name="Eth" unicode="&#xd0;" horiz-adv-x="689" 
d="M607 356q0 -40 -1 -81t-8 -79t-21 -72t-39 -59q-65 -65 -178 -65h-239v338h-81v42h81v332h239q113 0 178 -65q25 -26 39 -59.5t21 -72t8 -79t1 -80.5zM553 356q0 35 -1 71t-6 69.5t-15.5 62.5t-30.5 50q-31 32 -70.5 43.5t-82.5 11.5h-172v-284h178v-42h-178v-290h172
q43 0 82.5 11.5t70.5 43.5q20 21 30.5 50t15.5 62.5t6 69.5t1 71z" />
    <glyph glyph-name="Ntilde" unicode="&#xd1;" horiz-adv-x="739" 
d="M575 0l-411 619v-619h-54v712h54l411 -617v617h54v-712h-54zM519 843q-17 -17 -30.5 -27t-24.5 -14.5t-19 -5.5t-15 -1q-17 0 -31.5 5t-37.5 19q-14 8 -27.5 14.5t-28.5 6.5q-12 0 -24 -5t-35 -28l-30 29q17 17 30.5 27t24 14.5t19 5.5t15.5 1q22 0 36.5 -6.5t32.5 -17.5
q16 -10 28.5 -15.5t27.5 -5.5q11 0 23.5 5t35.5 28l30 -29v0z" />
    <glyph glyph-name="Ograve" unicode="&#xd2;" horiz-adv-x="652" 
d="M570 356q0 -65 -2 -109.5t-9 -77.5t-21 -57.5t-39 -49.5q-32 -32 -75.5 -50t-97.5 -18t-97.5 18t-75.5 50q-25 25 -39 49.5t-21 57.5t-9 77.5t-2 109.5t2 109.5t9 77.5t21 57.5t39 49.5q32 32 75.5 50t97.5 18t97.5 -18t75.5 -50q25 -25 39 -49.5t21 -57.5t9 -77.5
t2 -109.5zM516 356q0 56 -1.5 96.5t-7 70t-16.5 51.5t-30 41q-55 55 -135 55t-135 -55q-19 -19 -30 -41t-16.5 -51.5t-7 -70t-1.5 -96.5t1.5 -96.5t7 -70t16.5 -51.5t30 -41q55 -55 135 -55t135 55q19 19 30 41t16.5 51.5t7 70t1.5 96.5zM315 780l-106 147h67l97 -147h-58z
" />
    <glyph glyph-name="Oacute" unicode="&#xd3;" horiz-adv-x="652" 
d="M570 356q0 -65 -2 -109.5t-9 -77.5t-21 -57.5t-39 -49.5q-32 -32 -75.5 -50t-97.5 -18t-97.5 18t-75.5 50q-25 25 -39 49.5t-21 57.5t-9 77.5t-2 109.5t2 109.5t9 77.5t21 57.5t39 49.5q32 32 75.5 50t97.5 18t97.5 -18t75.5 -50q25 -25 39 -49.5t21 -57.5t9 -77.5
t2 -109.5zM516 356q0 56 -1.5 96.5t-7 70t-16.5 51.5t-30 41q-55 55 -135 55t-135 -55q-19 -19 -30 -41t-16.5 -51.5t-7 -70t-1.5 -96.5t1.5 -96.5t7 -70t16.5 -51.5t30 -41q55 -55 135 -55t135 55q19 19 30 41t16.5 51.5t7 70t1.5 96.5zM337 780h-58l97 147h67z" />
    <glyph glyph-name="Ocircumflex" unicode="&#xd4;" horiz-adv-x="652" 
d="M570 356q0 -65 -2 -109.5t-9 -77.5t-21 -57.5t-39 -49.5q-32 -32 -75.5 -50t-97.5 -18t-97.5 18t-75.5 50q-25 25 -39 49.5t-21 57.5t-9 77.5t-2 109.5t2 109.5t9 77.5t21 57.5t39 49.5q32 32 75.5 50t97.5 18t97.5 -18t75.5 -50q25 -25 39 -49.5t21 -57.5t9 -77.5
t2 -109.5zM516 356q0 56 -1.5 96.5t-7 70t-16.5 51.5t-30 41q-55 55 -135 55t-135 -55q-19 -19 -30 -41t-16.5 -51.5t-7 -70t-1.5 -96.5t1.5 -96.5t7 -70t16.5 -51.5t30 -41q55 -55 135 -55t135 55q19 19 30 41t16.5 51.5t7 70t1.5 96.5zM419 780l-93 109l-93 -109h-57
l123 147h54l123 -147h-57z" />
    <glyph glyph-name="Otilde" unicode="&#xd5;" horiz-adv-x="652" 
d="M570 356q0 -65 -2 -109.5t-9 -77.5t-21 -57.5t-39 -49.5q-32 -32 -75.5 -50t-97.5 -18t-97.5 18t-75.5 50q-25 25 -39 49.5t-21 57.5t-9 77.5t-2 109.5t2 109.5t9 77.5t21 57.5t39 49.5q32 32 75.5 50t97.5 18t97.5 -18t75.5 -50q25 -25 39 -49.5t21 -57.5t9 -77.5
t2 -109.5zM516 356q0 56 -1.5 96.5t-7 70t-16.5 51.5t-30 41q-55 55 -135 55t-135 -55q-19 -19 -30 -41t-16.5 -51.5t-7 -70t-1.5 -96.5t1.5 -96.5t7 -70t16.5 -51.5t30 -41q55 -55 135 -55t135 55q19 19 30 41t16.5 51.5t7 70t1.5 96.5zM475 843q-17 -17 -30.5 -27
t-24.5 -14.5t-19 -5.5t-15 -1q-17 0 -31.5 5t-37.5 19q-14 8 -27.5 14.5t-28.5 6.5q-12 0 -24 -5t-35 -28l-30 29q17 17 30.5 27t24 14.5t19 5.5t15.5 1q22 0 36.5 -6.5t32.5 -17.5q16 -10 28.5 -15.5t27.5 -5.5q11 0 23.5 5t35.5 28l30 -29v0z" />
    <glyph glyph-name="Odieresis" unicode="&#xd6;" horiz-adv-x="652" 
d="M570 356q0 -65 -2 -109.5t-9 -77.5t-21 -57.5t-39 -49.5q-32 -32 -75.5 -50t-97.5 -18t-97.5 18t-75.5 50q-25 25 -39 49.5t-21 57.5t-9 77.5t-2 109.5t2 109.5t9 77.5t21 57.5t39 49.5q32 32 75.5 50t97.5 18t97.5 -18t75.5 -50q25 -25 39 -49.5t21 -57.5t9 -77.5
t2 -109.5zM516 356q0 56 -1.5 96.5t-7 70t-16.5 51.5t-30 41q-55 55 -135 55t-135 -55q-19 -19 -30 -41t-16.5 -51.5t-7 -70t-1.5 -96.5t1.5 -96.5t7 -70t16.5 -51.5t30 -41q55 -55 135 -55t135 55q19 19 30 41t16.5 51.5t7 70t1.5 96.5zM193 790v77h58v-77h-58zM401 790v77
h58v-77h-58z" />
    <glyph glyph-name="multiply" unicode="&#xd7;" horiz-adv-x="514" 
d="M412 78l-155 155l-155 -155l-31 31l155 155l-155 155l31 31l155 -155l155 155l31 -31l-155 -155l155 -155z" />
    <glyph glyph-name="Oslash" unicode="&#xd8;" horiz-adv-x="652" 
d="M570 356q0 -65 -2 -109.5t-9 -77.5t-21 -57.5t-39 -49.5q-32 -32 -75.5 -50t-97.5 -18q-38 0 -70 9t-60 26l-35 -73h-53l49 102q-27 26 -42 51.5t-22.5 58.5t-9 78t-1.5 110t2 109.5t9 77.5t21 57.5t39 49.5q32 32 75.5 50t97.5 18q37 0 70 -9t60 -26l35 73h53l-49 -102
q27 -26 42 -51.5t22.5 -58.5t9 -78t1.5 -110zM434 637q-48 33 -108 33q-80 0 -135 -55q-19 -19 -30 -41t-16.5 -51.5t-7 -70t-1.5 -96.5q0 -53 1 -91.5t5.5 -67t13.5 -50t25 -39.5zM516 356q0 52 -1.5 90.5t-6 67.5t-13.5 50.5t-24 39.5l-253 -529q48 -33 108 -33
q80 0 135 55q19 19 30 41t16.5 51.5t7 70t1.5 96.5z" />
    <glyph glyph-name="Ugrave" unicode="&#xd9;" horiz-adv-x="688" 
d="M588 231q0 -52 -18 -95.5t-50.5 -75t-77 -49t-98.5 -17.5t-98.5 17.5t-77 49t-50.5 75t-18 95.5v481h54v-474q0 -44 13.5 -80.5t38.5 -62t60 -39.5t78 -14t78 14t60 39.5t38.5 62t13.5 80.5v474h54v-481zM333 780l-106 147h67l97 -147h-58z" />
    <glyph glyph-name="Uacute" unicode="&#xda;" horiz-adv-x="688" 
d="M588 231q0 -52 -18 -95.5t-50.5 -75t-77 -49t-98.5 -17.5t-98.5 17.5t-77 49t-50.5 75t-18 95.5v481h54v-474q0 -44 13.5 -80.5t38.5 -62t60 -39.5t78 -14t78 14t60 39.5t38.5 62t13.5 80.5v474h54v-481zM355 780h-58l97 147h67z" />
    <glyph glyph-name="Ucircumflex" unicode="&#xdb;" horiz-adv-x="688" 
d="M588 231q0 -52 -18 -95.5t-50.5 -75t-77 -49t-98.5 -17.5t-98.5 17.5t-77 49t-50.5 75t-18 95.5v481h54v-474q0 -44 13.5 -80.5t38.5 -62t60 -39.5t78 -14t78 14t60 39.5t38.5 62t13.5 80.5v474h54v-481zM437 780l-93 109l-93 -109h-57l123 147h54l123 -147h-57z" />
    <glyph glyph-name="Udieresis" unicode="&#xdc;" horiz-adv-x="688" 
d="M588 231q0 -52 -18 -95.5t-50.5 -75t-77 -49t-98.5 -17.5t-98.5 17.5t-77 49t-50.5 75t-18 95.5v481h54v-474q0 -44 13.5 -80.5t38.5 -62t60 -39.5t78 -14t78 14t60 39.5t38.5 62t13.5 80.5v474h54v-481zM211 790v77h58v-77h-58zM419 790v77h58v-77h-58z" />
    <glyph glyph-name="Yacute" unicode="&#xdd;" horiz-adv-x="494" 
d="M274 295v-295h-54v295l-210 417h58l181 -360l177 360h58zM259 780h-58l97 147h67z" />
    <glyph glyph-name="Thorn" unicode="&#xde;" horiz-adv-x="646" 
d="M586 359q0 -49 -16.5 -87t-45 -64.5t-68 -40t-85.5 -13.5h-207v-154h-54v712h54v-148h207q46 0 85.5 -13.5t68 -40t45 -64.5t16.5 -87zM532 359q0 80 -46.5 118.5t-120.5 38.5h-201v-314h201q74 0 120.5 38.5t46.5 118.5z" />
    <glyph glyph-name="germandbls" unicode="&#xdf;" horiz-adv-x="550" 
d="M473 134q0 -32 -10.5 -57.5t-28.5 -42.5q-20 -18 -41.5 -26t-53.5 -8h-54v45h44q24 0 37.5 5.5t27.5 16.5q28 22 28 73v178q0 24 -5 40t-18 28q-23 23 -65 23h-49v45h39q45 0 71.5 28t26.5 74q0 25 -8.5 46.5t-26.5 38.5q-35 32 -104 32q-72 0 -103.5 -41.5t-31.5 -107.5
v-524h-51v524q0 91 50.5 142.5t141.5 51.5q37 0 70.5 -9.5t58.5 -29.5t39.5 -50.5t14.5 -72.5q0 -80 -63 -122q39 -20 51.5 -48t12.5 -76v-176z" />
    <glyph glyph-name="agrave" unicode="&#xe0;" horiz-adv-x="524" 
d="M380 0v48q-31 -31 -63.5 -42.5t-83.5 -11.5q-54 0 -86.5 10t-55.5 34q-17 17 -26 42t-9 52q0 66 44.5 102.5t123.5 36.5h156v54q0 58 -30.5 88t-105.5 30q-51 0 -80.5 -14t-52.5 -47l-37 32q31 43 70.5 58.5t99.5 15.5q97 0 142 -41t45 -117v-330h-51zM380 230h-150
q-123 0 -123 -97q0 -48 30 -71t96 -23q33 0 63.5 6t56.5 31q27 25 27 92v62zM239 590l-106 147h67l97 -147h-58z" />
    <glyph glyph-name="aacute" unicode="&#xe1;" horiz-adv-x="524" 
d="M380 0v48q-31 -31 -63.5 -42.5t-83.5 -11.5q-54 0 -86.5 10t-55.5 34q-17 17 -26 42t-9 52q0 66 44.5 102.5t123.5 36.5h156v54q0 58 -30.5 88t-105.5 30q-51 0 -80.5 -14t-52.5 -47l-37 32q31 43 70.5 58.5t99.5 15.5q97 0 142 -41t45 -117v-330h-51zM380 230h-150
q-123 0 -123 -97q0 -48 30 -71t96 -23q33 0 63.5 6t56.5 31q27 25 27 92v62zM261 590h-58l97 147h67z" />
    <glyph glyph-name="acircumflex" unicode="&#xe2;" horiz-adv-x="524" 
d="M380 0v48q-31 -31 -63.5 -42.5t-83.5 -11.5q-54 0 -86.5 10t-55.5 34q-17 17 -26 42t-9 52q0 66 44.5 102.5t123.5 36.5h156v54q0 58 -30.5 88t-105.5 30q-51 0 -80.5 -14t-52.5 -47l-37 32q31 43 70.5 58.5t99.5 15.5q97 0 142 -41t45 -117v-330h-51zM380 230h-150
q-123 0 -123 -97q0 -48 30 -71t96 -23q33 0 63.5 6t56.5 31q27 25 27 92v62zM343 590l-93 109l-93 -109h-57l123 147h54l123 -147h-57z" />
    <glyph glyph-name="atilde" unicode="&#xe3;" horiz-adv-x="524" 
d="M380 0v48q-31 -31 -63.5 -42.5t-83.5 -11.5q-54 0 -86.5 10t-55.5 34q-17 17 -26 42t-9 52q0 66 44.5 102.5t123.5 36.5h156v54q0 58 -30.5 88t-105.5 30q-51 0 -80.5 -14t-52.5 -47l-37 32q31 43 70.5 58.5t99.5 15.5q97 0 142 -41t45 -117v-330h-51zM380 230h-150
q-123 0 -123 -97q0 -48 30 -71t96 -23q33 0 63.5 6t56.5 31q27 25 27 92v62zM399 653q-17 -17 -30.5 -27t-24.5 -14.5t-19 -5.5t-15 -1q-17 0 -31.5 5t-37.5 19q-14 8 -27.5 14.5t-28.5 6.5q-12 0 -24 -5t-35 -28l-30 29q17 17 30.5 27t24 14.5t19 5.5t15.5 1
q22 0 36.5 -6.5t32.5 -17.5q16 -10 28.5 -15.5t27.5 -5.5q11 0 23.5 5t35.5 28l30 -29v0z" />
    <glyph glyph-name="adieresis" unicode="&#xe4;" horiz-adv-x="524" 
d="M380 0v48q-31 -31 -63.5 -42.5t-83.5 -11.5q-54 0 -86.5 10t-55.5 34q-17 17 -26 42t-9 52q0 66 44.5 102.5t123.5 36.5h156v54q0 58 -30.5 88t-105.5 30q-51 0 -80.5 -14t-52.5 -47l-37 32q31 43 70.5 58.5t99.5 15.5q97 0 142 -41t45 -117v-330h-51zM380 230h-150
q-123 0 -123 -97q0 -48 30 -71t96 -23q33 0 63.5 6t56.5 31q27 25 27 92v62zM117 600v77h58v-77h-58zM325 600v77h58v-77h-58z" />
    <glyph glyph-name="aring" unicode="&#xe5;" horiz-adv-x="524" 
d="M380 0v48q-31 -31 -63.5 -42.5t-83.5 -11.5q-54 0 -86.5 10t-55.5 34q-17 17 -26 42t-9 52q0 66 44.5 102.5t123.5 36.5h156v54q0 58 -30.5 88t-105.5 30q-51 0 -80.5 -14t-52.5 -47l-37 32q31 43 70.5 58.5t99.5 15.5q97 0 142 -41t45 -117v-330h-51zM380 230h-150
q-123 0 -123 -97q0 -48 30 -71t96 -23q33 0 63.5 6t56.5 31q27 25 27 92v62zM363 677q0 -24 -9 -44.5t-24.5 -36.5t-36 -25t-44.5 -9t-44.5 9t-36 25t-24.5 36.5t-9 44.5t9 44.5t24.5 36t36 24.5t44.5 9t44.5 -9t36 -24.5t24.5 -36t9 -44.5zM322 677q0 30 -21.5 51t-51.5 21
t-51.5 -21t-21.5 -51t21.5 -51.5t51.5 -21.5t51.5 21.5t21.5 51.5z" />
    <glyph glyph-name="ae" unicode="&#xe6;" horiz-adv-x="834" 
d="M431 230q0 -93 39.5 -141.5t117.5 -48.5q43 0 72.5 13.5t60.5 44.5l38 -30q-37 -37 -76 -55.5t-99 -18.5q-123 0 -172 90q-30 -49 -71 -69.5t-108 -20.5q-54 0 -86.5 10t-55.5 34q-17 17 -26 42t-9 52q0 66 44.5 102.5t123.5 36.5h156v54q0 58 -30.5 88t-105.5 30
q-51 0 -80.5 -14t-52.5 -47l-37 32q31 43 70.5 58.5t99.5 15.5q136 0 173 -85q50 85 156 85q91 0 142 -61.5t51 -173.5v-23h-335zM230 230q-123 0 -123 -97q0 -48 30 -71t96 -23q33 0 63.5 6t56.5 31q27 25 27 92v62h-150zM715 271q-1 17 -2 29.5t-2.5 22.5t-4.5 19t-8 20
q-16 38 -49.5 59.5t-75.5 21.5t-76 -21t-49 -60q-5 -12 -7.5 -21t-4.5 -18.5t-3 -21.5t-2 -30h284z" />
    <glyph glyph-name="ccedilla" unicode="&#xe7;" horiz-adv-x="493" 
d="M440 68q-38 -43 -74 -58.5t-85 -15.5q-50 0 -89 17t-66.5 49t-42 78t-14.5 103t14.5 103t42 78t66.5 49t89 17q49 0 85 -15.5t74 -58.5l-35 -32q-31 34 -58.5 47.5t-65.5 13.5q-85 0 -128 -64q-18 -26 -25.5 -57.5t-7.5 -80.5t7.5 -80.5t25.5 -57.5q43 -64 128 -64
q38 0 65.5 13.5t58.5 47.5zM244 -220h-63l72 150h55z" />
    <glyph glyph-name="egrave" unicode="&#xe8;" horiz-adv-x="523" 
d="M120 230q0 -93 39.5 -141.5t117.5 -48.5q43 0 72.5 13.5t60.5 44.5l38 -30q-18 -18 -36.5 -32t-39 -23.5t-44.5 -14t-54 -4.5q-100 0 -152.5 63t-52.5 184q0 118 51 182.5t142 64.5t142 -61.5t51 -173.5v-23h-335zM404 271q-1 17 -2 29.5t-2.5 22.5t-4.5 19t-8 20
q-16 38 -49.5 59.5t-75.5 21.5t-75 -21.5t-50 -59.5q-5 -11 -8 -20t-4.5 -19t-2.5 -22.5t-2 -29.5h284zM253 590l-106 147h67l97 -147h-58z" />
    <glyph glyph-name="eacute" unicode="&#xe9;" horiz-adv-x="523" 
d="M120 230q0 -93 39.5 -141.5t117.5 -48.5q43 0 72.5 13.5t60.5 44.5l38 -30q-18 -18 -36.5 -32t-39 -23.5t-44.5 -14t-54 -4.5q-100 0 -152.5 63t-52.5 184q0 118 51 182.5t142 64.5t142 -61.5t51 -173.5v-23h-335zM404 271q-1 17 -2 29.5t-2.5 22.5t-4.5 19t-8 20
q-16 38 -49.5 59.5t-75.5 21.5t-75 -21.5t-50 -59.5q-5 -11 -8 -20t-4.5 -19t-2.5 -22.5t-2 -29.5h284zM275 590h-58l97 147h67z" />
    <glyph glyph-name="ecircumflex" unicode="&#xea;" horiz-adv-x="523" 
d="M120 230q0 -93 39.5 -141.5t117.5 -48.5q43 0 72.5 13.5t60.5 44.5l38 -30q-18 -18 -36.5 -32t-39 -23.5t-44.5 -14t-54 -4.5q-100 0 -152.5 63t-52.5 184q0 118 51 182.5t142 64.5t142 -61.5t51 -173.5v-23h-335zM404 271q-1 17 -2 29.5t-2.5 22.5t-4.5 19t-8 20
q-16 38 -49.5 59.5t-75.5 21.5t-75 -21.5t-50 -59.5q-5 -11 -8 -20t-4.5 -19t-2.5 -22.5t-2 -29.5h284zM357 590l-93 109l-93 -109h-57l123 147h54l123 -147h-57z" />
    <glyph glyph-name="edieresis" unicode="&#xeb;" horiz-adv-x="523" 
d="M120 230q0 -93 39.5 -141.5t117.5 -48.5q43 0 72.5 13.5t60.5 44.5l38 -30q-18 -18 -36.5 -32t-39 -23.5t-44.5 -14t-54 -4.5q-100 0 -152.5 63t-52.5 184q0 118 51 182.5t142 64.5t142 -61.5t51 -173.5v-23h-335zM404 271q-1 17 -2 29.5t-2.5 22.5t-4.5 19t-8 20
q-16 38 -49.5 59.5t-75.5 21.5t-75 -21.5t-50 -59.5q-5 -11 -8 -20t-4.5 -19t-2.5 -22.5t-2 -29.5h284zM131 600v77h58v-77h-58zM339 600v77h58v-77h-58z" />
    <glyph glyph-name="igrave" unicode="&#xec;" horiz-adv-x="245" 
d="M97 0v482h51v-482h-51zM91 590l-106 147h67l97 -147h-58z" />
    <glyph glyph-name="iacute" unicode="&#xed;" horiz-adv-x="245" 
d="M97 0v482h51v-482h-51zM156 590h-58l97 147h67z" />
    <glyph glyph-name="icircumflex" unicode="&#xee;" horiz-adv-x="245" 
d="M97 0v482h51v-482h-51zM216 590l-93 109l-93 -109h-57l123 147h54l123 -147h-57z" />
    <glyph glyph-name="idieresis" unicode="&#xef;" horiz-adv-x="245" 
d="M97 0v482h51v-482h-51zM-10 600v77h58v-77h-58zM198 600v77h58v-77h-58z" />
    <glyph glyph-name="eth" unicode="&#xf0;" horiz-adv-x="526" 
d="M457 241q0 -52 -11 -104t-49 -90q-53 -53 -134 -53t-134 53q-38 38 -49 90t-11 104t11 104t49 90q53 53 134 53q19 0 39.5 -4t35.5 -13l-67 113h-117v38h95l-53 90h53l52 -90h79v-38h-57l72 -123q20 -35 32.5 -62t19 -51.5t8.5 -49.5t2 -57zM406 241q0 21 -1 43
t-5.5 43.5t-13 40.5t-23.5 34q-41 41 -100 41t-100 -41q-15 -15 -23.5 -34t-13 -40.5t-5.5 -43.5t-1 -43t1 -43t5.5 -43.5t13 -40.5t23.5 -34q41 -41 100 -41t100 41q15 15 23.5 34t13 40.5t5.5 43.5t1 43z" />
    <glyph glyph-name="ntilde" unicode="&#xf1;" 
d="M417 0v299q0 70 -33.5 107t-99.5 37t-101 -37.5t-35 -106.5v-299h-51v482h51v-57q54 63 142 63q81 0 128 -46q50 -48 50 -134v-308h-51zM433 653q-17 -17 -30.5 -27t-24.5 -14.5t-19 -5.5t-15 -1q-17 0 -31.5 5t-37.5 19q-14 8 -27.5 14.5t-28.5 6.5q-12 0 -24 -5
t-35 -28l-30 29q17 17 30.5 27t24 14.5t19 5.5t15.5 1q22 0 36.5 -6.5t32.5 -17.5q16 -10 28.5 -15.5t27.5 -5.5q11 0 23.5 5t35.5 28l30 -29v0z" />
    <glyph glyph-name="ograve" unicode="&#xf2;" horiz-adv-x="526" 
d="M457 241q0 -52 -11 -104t-49 -90q-53 -53 -134 -53t-134 53q-38 38 -49 90t-11 104t11 104t49 90q53 53 134 53t134 -53q38 -38 49 -90t11 -104zM406 241q0 21 -1 43t-5.5 43.5t-13 40.5t-23.5 34q-41 41 -100 41t-100 -41q-15 -15 -23.5 -34t-13 -40.5t-5.5 -43.5
t-1 -43t1 -43t5.5 -43.5t13 -40.5t23.5 -34q41 -41 100 -41t100 41q15 15 23.5 34t13 40.5t5.5 43.5t1 43zM257 590l-106 147h67l97 -147h-58z" />
    <glyph glyph-name="oacute" unicode="&#xf3;" horiz-adv-x="526" 
d="M457 241q0 -52 -11 -104t-49 -90q-53 -53 -134 -53t-134 53q-38 38 -49 90t-11 104t11 104t49 90q53 53 134 53t134 -53q38 -38 49 -90t11 -104zM406 241q0 21 -1 43t-5.5 43.5t-13 40.5t-23.5 34q-41 41 -100 41t-100 -41q-15 -15 -23.5 -34t-13 -40.5t-5.5 -43.5
t-1 -43t1 -43t5.5 -43.5t13 -40.5t23.5 -34q41 -41 100 -41t100 41q15 15 23.5 34t13 40.5t5.5 43.5t1 43zM274 590h-58l97 147h67z" />
    <glyph glyph-name="ocircumflex" unicode="&#xf4;" horiz-adv-x="526" 
d="M457 241q0 -52 -11 -104t-49 -90q-53 -53 -134 -53t-134 53q-38 38 -49 90t-11 104t11 104t49 90q53 53 134 53t134 -53q38 -38 49 -90t11 -104zM406 241q0 21 -1 43t-5.5 43.5t-13 40.5t-23.5 34q-41 41 -100 41t-100 -41q-15 -15 -23.5 -34t-13 -40.5t-5.5 -43.5
t-1 -43t1 -43t5.5 -43.5t13 -40.5t23.5 -34q41 -41 100 -41t100 41q15 15 23.5 34t13 40.5t5.5 43.5t1 43zM356 590l-93 109l-93 -109h-57l123 147h54l123 -147h-57z" />
    <glyph glyph-name="otilde" unicode="&#xf5;" horiz-adv-x="526" 
d="M457 241q0 -52 -11 -104t-49 -90q-53 -53 -134 -53t-134 53q-38 38 -49 90t-11 104t11 104t49 90q53 53 134 53t134 -53q38 -38 49 -90t11 -104zM406 241q0 21 -1 43t-5.5 43.5t-13 40.5t-23.5 34q-41 41 -100 41t-100 -41q-15 -15 -23.5 -34t-13 -40.5t-5.5 -43.5
t-1 -43t1 -43t5.5 -43.5t13 -40.5t23.5 -34q41 -41 100 -41t100 41q15 15 23.5 34t13 40.5t5.5 43.5t1 43zM412 653q-17 -17 -30.5 -27t-24.5 -14.5t-19 -5.5t-15 -1q-17 0 -31.5 5t-37.5 19q-14 8 -27.5 14.5t-28.5 6.5q-12 0 -24 -5t-35 -28l-30 29q17 17 30.5 27t24 14.5
t19 5.5t15.5 1q22 0 36.5 -6.5t32.5 -17.5q16 -10 28.5 -15.5t27.5 -5.5q11 0 23.5 5t35.5 28l30 -29v0z" />
    <glyph glyph-name="odieresis" unicode="&#xf6;" horiz-adv-x="526" 
d="M457 241q0 -52 -11 -104t-49 -90q-53 -53 -134 -53t-134 53q-38 38 -49 90t-11 104t11 104t49 90q53 53 134 53t134 -53q38 -38 49 -90t11 -104zM406 241q0 21 -1 43t-5.5 43.5t-13 40.5t-23.5 34q-41 41 -100 41t-100 -41q-15 -15 -23.5 -34t-13 -40.5t-5.5 -43.5
t-1 -43t1 -43t5.5 -43.5t13 -40.5t23.5 -34q41 -41 100 -41t100 41q15 15 23.5 34t13 40.5t5.5 43.5t1 43zM130 600v77h58v-77h-58zM338 600v77h58v-77h-58z" />
    <glyph glyph-name="divide" unicode="&#xf7;" horiz-adv-x="514" 
d="M222 130h70v-70h-70v70zM53 287h408v-47h-408v47zM222 467h70v-70h-70v70z" />
    <glyph glyph-name="oslash" unicode="&#xf8;" horiz-adv-x="526" 
d="M457 241q0 -52 -11 -104t-49 -90q-53 -53 -134 -53q-58 0 -105 29l-40 -67h-48l56 94q-36 38 -46.5 89t-10.5 102q0 52 11 104t49 90q53 53 134 53q60 0 105 -30l40 68h48l-56 -94q36 -38 46.5 -89t10.5 -102zM344 418q-35 25 -81 25q-59 0 -100 -41q-15 -15 -23.5 -34
t-13 -40.5t-5.5 -43.5t-1 -43q0 -38 4.5 -77.5t27.5 -70.5zM406 241q0 38 -4.5 77.5t-27.5 70.5l-192 -325q35 -25 81 -25q59 0 100 41q15 15 23.5 34t13 40.5t5.5 43.5t1 43z" />
    <glyph glyph-name="ugrave" unicode="&#xf9;" 
d="M411 0v57q-54 -63 -142 -63q-81 0 -128 46q-50 48 -50 134v308h51v-299q0 -70 33.5 -107t99.5 -37t101 37.5t35 106.5v299h51v-482h-51zM265 590l-106 147h67l97 -147h-58z" />
    <glyph glyph-name="uacute" unicode="&#xfa;" 
d="M411 0v57q-54 -63 -142 -63q-81 0 -128 46q-50 48 -50 134v308h51v-299q0 -70 33.5 -107t99.5 -37t101 37.5t35 106.5v299h51v-482h-51zM287 590h-58l97 147h67z" />
    <glyph glyph-name="ucircumflex" unicode="&#xfb;" 
d="M411 0v57q-54 -63 -142 -63q-81 0 -128 46q-50 48 -50 134v308h51v-299q0 -70 33.5 -107t99.5 -37t101 37.5t35 106.5v299h51v-482h-51zM369 590l-93 109l-93 -109h-57l123 147h54l123 -147h-57z" />
    <glyph glyph-name="udieresis" unicode="&#xfc;" 
d="M411 0v57q-54 -63 -142 -63q-81 0 -128 46q-50 48 -50 134v308h51v-299q0 -70 33.5 -107t99.5 -37t101 37.5t35 106.5v299h51v-482h-51zM143 600v77h58v-77h-58zM351 600v77h58v-77h-58z" />
    <glyph glyph-name="yacute" unicode="&#xfd;" horiz-adv-x="430" 
d="M192 -131q-14 -40 -33 -56q-18 -17 -42.5 -24t-48.5 -7h-24v45h19q21 0 34.5 3.5t23.5 11.5t17 20.5t13 30.5l39 107l-176 482h56l145 -422l145 422h56zM227 590h-58l97 147h67z" />
    <glyph glyph-name="thorn" unicode="&#xfe;" horiz-adv-x="540" 
d="M471 241q0 -57 -12.5 -112.5t-49.5 -92.5q-19 -19 -49.5 -30.5t-68.5 -11.5q-42 0 -76.5 13t-66.5 55v-292h-51v942h51v-292q32 42 66.5 55t76.5 13q38 0 68.5 -11.5t49.5 -30.5q37 -37 49.5 -92.5t12.5 -112.5zM420 241q0 37 -4.5 73.5t-19 65t-41.5 46t-71 17.5
t-71 -17.5t-41.5 -46t-19 -65t-4.5 -73.5q0 -38 4.5 -74t19 -64.5t41.5 -46t71 -17.5t71 17.5t41.5 46t19 64.5t4.5 74z" />
    <glyph glyph-name="ydieresis" unicode="&#xff;" horiz-adv-x="430" 
d="M192 -131q-14 -40 -33 -56q-18 -17 -42.5 -24t-48.5 -7h-24v45h19q21 0 34.5 3.5t23.5 11.5t17 20.5t13 30.5l39 107l-176 482h56l145 -422l145 422h56zM83 600v77h58v-77h-58zM291 600v77h58v-77h-58z" />
    <glyph glyph-name="Amacron" unicode="&#x100;" horiz-adv-x="602" 
d="M529 0l-62 173h-332l-62 -173h-58l262 712h48l262 -712h-58zM152 221h298l-149 419zM153 800v46h296v-46h-296z" />
    <glyph glyph-name="amacron" unicode="&#x101;" horiz-adv-x="524" 
d="M380 0v48q-31 -31 -63.5 -42.5t-83.5 -11.5q-54 0 -86.5 10t-55.5 34q-17 17 -26 42t-9 52q0 66 44.5 102.5t123.5 36.5h156v54q0 58 -30.5 88t-105.5 30q-51 0 -80.5 -14t-52.5 -47l-37 32q31 43 70.5 58.5t99.5 15.5q97 0 142 -41t45 -117v-330h-51zM380 230h-150
q-123 0 -123 -97q0 -48 30 -71t96 -23q33 0 63.5 6t56.5 31q27 25 27 92v62zM114 610v46h296v-46h-296z" />
    <glyph glyph-name="Abreve" unicode="&#x102;" horiz-adv-x="602" 
d="M529 0l-62 173h-332l-62 -173h-58l262 712h48l262 -712h-58zM152 221h298l-149 419zM466 927q-7 -64 -45.5 -99.5t-119.5 -35.5t-119.5 35.5t-45.5 99.5h45q6 -42 37 -66t83 -24t83 24t37 66h45v0z" />
    <glyph glyph-name="abreve" unicode="&#x103;" horiz-adv-x="524" 
d="M380 0v48q-31 -31 -63.5 -42.5t-83.5 -11.5q-54 0 -86.5 10t-55.5 34q-17 17 -26 42t-9 52q0 66 44.5 102.5t123.5 36.5h156v54q0 58 -30.5 88t-105.5 30q-51 0 -80.5 -14t-52.5 -47l-37 32q31 43 70.5 58.5t99.5 15.5q97 0 142 -41t45 -117v-330h-51zM380 230h-150
q-123 0 -123 -97q0 -48 30 -71t96 -23q33 0 63.5 6t56.5 31q27 25 27 92v62zM410 722q-7 -64 -45.5 -99.5t-119.5 -35.5t-119.5 35.5t-45.5 99.5h45q6 -42 37 -66t83 -24t83 24t37 66h45v0z" />
    <glyph glyph-name="Aogonek" unicode="&#x104;" horiz-adv-x="602" 
d="M529 0l-62 173h-332l-62 -173h-58l262 712h48l262 -712h-58zM152 221h298l-149 419zM520 -220h-63l72 150h55z" />
    <glyph glyph-name="aogonek" unicode="&#x105;" horiz-adv-x="524" 
d="M380 0v48q-31 -31 -63.5 -42.5t-83.5 -11.5q-54 0 -86.5 10t-55.5 34q-17 17 -26 42t-9 52q0 66 44.5 102.5t123.5 36.5h156v54q0 58 -30.5 88t-105.5 30q-51 0 -80.5 -14t-52.5 -47l-37 32q31 43 70.5 58.5t99.5 15.5q97 0 142 -41t45 -117v-330h-51zM380 230h-150
q-123 0 -123 -97q0 -48 30 -71t96 -23q33 0 63.5 6t56.5 31q27 25 27 92v62zM371 -220h-63l72 150h55z" />
    <glyph glyph-name="Cacute" unicode="&#x106;" horiz-adv-x="644" 
d="M568 202q-9 -48 -30 -86.5t-52.5 -65.5t-72 -41.5t-87.5 -14.5q-54 0 -97.5 18t-75.5 50q-25 25 -39 49.5t-21 57.5t-9 77.5t-2 109.5t2 109.5t9 77.5t21 57.5t39 49.5q32 32 75.5 50t97.5 18q97 0 160.5 -55.5t81.5 -152.5h-55q-16 75 -65.5 117.5t-121.5 42.5
q-80 0 -135 -55q-19 -19 -30 -41t-16.5 -51.5t-7 -70t-1.5 -96.5t1.5 -96.5t7 -70t16.5 -51.5t30 -41q55 -55 135 -55q72 0 122.5 42.5t66.5 117.5h53zM334 780h-58l97 147h67z" />
    <glyph glyph-name="cacute" unicode="&#x107;" horiz-adv-x="493" 
d="M440 68q-38 -43 -74 -58.5t-85 -15.5q-50 0 -89 17t-66.5 49t-42 78t-14.5 103t14.5 103t42 78t66.5 49t89 17q49 0 85 -15.5t74 -58.5l-35 -32q-31 34 -58.5 47.5t-65.5 13.5q-85 0 -128 -64q-18 -26 -25.5 -57.5t-7.5 -80.5t7.5 -80.5t25.5 -57.5q43 -64 128 -64
q38 0 65.5 13.5t58.5 47.5zM292 590h-58l97 147h67z" />
    <glyph glyph-name="Ccircumflex" unicode="&#x108;" horiz-adv-x="644" 
d="M568 202q-9 -48 -30 -86.5t-52.5 -65.5t-72 -41.5t-87.5 -14.5q-54 0 -97.5 18t-75.5 50q-25 25 -39 49.5t-21 57.5t-9 77.5t-2 109.5t2 109.5t9 77.5t21 57.5t39 49.5q32 32 75.5 50t97.5 18q97 0 160.5 -55.5t81.5 -152.5h-55q-16 75 -65.5 117.5t-121.5 42.5
q-80 0 -135 -55q-19 -19 -30 -41t-16.5 -51.5t-7 -70t-1.5 -96.5t1.5 -96.5t7 -70t16.5 -51.5t30 -41q55 -55 135 -55q72 0 122.5 42.5t66.5 117.5h53zM419 780l-93 109l-93 -109h-57l123 147h54l123 -147h-57z" />
    <glyph glyph-name="ccircumflex" unicode="&#x109;" horiz-adv-x="493" 
d="M440 68q-38 -43 -74 -58.5t-85 -15.5q-50 0 -89 17t-66.5 49t-42 78t-14.5 103t14.5 103t42 78t66.5 49t89 17q49 0 85 -15.5t74 -58.5l-35 -32q-31 34 -58.5 47.5t-65.5 13.5q-85 0 -128 -64q-18 -26 -25.5 -57.5t-7.5 -80.5t7.5 -80.5t25.5 -57.5q43 -64 128 -64
q38 0 65.5 13.5t58.5 47.5zM374 590l-93 109l-93 -109h-57l123 147h54l123 -147h-57z" />
    <glyph glyph-name="Cdotaccent" unicode="&#x10a;" horiz-adv-x="644" 
d="M568 202q-9 -48 -30 -86.5t-52.5 -65.5t-72 -41.5t-87.5 -14.5q-54 0 -97.5 18t-75.5 50q-25 25 -39 49.5t-21 57.5t-9 77.5t-2 109.5t2 109.5t9 77.5t21 57.5t39 49.5q32 32 75.5 50t97.5 18q97 0 160.5 -55.5t81.5 -152.5h-55q-16 75 -65.5 117.5t-121.5 42.5
q-80 0 -135 -55q-19 -19 -30 -41t-16.5 -51.5t-7 -70t-1.5 -96.5t1.5 -96.5t7 -70t16.5 -51.5t30 -41q55 -55 135 -55q72 0 122.5 42.5t66.5 117.5h53zM295 800v63h62v-63h-62z" />
    <glyph glyph-name="cdotaccent" unicode="&#x10b;" horiz-adv-x="493" 
d="M440 68q-38 -43 -74 -58.5t-85 -15.5q-50 0 -89 17t-66.5 49t-42 78t-14.5 103t14.5 103t42 78t66.5 49t89 17q49 0 85 -15.5t74 -58.5l-35 -32q-31 34 -58.5 47.5t-65.5 13.5q-85 0 -128 -64q-18 -26 -25.5 -57.5t-7.5 -80.5t7.5 -80.5t25.5 -57.5q43 -64 128 -64
q38 0 65.5 13.5t58.5 47.5zM250 610v63h62v-63h-62z" />
    <glyph glyph-name="Ccaron" unicode="&#x10c;" horiz-adv-x="644" 
d="M568 202q-9 -48 -30 -86.5t-52.5 -65.5t-72 -41.5t-87.5 -14.5q-54 0 -97.5 18t-75.5 50q-25 25 -39 49.5t-21 57.5t-9 77.5t-2 109.5t2 109.5t9 77.5t21 57.5t39 49.5q32 32 75.5 50t97.5 18q97 0 160.5 -55.5t81.5 -152.5h-55q-16 75 -65.5 117.5t-121.5 42.5
q-80 0 -135 -55q-19 -19 -30 -41t-16.5 -51.5t-7 -70t-1.5 -96.5t1.5 -96.5t7 -70t16.5 -51.5t30 -41q55 -55 135 -55q72 0 122.5 42.5t66.5 117.5h53zM349 780h-54l-123 147h57l93 -109l93 109h57z" />
    <glyph glyph-name="ccaron" unicode="&#x10d;" horiz-adv-x="493" 
d="M440 68q-38 -43 -74 -58.5t-85 -15.5q-50 0 -89 17t-66.5 49t-42 78t-14.5 103t14.5 103t42 78t66.5 49t89 17q49 0 85 -15.5t74 -58.5l-35 -32q-31 34 -58.5 47.5t-65.5 13.5q-85 0 -128 -64q-18 -26 -25.5 -57.5t-7.5 -80.5t7.5 -80.5t25.5 -57.5q43 -64 128 -64
q38 0 65.5 13.5t58.5 47.5zM308 590h-54l-123 147h57l93 -109l93 109h57z" />
    <glyph glyph-name="Dcaron" unicode="&#x10e;" horiz-adv-x="678" 
d="M596 356q0 -40 -1 -81t-8 -79t-21 -72t-39 -59q-65 -65 -178 -65h-239v712h239q113 0 178 -65q25 -26 39 -59.5t21 -72t8 -79t1 -80.5zM542 356q0 35 -1 71t-6 69.5t-15.5 62.5t-30.5 50q-31 32 -70.5 43.5t-82.5 11.5h-172v-616h172q43 0 82.5 11.5t70.5 43.5
q20 21 30.5 50t15.5 62.5t6 69.5t1 71zM366 780h-54l-123 147h57l93 -109l93 109h57z" />
    <glyph glyph-name="dcaron" unicode="&#x10f;" horiz-adv-x="540" 
d="M392 0v62q-32 -42 -66.5 -55t-76.5 -13q-38 0 -68.5 11.5t-49.5 30.5q-37 37 -49.5 92.5t-12.5 112.5t12.5 112.5t49.5 92.5q19 19 49.5 30.5t68.5 11.5q42 0 76.5 -13t66.5 -55v292h51v-712h-51zM392 241q0 37 -4.5 73.5t-19 65t-41.5 46t-71 17.5t-71 -17.5t-41.5 -46
t-19 -65t-4.5 -73.5q0 -38 4.5 -74t19 -64.5t41.5 -46t71 -17.5t71 17.5t41.5 46t19 64.5t4.5 74zM553 564h-47l40 148h55z" />
    <glyph glyph-name="Dcroat" unicode="&#x110;" horiz-adv-x="689" 
d="M607 356q0 -40 -1 -81t-8 -79t-21 -72t-39 -59q-65 -65 -178 -65h-239v338h-81v42h81v332h239q113 0 178 -65q25 -26 39 -59.5t21 -72t8 -79t1 -80.5zM553 356q0 35 -1 71t-6 69.5t-15.5 62.5t-30.5 50q-31 32 -70.5 43.5t-82.5 11.5h-172v-284h178v-42h-178v-290h172
q43 0 82.5 11.5t70.5 43.5q20 21 30.5 50t15.5 62.5t6 69.5t1 71z" />
    <glyph glyph-name="dcroat" unicode="&#x111;" horiz-adv-x="550" 
d="M443 574v-574h-51v62q-32 -42 -67 -55t-76 -13q-38 0 -68.5 11.5t-49.5 30.5q-37 37 -49.5 92.5t-12.5 112.5t12.5 112.5t49.5 92.5q19 19 49.5 30.5t68.5 11.5q41 0 76 -13t67 -55v154h-136v36h136v102h51v-102h65v-36h-65zM392 241q0 37 -4.5 73.5t-19 65t-41.5 46
t-71 17.5t-71 -17.5t-41.5 -46t-19 -65t-4.5 -73.5q0 -38 4.5 -74t19 -64.5t41.5 -46t71 -17.5t71 17.5t41.5 46t19 64.5t4.5 74z" />
    <glyph glyph-name="Emacron" unicode="&#x112;" horiz-adv-x="598" 
d="M110 0v712h432v-48h-378v-281h322v-48h-322v-287h378v-48h-432zM166 800v46h296v-46h-296z" />
    <glyph glyph-name="emacron" unicode="&#x113;" horiz-adv-x="523" 
d="M120 230q0 -93 39.5 -141.5t117.5 -48.5q43 0 72.5 13.5t60.5 44.5l38 -30q-18 -18 -36.5 -32t-39 -23.5t-44.5 -14t-54 -4.5q-100 0 -152.5 63t-52.5 184q0 118 51 182.5t142 64.5t142 -61.5t51 -173.5v-23h-335zM404 271q-1 17 -2 29.5t-2.5 22.5t-4.5 19t-8 20
q-16 38 -49.5 59.5t-75.5 21.5t-75 -21.5t-50 -59.5q-5 -11 -8 -20t-4.5 -19t-2.5 -22.5t-2 -29.5h284zM113 610v46h296v-46h-296z" />
    <glyph glyph-name="Ebreve" unicode="&#x114;" horiz-adv-x="598" 
d="M110 0v712h432v-48h-378v-281h322v-48h-322v-287h378v-48h-432zM479 927q-7 -64 -45.5 -99.5t-119.5 -35.5t-119.5 35.5t-45.5 99.5h45q6 -42 37 -66t83 -24t83 24t37 66h45v0z" />
    <glyph glyph-name="ebreve" unicode="&#x115;" horiz-adv-x="523" 
d="M120 230q0 -93 39.5 -141.5t117.5 -48.5q43 0 72.5 13.5t60.5 44.5l38 -30q-18 -18 -36.5 -32t-39 -23.5t-44.5 -14t-54 -4.5q-100 0 -152.5 63t-52.5 184q0 118 51 182.5t142 64.5t142 -61.5t51 -173.5v-23h-335zM404 271q-1 17 -2 29.5t-2.5 22.5t-4.5 19t-8 20
q-16 38 -49.5 59.5t-75.5 21.5t-75 -21.5t-50 -59.5q-5 -11 -8 -20t-4.5 -19t-2.5 -22.5t-2 -29.5h284zM429 722q-7 -64 -45.5 -99.5t-119.5 -35.5t-119.5 35.5t-45.5 99.5h45q6 -42 37 -66t83 -24t83 24t37 66h45v0z" />
    <glyph glyph-name="Edotaccent" unicode="&#x116;" horiz-adv-x="598" 
d="M110 0v712h432v-48h-378v-281h322v-48h-322v-287h378v-48h-432zM283 800v63h62v-63h-62z" />
    <glyph glyph-name="edotaccent" unicode="&#x117;" horiz-adv-x="523" 
d="M120 230q0 -93 39.5 -141.5t117.5 -48.5q43 0 72.5 13.5t60.5 44.5l38 -30q-18 -18 -36.5 -32t-39 -23.5t-44.5 -14t-54 -4.5q-100 0 -152.5 63t-52.5 184q0 118 51 182.5t142 64.5t142 -61.5t51 -173.5v-23h-335zM404 271q-1 17 -2 29.5t-2.5 22.5t-4.5 19t-8 20
q-16 38 -49.5 59.5t-75.5 21.5t-75 -21.5t-50 -59.5q-5 -11 -8 -20t-4.5 -19t-2.5 -22.5t-2 -29.5h284zM230 610v63h62v-63h-62z" />
    <glyph glyph-name="Eogonek" unicode="&#x118;" horiz-adv-x="598" 
d="M110 0v712h432v-48h-378v-281h322v-48h-322v-287h378v-48h-432zM478 -220h-63l72 150h55z" />
    <glyph glyph-name="eogonek" unicode="&#x119;" horiz-adv-x="523" 
d="M120 230q0 -93 39.5 -141.5t117.5 -48.5q43 0 72.5 13.5t60.5 44.5l38 -30q-18 -18 -36.5 -32t-39 -23.5t-44.5 -14t-54 -4.5q-100 0 -152.5 63t-52.5 184q0 118 51 182.5t142 64.5t142 -61.5t51 -173.5v-23h-335zM404 271q-1 17 -2 29.5t-2.5 22.5t-4.5 19t-8 20
q-16 38 -49.5 59.5t-75.5 21.5t-75 -21.5t-50 -59.5q-5 -11 -8 -20t-4.5 -19t-2.5 -22.5t-2 -29.5h284zM291 -220h-63l72 150h55z" />
    <glyph glyph-name="Ecaron" unicode="&#x11a;" horiz-adv-x="598" 
d="M110 0v712h432v-48h-378v-281h322v-48h-322v-287h378v-48h-432zM341 780h-54l-123 147h57l93 -109l93 109h57z" />
    <glyph glyph-name="ecaron" unicode="&#x11b;" horiz-adv-x="523" 
d="M120 230q0 -93 39.5 -141.5t117.5 -48.5q43 0 72.5 13.5t60.5 44.5l38 -30q-18 -18 -36.5 -32t-39 -23.5t-44.5 -14t-54 -4.5q-100 0 -152.5 63t-52.5 184q0 118 51 182.5t142 64.5t142 -61.5t51 -173.5v-23h-335zM404 271q-1 17 -2 29.5t-2.5 22.5t-4.5 19t-8 20
q-16 38 -49.5 59.5t-75.5 21.5t-75 -21.5t-50 -59.5q-5 -11 -8 -20t-4.5 -19t-2.5 -22.5t-2 -29.5h284zM288 590h-54l-123 147h57l93 -109l93 109h57z" />
    <glyph glyph-name="Gcircumflex" unicode="&#x11c;" horiz-adv-x="651" 
d="M571 248q0 -57 -13 -97t-45 -75q-35 -38 -84 -60t-103 -22t-97.5 18t-75.5 50q-25 25 -39 49.5t-21 57.5t-9 77.5t-2 109.5t2 109.5t9 77.5t21 57.5t39 49.5q32 32 75.5 50t97.5 18q46 0 87 -15t73 -42t53.5 -65.5t29.5 -85.5h-54q-16 75 -66.5 117.5t-122.5 42.5
q-80 0 -135 -55q-19 -19 -30 -41t-16.5 -51.5t-7 -70t-1.5 -96.5t1.5 -96.5t7 -70t16.5 -51.5t30 -41q55 -55 135 -55q42 0 81 17.5t67 51.5q23 29 33 62t10 79v64h-191v48h245v-116zM419 780l-93 109l-93 -109h-57l123 147h54l123 -147h-57z" />
    <glyph glyph-name="gcircumflex" unicode="&#x11d;" horiz-adv-x="540" 
d="M443 -27q0 -45 -13 -83.5t-38.5 -66.5t-62 -43.5t-83.5 -15.5q-27 0 -48 3.5t-39.5 11.5t-35.5 20t-36 29l34 34q14 -13 27 -23t27 -16.5t31 -10t40 -3.5q38 0 65.5 12.5t45.5 35t26.5 53t8.5 66.5v86q-32 -42 -66.5 -55t-76.5 -13q-38 0 -68.5 11.5t-49.5 30.5
q-37 37 -49.5 92.5t-12.5 112.5t12.5 112.5t49.5 92.5q19 19 49.5 30.5t68.5 11.5q42 0 76.5 -13t66.5 -55v62h51v-509zM392 241q0 37 -4.5 73.5t-19 65t-41.5 46t-71 17.5t-71 -17.5t-41.5 -46t-19 -65t-4.5 -73.5q0 -38 4.5 -74t19 -64.5t41.5 -46t71 -17.5t71 17.5
t41.5 46t19 64.5t4.5 74zM370 590l-93 109l-93 -109h-57l123 147h54l123 -147h-57z" />
    <glyph glyph-name="Gbreve" unicode="&#x11e;" horiz-adv-x="651" 
d="M571 248q0 -57 -13 -97t-45 -75q-35 -38 -84 -60t-103 -22t-97.5 18t-75.5 50q-25 25 -39 49.5t-21 57.5t-9 77.5t-2 109.5t2 109.5t9 77.5t21 57.5t39 49.5q32 32 75.5 50t97.5 18q46 0 87 -15t73 -42t53.5 -65.5t29.5 -85.5h-54q-16 75 -66.5 117.5t-122.5 42.5
q-80 0 -135 -55q-19 -19 -30 -41t-16.5 -51.5t-7 -70t-1.5 -96.5t1.5 -96.5t7 -70t16.5 -51.5t30 -41q55 -55 135 -55q42 0 81 17.5t67 51.5q23 29 33 62t10 79v64h-191v48h245v-116zM488 927q-7 -64 -45.5 -99.5t-119.5 -35.5t-119.5 35.5t-45.5 99.5h45q6 -42 37 -66
t83 -24t83 24t37 66h45v0z" />
    <glyph glyph-name="gbreve" unicode="&#x11f;" horiz-adv-x="540" 
d="M443 -27q0 -45 -13 -83.5t-38.5 -66.5t-62 -43.5t-83.5 -15.5q-27 0 -48 3.5t-39.5 11.5t-35.5 20t-36 29l34 34q14 -13 27 -23t27 -16.5t31 -10t40 -3.5q38 0 65.5 12.5t45.5 35t26.5 53t8.5 66.5v86q-32 -42 -66.5 -55t-76.5 -13q-38 0 -68.5 11.5t-49.5 30.5
q-37 37 -49.5 92.5t-12.5 112.5t12.5 112.5t49.5 92.5q19 19 49.5 30.5t68.5 11.5q42 0 76.5 -13t66.5 -55v62h51v-509zM392 241q0 37 -4.5 73.5t-19 65t-41.5 46t-71 17.5t-71 -17.5t-41.5 -46t-19 -65t-4.5 -73.5q0 -38 4.5 -74t19 -64.5t41.5 -46t71 -17.5t71 17.5
t41.5 46t19 64.5t4.5 74zM421 722q-7 -64 -45.5 -99.5t-119.5 -35.5t-119.5 35.5t-45.5 99.5h45q6 -42 37 -66t83 -24t83 24t37 66h45v0z" />
    <glyph glyph-name="Gdotaccent" unicode="&#x120;" horiz-adv-x="651" 
d="M571 248q0 -57 -13 -97t-45 -75q-35 -38 -84 -60t-103 -22t-97.5 18t-75.5 50q-25 25 -39 49.5t-21 57.5t-9 77.5t-2 109.5t2 109.5t9 77.5t21 57.5t39 49.5q32 32 75.5 50t97.5 18q46 0 87 -15t73 -42t53.5 -65.5t29.5 -85.5h-54q-16 75 -66.5 117.5t-122.5 42.5
q-80 0 -135 -55q-19 -19 -30 -41t-16.5 -51.5t-7 -70t-1.5 -96.5t1.5 -96.5t7 -70t16.5 -51.5t30 -41q55 -55 135 -55q42 0 81 17.5t67 51.5q23 29 33 62t10 79v64h-191v48h245v-116zM295 800v63h62v-63h-62z" />
    <glyph glyph-name="gdotaccent" unicode="&#x121;" horiz-adv-x="540" 
d="M443 -27q0 -45 -13 -83.5t-38.5 -66.5t-62 -43.5t-83.5 -15.5q-27 0 -48 3.5t-39.5 11.5t-35.5 20t-36 29l34 34q14 -13 27 -23t27 -16.5t31 -10t40 -3.5q38 0 65.5 12.5t45.5 35t26.5 53t8.5 66.5v86q-32 -42 -66.5 -55t-76.5 -13q-38 0 -68.5 11.5t-49.5 30.5
q-37 37 -49.5 92.5t-12.5 112.5t12.5 112.5t49.5 92.5q19 19 49.5 30.5t68.5 11.5q42 0 76.5 -13t66.5 -55v62h51v-509zM392 241q0 37 -4.5 73.5t-19 65t-41.5 46t-71 17.5t-71 -17.5t-41.5 -46t-19 -65t-4.5 -73.5q0 -38 4.5 -74t19 -64.5t41.5 -46t71 -17.5t71 17.5
t41.5 46t19 64.5t4.5 74zM225 610v63h62v-63h-62z" />
    <glyph glyph-name="Gcommaaccent" unicode="&#x122;" horiz-adv-x="651" 
d="M571 248q0 -57 -13 -97t-45 -75q-35 -38 -84 -60t-103 -22t-97.5 18t-75.5 50q-25 25 -39 49.5t-21 57.5t-9 77.5t-2 109.5t2 109.5t9 77.5t21 57.5t39 49.5q32 32 75.5 50t97.5 18q46 0 87 -15t73 -42t53.5 -65.5t29.5 -85.5h-54q-16 75 -66.5 117.5t-122.5 42.5
q-80 0 -135 -55q-19 -19 -30 -41t-16.5 -51.5t-7 -70t-1.5 -96.5t1.5 -96.5t7 -70t16.5 -51.5t30 -41q55 -55 135 -55q42 0 81 17.5t67 51.5q23 29 33 62t10 79v64h-191v48h245v-116zM294 -220h-63l72 150h55z" />
    <glyph glyph-name="gcommaaccent" unicode="&#x123;" horiz-adv-x="540" 
d="M443 -27q0 -45 -13 -83.5t-38.5 -66.5t-62 -43.5t-83.5 -15.5q-27 0 -48 3.5t-39.5 11.5t-35.5 20t-36 29l34 34q14 -13 27 -23t27 -16.5t31 -10t40 -3.5q38 0 65.5 12.5t45.5 35t26.5 53t8.5 66.5v86q-32 -42 -66.5 -55t-76.5 -13q-38 0 -68.5 11.5t-49.5 30.5
q-37 37 -49.5 92.5t-12.5 112.5t12.5 112.5t49.5 92.5q19 19 49.5 30.5t68.5 11.5q42 0 76.5 -13t66.5 -55v62h51v-509zM392 241q0 37 -4.5 73.5t-19 65t-41.5 46t-71 17.5t-71 -17.5t-41.5 -46t-19 -65t-4.5 -73.5q0 -38 4.5 -74t19 -64.5t41.5 -46t71 -17.5t71 17.5
t41.5 46t19 64.5t4.5 74zM281 590h-58l97 147h67z" />
    <glyph glyph-name="Hcircumflex" unicode="&#x124;" horiz-adv-x="699" 
d="M535 0v335h-371v-335h-54v712h54v-329h371v329h54v-712h-54zM443 780l-93 109l-93 -109h-57l123 147h54l123 -147h-57z" />
    <glyph glyph-name="hcircumflex" unicode="&#x125;" 
d="M417 0v299q0 70 -33.5 107t-99.5 37t-101 -37t-35 -107v-299h-51v712h51v-287q54 63 142 63q84 0 131 -47.5t47 -132.5v-308h-51zM217 780l-93 109l-93 -109h-57l123 147h54l123 -147h-57z" />
    <glyph glyph-name="Hbar" unicode="&#x126;" horiz-adv-x="711" 
d="M541 0v335h-371v-335h-54v517h-76v42h76v153h54v-153h371v153h54v-153h76v-42h-76v-517h-54zM541 517h-371v-134h371v134z" />
    <glyph glyph-name="hbar" unicode="&#x127;" horiz-adv-x="569" 
d="M427 0v299q0 70 -34 107t-99 37t-100.5 -37.5t-35.5 -106.5v-299h-51v574h-65v36h65v102h51v-102h136v-36h-136v-149q32 33 64 48t79 15q82 0 129.5 -48t47.5 -132v-308h-51z" />
    <glyph glyph-name="Itilde" unicode="&#x128;" horiz-adv-x="274" 
d="M110 0v712h54v-712h-54zM287 843q-17 -17 -30.5 -27t-24.5 -14.5t-19 -5.5t-15 -1q-17 0 -31.5 5t-37.5 19q-14 8 -27.5 14.5t-28.5 6.5q-12 0 -24 -5t-35 -28l-30 29q17 17 30.5 27t24 14.5t19 5.5t15.5 1q22 0 36.5 -6.5t32.5 -17.5q16 -10 28.5 -15.5t27.5 -5.5
q11 0 23.5 5t35.5 28l30 -29v0z" />
    <glyph glyph-name="itilde" unicode="&#x129;" horiz-adv-x="245" 
d="M97 0v482h51v-482h-51zM275 653q-17 -17 -30.5 -27t-24.5 -14.5t-19 -5.5t-15 -1q-17 0 -31.5 5t-37.5 19q-14 8 -27.5 14.5t-28.5 6.5q-12 0 -24 -5t-35 -28l-30 29q17 17 30.5 27t24 14.5t19 5.5t15.5 1q22 0 36.5 -6.5t32.5 -17.5q16 -10 28.5 -15.5t27.5 -5.5
q11 0 23.5 5t35.5 28l30 -29v0z" />
    <glyph glyph-name="Imacron" unicode="&#x12a;" horiz-adv-x="274" 
d="M110 0v712h54v-712h-54zM-10 800v46h296v-46h-296z" />
    <glyph glyph-name="imacron" unicode="&#x12b;" horiz-adv-x="245" 
d="M97 0v482h51v-482h-51zM-24 610v46h296v-46h-296z" />
    <glyph glyph-name="Ibreve" unicode="&#x12c;" horiz-adv-x="274" 
d="M110 0v712h54v-712h-54zM303 927q-7 -64 -45.5 -99.5t-119.5 -35.5t-119.5 35.5t-45.5 99.5h45q6 -42 37 -66t83 -24t83 24t37 66h45v0z" />
    <glyph glyph-name="ibreve" unicode="&#x12d;" horiz-adv-x="245" 
d="M97 0v482h51v-482h-51zM288 722q-7 -64 -45.5 -99.5t-119.5 -35.5t-119.5 35.5t-45.5 99.5h45q6 -42 37 -66t83 -24t83 24t37 66h45v0z" />
    <glyph glyph-name="Iogonek" unicode="&#x12e;" horiz-adv-x="274" 
d="M110 0v712h54v-712h-54zM102 -220h-63l72 150h55z" />
    <glyph glyph-name="iogonek" unicode="&#x12f;" horiz-adv-x="245" 
d="M97 0v482h51v-482h-51zM91 649v63h63v-63h-63zM89 -220h-63l72 150h55z" />
    <glyph glyph-name="Idotaccent" unicode="&#x130;" horiz-adv-x="274" 
d="M110 0v712h54v-712h-54zM107 800v63h62v-63h-62z" />
    <glyph glyph-name="dotlessi" unicode="&#x131;" horiz-adv-x="245" 
d="M97 0v482h51v-482h-51z" />
    <glyph glyph-name="IJ" unicode="&#x132;" horiz-adv-x="772" 
d="M110 0v712h54v-712h-54zM672 210q0 -49 -15 -88.5t-42.5 -68t-67 -44t-87.5 -15.5q-95 0 -156 61l37 37q20 -20 46 -35t73 -15q78 0 118 46t40 133v491h54v-502z" />
    <glyph glyph-name="ij" unicode="&#x133;" horiz-adv-x="490" 
d="M97 0v482h51v-482h-51zM91 649v63h63v-63h-63zM393 -105q0 -57 -28 -91t-88 -34h-44v45h35q43 0 58.5 19.5t15.5 61.5v586h51v-587zM336 649v63h63v-63h-63z" />
    <glyph glyph-name="Jcircumflex" unicode="&#x134;" horiz-adv-x="498" 
d="M398 210q0 -49 -15 -88.5t-42.5 -68t-67 -44t-87.5 -15.5q-95 0 -156 61l37 37q20 -20 46 -35t73 -15q78 0 118 46t40 133v491h54v-502zM464 780l-93 109l-93 -109h-57l123 147h54l123 -147h-57z" />
    <glyph glyph-name="jcircumflex" unicode="&#x135;" horiz-adv-x="245" 
d="M148 -105q0 -57 -28 -91t-88 -34h-44v45h35q43 0 58.5 19.5t15.5 61.5v586h51v-587zM216 590l-93 109l-93 -109h-57l123 147h54l123 -147h-57z" />
    <glyph glyph-name="Kcommaaccent" unicode="&#x136;" horiz-adv-x="645" 
d="M563 0l-229 399l-170 -206v-193h-54v712h54v-445l361 445h65l-220 -272l257 -440h-64zM317 -220h-63l72 150h55z" />
    <glyph glyph-name="kcommaaccent" unicode="&#x137;" horiz-adv-x="527" 
d="M424 0l-166 265l-110 -127v-138h-51v712h51v-502l239 272h65l-159 -180l194 -302h-63zM257 -220h-63l72 150h55z" />
    <glyph glyph-name="kgreenlandic" unicode="&#x138;" horiz-adv-x="527" 
d="M424 0l-166 265l-110 -127v-138h-51v482h51v-272l239 272h65l-159 -180l194 -302h-63z" />
    <glyph glyph-name="Lacute" unicode="&#x139;" horiz-adv-x="572" 
d="M110 0v712h54v-664h378v-48h-432zM162 780h-58l97 147h67z" />
    <glyph glyph-name="lacute" unicode="&#x13a;" horiz-adv-x="287" 
d="M211 0q-60 0 -88 34t-28 91v587h51v-586q0 -42 15.5 -61.5t58.5 -19.5h35v-45h-44zM154 780h-58l97 147h67z" />
    <glyph glyph-name="Lcommaaccent" unicode="&#x13b;" horiz-adv-x="572" 
d="M110 0v712h54v-664h378v-48h-432zM280 -220h-63l72 150h55z" />
    <glyph glyph-name="lcommaaccent" unicode="&#x13c;" horiz-adv-x="287" 
d="M211 0q-60 0 -88 34t-28 91v587h51v-586q0 -42 15.5 -61.5t58.5 -19.5h35v-45h-44zM138 -220h-63l72 150h55z" />
    <glyph glyph-name="Lcaron" unicode="&#x13d;" horiz-adv-x="572" 
d="M110 0v712h54v-664h378v-48h-432zM335 564h-47l40 148h55z" />
    <glyph glyph-name="lcaron" unicode="&#x13e;" horiz-adv-x="287" 
d="M211 0q-60 0 -88 34t-28 91v587h51v-586q0 -42 15.5 -61.5t58.5 -19.5h35v-45h-44zM256 564h-47l40 148h55z" />
    <glyph glyph-name="Ldot" unicode="&#x13f;" horiz-adv-x="572" 
d="M110 0v712h54v-664h378v-48h-432zM397 328v63h62v-63h-62z" />
    <glyph glyph-name="ldot" unicode="&#x140;" horiz-adv-x="293" 
d="M211 0q-60 0 -88 34t-28 91v587h51v-586q0 -42 15.5 -61.5t58.5 -19.5h35v-45h-44zM236 233v63h62v-63h-62z" />
    <glyph glyph-name="Lslash" unicode="&#x141;" horiz-adv-x="578" 
d="M116 0v306l-76 -48v48l76 48v358h54v-324l164 104v-48l-164 -104v-292h378v-48h-432z" />
    <glyph glyph-name="lslash" unicode="&#x142;" horiz-adv-x="308" 
d="M222 0q-60 0 -88 34t-28 91v231l-66 -41v45l66 41v311h51v-279l88 55v-45l-88 -55v-262q0 -42 15.5 -61.5t58.5 -19.5h35v-45h-44z" />
    <glyph glyph-name="Nacute" unicode="&#x143;" horiz-adv-x="739" 
d="M575 0l-411 619v-619h-54v712h54l411 -617v617h54v-712h-54zM380 780h-58l97 147h67z" />
    <glyph glyph-name="nacute" unicode="&#x144;" 
d="M417 0v299q0 70 -33.5 107t-99.5 37t-101 -37.5t-35 -106.5v-299h-51v482h51v-57q54 63 142 63q81 0 128 -46q50 -48 50 -134v-308h-51zM290 590h-58l97 147h67z" />
    <glyph glyph-name="Ncommaaccent" unicode="&#x145;" horiz-adv-x="739" 
d="M575 0l-411 619v-619h-54v712h54l411 -617v617h54v-712h-54zM353 -220h-63l72 150h55z" />
    <glyph glyph-name="ncommaaccent" unicode="&#x146;" 
d="M417 0v299q0 70 -33.5 107t-99.5 37t-101 -37.5t-35 -106.5v-299h-51v482h51v-57q54 63 142 63q81 0 128 -46q50 -48 50 -134v-308h-51zM273 -220h-63l72 150h55z" />
    <glyph glyph-name="Ncaron" unicode="&#x147;" horiz-adv-x="739" 
d="M575 0l-411 619v-619h-54v712h54l411 -617v617h54v-712h-54zM396 780h-54l-123 147h57l93 -109l93 109h57z" />
    <glyph glyph-name="ncaron" unicode="&#x148;" 
d="M417 0v299q0 70 -33.5 107t-99.5 37t-101 -37.5t-35 -106.5v-299h-51v482h51v-57q54 63 142 63q81 0 128 -46q50 -48 50 -134v-308h-51zM306 590h-54l-123 147h57l93 -109l93 109h57z" />
    <glyph glyph-name="napostrophe" unicode="&#x149;" 
d="M417 0v299q0 70 -33.5 107t-99.5 37t-101 -37.5t-35 -106.5v-299h-51v482h51v-57q54 63 142 63q81 0 128 -46q50 -48 50 -134v-308h-51zM45 528v184h53v-128z" />
    <glyph glyph-name="Eng" unicode="&#x14a;" horiz-adv-x="739" 
d="M629 -95q0 -57 -28 -91t-88 -34h-44v45h32q43 0 58.5 19.5t15.5 61.5v94l-411 619v-619h-54v712h54l411 -617v617h54v-807z" />
    <glyph glyph-name="eng" unicode="&#x14b;" 
d="M468 -95q0 -57 -28 -91t-88 -34h-44v45h35q43 0 58.5 19.5t15.5 61.5v393q0 70 -33.5 107t-99.5 37t-101 -37.5t-35 -106.5v-299h-51v482h51v-57q54 63 142 63q81 0 128 -46q50 -48 50 -134v-403z" />
    <glyph glyph-name="Omacron" unicode="&#x14c;" horiz-adv-x="652" 
d="M570 356q0 -65 -2 -109.5t-9 -77.5t-21 -57.5t-39 -49.5q-32 -32 -75.5 -50t-97.5 -18t-97.5 18t-75.5 50q-25 25 -39 49.5t-21 57.5t-9 77.5t-2 109.5t2 109.5t9 77.5t21 57.5t39 49.5q32 32 75.5 50t97.5 18t97.5 -18t75.5 -50q25 -25 39 -49.5t21 -57.5t9 -77.5
t2 -109.5zM516 356q0 56 -1.5 96.5t-7 70t-16.5 51.5t-30 41q-55 55 -135 55t-135 -55q-19 -19 -30 -41t-16.5 -51.5t-7 -70t-1.5 -96.5t1.5 -96.5t7 -70t16.5 -51.5t30 -41q55 -55 135 -55t135 55q19 19 30 41t16.5 51.5t7 70t1.5 96.5zM178 800v46h296v-46h-296z" />
    <glyph glyph-name="omacron" unicode="&#x14d;" horiz-adv-x="526" 
d="M457 241q0 -52 -11 -104t-49 -90q-53 -53 -134 -53t-134 53q-38 38 -49 90t-11 104t11 104t49 90q53 53 134 53t134 -53q38 -38 49 -90t11 -104zM406 241q0 21 -1 43t-5.5 43.5t-13 40.5t-23.5 34q-41 41 -100 41t-100 -41q-15 -15 -23.5 -34t-13 -40.5t-5.5 -43.5
t-1 -43t1 -43t5.5 -43.5t13 -40.5t23.5 -34q41 -41 100 -41t100 41q15 15 23.5 34t13 40.5t5.5 43.5t1 43zM115 610v46h296v-46h-296z" />
    <glyph glyph-name="Obreve" unicode="&#x14e;" horiz-adv-x="652" 
d="M570 356q0 -65 -2 -109.5t-9 -77.5t-21 -57.5t-39 -49.5q-32 -32 -75.5 -50t-97.5 -18t-97.5 18t-75.5 50q-25 25 -39 49.5t-21 57.5t-9 77.5t-2 109.5t2 109.5t9 77.5t21 57.5t39 49.5q32 32 75.5 50t97.5 18t97.5 -18t75.5 -50q25 -25 39 -49.5t21 -57.5t9 -77.5
t2 -109.5zM516 356q0 56 -1.5 96.5t-7 70t-16.5 51.5t-30 41q-55 55 -135 55t-135 -55q-19 -19 -30 -41t-16.5 -51.5t-7 -70t-1.5 -96.5t1.5 -96.5t7 -70t16.5 -51.5t30 -41q55 -55 135 -55t135 55q19 19 30 41t16.5 51.5t7 70t1.5 96.5zM491 927q-7 -64 -45.5 -99.5
t-119.5 -35.5t-119.5 35.5t-45.5 99.5h45q6 -42 37 -66t83 -24t83 24t37 66h45v0z" />
    <glyph glyph-name="obreve" unicode="&#x14f;" horiz-adv-x="526" 
d="M457 241q0 -52 -11 -104t-49 -90q-53 -53 -134 -53t-134 53q-38 38 -49 90t-11 104t11 104t49 90q53 53 134 53t134 -53q38 -38 49 -90t11 -104zM406 241q0 21 -1 43t-5.5 43.5t-13 40.5t-23.5 34q-41 41 -100 41t-100 -41q-15 -15 -23.5 -34t-13 -40.5t-5.5 -43.5
t-1 -43t1 -43t5.5 -43.5t13 -40.5t23.5 -34q41 -41 100 -41t100 41q15 15 23.5 34t13 40.5t5.5 43.5t1 43zM403 697q-5 -63 -41 -91.5t-99 -28.5t-99 28.5t-41 91.5h51q8 -80 89 -80t89 80h51v0z" />
    <glyph glyph-name="Ohungarumlaut" unicode="&#x150;" horiz-adv-x="652" 
d="M570 356q0 -65 -2 -109.5t-9 -77.5t-21 -57.5t-39 -49.5q-32 -32 -75.5 -50t-97.5 -18t-97.5 18t-75.5 50q-25 25 -39 49.5t-21 57.5t-9 77.5t-2 109.5t2 109.5t9 77.5t21 57.5t39 49.5q32 32 75.5 50t97.5 18t97.5 -18t75.5 -50q25 -25 39 -49.5t21 -57.5t9 -77.5
t2 -109.5zM516 356q0 56 -1.5 96.5t-7 70t-16.5 51.5t-30 41q-55 55 -135 55t-135 -55q-19 -19 -30 -41t-16.5 -51.5t-7 -70t-1.5 -96.5t1.5 -96.5t7 -70t16.5 -51.5t30 -41q55 -55 135 -55t135 55q19 19 30 41t16.5 51.5t7 70t1.5 96.5zM264 780h-58l97 147h67zM410 780
h-57l97 147h67z" />
    <glyph glyph-name="ohungarumlaut" unicode="&#x151;" horiz-adv-x="526" 
d="M457 241q0 -52 -11 -104t-49 -90q-53 -53 -134 -53t-134 53q-38 38 -49 90t-11 104t11 104t49 90q53 53 134 53t134 -53q38 -38 49 -90t11 -104zM406 241q0 21 -1 43t-5.5 43.5t-13 40.5t-23.5 34q-41 41 -100 41t-100 -41q-15 -15 -23.5 -34t-13 -40.5t-5.5 -43.5
t-1 -43t1 -43t5.5 -43.5t13 -40.5t23.5 -34q41 -41 100 -41t100 41q15 15 23.5 34t13 40.5t5.5 43.5t1 43zM201 590h-58l97 147h67zM347 590h-57l97 147h67z" />
    <glyph glyph-name="OE" unicode="&#x152;" horiz-adv-x="997" 
d="M516 0v85q-36 -45 -85.5 -68t-104.5 -23q-54 0 -97.5 18t-75.5 50q-25 25 -39 49.5t-21 57.5t-9 77.5t-2 109.5t2 109.5t9 77.5t21 57.5t39 49.5q32 32 75.5 50t97.5 18q117 0 190 -91v85h422v-47h-369q0 -72 0.5 -142.5t0.5 -142.5h313v-42h-313q0 -73 -0.5 -145.5
t-0.5 -145.5h372v-47h-425zM516 356q0 56 -1.5 96.5t-7 70t-16.5 51.5t-30 41q-55 55 -135 55t-135 -55q-19 -19 -30 -41t-16.5 -51.5t-7 -70t-1.5 -96.5t1.5 -96.5t7 -70t16.5 -51.5t30 -41q55 -55 135 -55t135 55q19 19 30 41t16.5 51.5t7 70t1.5 96.5z" />
    <glyph glyph-name="oe" unicode="&#x153;" horiz-adv-x="860" 
d="M457 230q0 -93 39.5 -141.5t117.5 -48.5q43 0 72.5 13.5t60.5 44.5l38 -30q-18 -18 -36.5 -32t-39 -23.5t-44.5 -14t-54 -4.5q-129 0 -178 105q-23 -51 -68 -78t-102 -27q-81 0 -134 53q-38 38 -49 90t-11 104t11 104t49 90q53 53 134 53q57 0 102 -27t68 -78
q23 51 65.5 78t100.5 27q91 0 142 -61.5t51 -173.5v-23h-335zM406 241q0 21 -1 43t-5.5 43.5t-13 40.5t-23.5 34q-41 41 -100 41t-100 -41q-15 -15 -23.5 -34t-13 -40.5t-5.5 -43.5t-1 -43t1 -43t5.5 -43.5t13 -40.5t23.5 -34q41 -41 100 -41t100 41q15 15 23.5 34t13 40.5
t5.5 43.5t1 43zM741 271q-1 17 -2 29.5t-2.5 22.5t-4.5 19t-8 20q-16 38 -49.5 59.5t-75.5 21.5t-76.5 -21.5t-48.5 -59.5q-8 -20 -11.5 -38t-5.5 -53h284z" />
    <glyph glyph-name="Racute" unicode="&#x154;" horiz-adv-x="657" 
d="M530 0l-170 328h-196v-328h-54v712h271q43 0 80.5 -12.5t65 -36.5t43 -60t15.5 -82q0 -81 -44.5 -130t-119.5 -62l172 -329h-63zM531 520q0 74 -44 109t-113 35h-210v-288h210q69 0 113 35t44 109zM339 780h-58l97 147h67z" />
    <glyph glyph-name="racute" unicode="&#x155;" horiz-adv-x="409" 
d="M368 405q-22 22 -41.5 30t-49.5 8q-31 0 -55 -12t-40.5 -32t-25 -46.5t-8.5 -55.5v-297h-51v482h51v-64q21 34 59.5 52t81.5 18q35 0 62.5 -10t53.5 -36zM217 590h-58l97 147h67z" />
    <glyph glyph-name="Rcommaaccent" unicode="&#x156;" horiz-adv-x="657" 
d="M530 0l-170 328h-196v-328h-54v712h271q43 0 80.5 -12.5t65 -36.5t43 -60t15.5 -82q0 -81 -44.5 -130t-119.5 -62l172 -329h-63zM531 520q0 74 -44 109t-113 35h-210v-288h210q69 0 113 35t44 109zM321 -220h-63l72 150h55z" />
    <glyph glyph-name="rcommaaccent" unicode="&#x157;" horiz-adv-x="409" 
d="M368 405q-22 22 -41.5 30t-49.5 8q-31 0 -55 -12t-40.5 -32t-25 -46.5t-8.5 -55.5v-297h-51v482h51v-64q21 34 59.5 52t81.5 18q35 0 62.5 -10t53.5 -36zM88 -220h-63l72 150h55z" />
    <glyph glyph-name="Rcaron" unicode="&#x158;" horiz-adv-x="657" 
d="M530 0l-170 328h-196v-328h-54v712h271q43 0 80.5 -12.5t65 -36.5t43 -60t15.5 -82q0 -81 -44.5 -130t-119.5 -62l172 -329h-63zM531 520q0 74 -44 109t-113 35h-210v-288h210q69 0 113 35t44 109zM355 780h-54l-123 147h57l93 -109l93 109h57z" />
    <glyph glyph-name="rcaron" unicode="&#x159;" horiz-adv-x="409" 
d="M368 405q-22 22 -41.5 30t-49.5 8q-31 0 -55 -12t-40.5 -32t-25 -46.5t-8.5 -55.5v-297h-51v482h51v-64q21 34 59.5 52t81.5 18q35 0 62.5 -10t53.5 -36zM233 590h-54l-123 147h57l93 -109l93 109h57z" />
    <glyph glyph-name="Sacute" unicode="&#x15a;" horiz-adv-x="587" 
d="M528 191q0 -45 -16.5 -81.5t-47.5 -62t-75.5 -39.5t-100.5 -14q-79 0 -133.5 22.5t-103.5 71.5l38 38q24 -24 46.5 -40t46.5 -26t50.5 -14t58.5 -4q85 0 134 38.5t49 108.5q0 67 -39 100q-9 8 -18.5 14t-21 10t-27 7.5t-36.5 6.5l-83 13q-82 12 -127 51q-56 47 -56 132
q0 45 15.5 81t44 61.5t69.5 39t92 13.5q66 0 112.5 -18.5t92.5 -58.5l-35 -35q-16 15 -33 27t-37.5 21t-46 13.5t-56.5 4.5q-78 0 -121.5 -39t-43.5 -108q0 -64 36 -94q19 -16 45.5 -26t56.5 -15l83 -13q25 -4 43 -8t32.5 -9.5t27 -13.5t24.5 -18q29 -25 45 -59t16 -78z
M305 780h-58l97 147h67z" />
    <glyph glyph-name="sacute" unicode="&#x15b;" horiz-adv-x="494" 
d="M438 137q0 -66 -51.5 -104.5t-141.5 -38.5q-63 0 -110.5 17t-84.5 52l35 35q56 -59 158 -59q145 0 145 98q0 38 -22 57t-70 24l-80 7q-145 12 -145 126q0 63 47 100t126 37q51 0 94 -13.5t75 -37.5l-34 -34q-56 41 -135 41q-60 0 -91.5 -24t-31.5 -69q0 -38 23.5 -57
t74.5 -24l78 -7q30 -3 56 -10t44.5 -21t29.5 -37t11 -58zM259 590h-58l97 147h67z" />
    <glyph glyph-name="Scircumflex" unicode="&#x15c;" horiz-adv-x="587" 
d="M528 191q0 -45 -16.5 -81.5t-47.5 -62t-75.5 -39.5t-100.5 -14q-79 0 -133.5 22.5t-103.5 71.5l38 38q24 -24 46.5 -40t46.5 -26t50.5 -14t58.5 -4q85 0 134 38.5t49 108.5q0 67 -39 100q-9 8 -18.5 14t-21 10t-27 7.5t-36.5 6.5l-83 13q-82 12 -127 51q-56 47 -56 132
q0 45 15.5 81t44 61.5t69.5 39t92 13.5q66 0 112.5 -18.5t92.5 -58.5l-35 -35q-16 15 -33 27t-37.5 21t-46 13.5t-56.5 4.5q-78 0 -121.5 -39t-43.5 -108q0 -64 36 -94q19 -16 45.5 -26t56.5 -15l83 -13q25 -4 43 -8t32.5 -9.5t27 -13.5t24.5 -18q29 -25 45 -59t16 -78z
M385 780l-93 109l-93 -109h-57l123 147h54l123 -147h-57z" />
    <glyph glyph-name="scircumflex" unicode="&#x15d;" horiz-adv-x="494" 
d="M438 137q0 -66 -51.5 -104.5t-141.5 -38.5q-63 0 -110.5 17t-84.5 52l35 35q56 -59 158 -59q145 0 145 98q0 38 -22 57t-70 24l-80 7q-145 12 -145 126q0 63 47 100t126 37q51 0 94 -13.5t75 -37.5l-34 -34q-56 41 -135 41q-60 0 -91.5 -24t-31.5 -69q0 -38 23.5 -57
t74.5 -24l78 -7q30 -3 56 -10t44.5 -21t29.5 -37t11 -58zM344 590l-93 109l-93 -109h-57l123 147h54l123 -147h-57z" />
    <glyph glyph-name="Scedilla" unicode="&#x15e;" horiz-adv-x="587" 
d="M528 191q0 -45 -16.5 -81.5t-47.5 -62t-75.5 -39.5t-100.5 -14q-79 0 -133.5 22.5t-103.5 71.5l38 38q24 -24 46.5 -40t46.5 -26t50.5 -14t58.5 -4q85 0 134 38.5t49 108.5q0 67 -39 100q-9 8 -18.5 14t-21 10t-27 7.5t-36.5 6.5l-83 13q-82 12 -127 51q-56 47 -56 132
q0 45 15.5 81t44 61.5t69.5 39t92 13.5q66 0 112.5 -18.5t92.5 -58.5l-35 -35q-16 15 -33 27t-37.5 21t-46 13.5t-56.5 4.5q-78 0 -121.5 -39t-43.5 -108q0 -64 36 -94q19 -16 45.5 -26t56.5 -15l83 -13q25 -4 43 -8t32.5 -9.5t27 -13.5t24.5 -18q29 -25 45 -59t16 -78z
M256 -220h-63l72 150h55z" />
    <glyph glyph-name="scedilla" unicode="&#x15f;" horiz-adv-x="494" 
d="M438 137q0 -66 -51.5 -104.5t-141.5 -38.5q-63 0 -110.5 17t-84.5 52l35 35q56 -59 158 -59q145 0 145 98q0 38 -22 57t-70 24l-80 7q-145 12 -145 126q0 63 47 100t126 37q51 0 94 -13.5t75 -37.5l-34 -34q-56 41 -135 41q-60 0 -91.5 -24t-31.5 -69q0 -38 23.5 -57
t74.5 -24l78 -7q30 -3 56 -10t44.5 -21t29.5 -37t11 -58zM214 -220h-63l72 150h55z" />
    <glyph glyph-name="Scaron" unicode="&#x160;" horiz-adv-x="587" 
d="M528 191q0 -45 -16.5 -81.5t-47.5 -62t-75.5 -39.5t-100.5 -14q-79 0 -133.5 22.5t-103.5 71.5l38 38q24 -24 46.5 -40t46.5 -26t50.5 -14t58.5 -4q85 0 134 38.5t49 108.5q0 67 -39 100q-9 8 -18.5 14t-21 10t-27 7.5t-36.5 6.5l-83 13q-82 12 -127 51q-56 47 -56 132
q0 45 15.5 81t44 61.5t69.5 39t92 13.5q66 0 112.5 -18.5t92.5 -58.5l-35 -35q-16 15 -33 27t-37.5 21t-46 13.5t-56.5 4.5q-78 0 -121.5 -39t-43.5 -108q0 -64 36 -94q19 -16 45.5 -26t56.5 -15l83 -13q25 -4 43 -8t32.5 -9.5t27 -13.5t24.5 -18q29 -25 45 -59t16 -78z
M314 780h-54l-123 147h57l93 -109l93 109h57z" />
    <glyph glyph-name="scaron" unicode="&#x161;" horiz-adv-x="494" 
d="M438 137q0 -66 -51.5 -104.5t-141.5 -38.5q-63 0 -110.5 17t-84.5 52l35 35q56 -59 158 -59q145 0 145 98q0 38 -22 57t-70 24l-80 7q-145 12 -145 126q0 63 47 100t126 37q51 0 94 -13.5t75 -37.5l-34 -34q-56 41 -135 41q-60 0 -91.5 -24t-31.5 -69q0 -38 23.5 -57
t74.5 -24l78 -7q30 -3 56 -10t44.5 -21t29.5 -37t11 -58zM271 590h-54l-123 147h57l93 -109l93 109h57z" />
    <glyph glyph-name="Tcommaaccent" unicode="&#x162;" horiz-adv-x="539" 
d="M296 664v-664h-54v664h-212v48h479v-48h-213zM234 -220h-63l72 150h55z" />
    <glyph glyph-name="tcommaaccent" unicode="&#x163;" horiz-adv-x="325" 
d="M225 0q-57 0 -86.5 35.5t-29.5 90.5v318h-66v38h66v154h51v-154h109v-38h-109v-319q0 -38 18 -59t56 -21h35v-45h-44zM158 -220h-63l72 150h55z" />
    <glyph glyph-name="Tcaron" unicode="&#x164;" horiz-adv-x="539" 
d="M296 664v-664h-54v664h-212v48h479v-48h-213zM297 780h-54l-123 147h57l93 -109l93 109h57z" />
    <glyph glyph-name="tcaron" unicode="&#x165;" horiz-adv-x="325" 
d="M225 0q-57 0 -86.5 35.5t-29.5 90.5v318h-66v38h66v154h51v-154h109v-38h-109v-319q0 -38 18 -59t56 -21h35v-45h-44zM271 564h-47l40 148h55z" />
    <glyph glyph-name="Tbar" unicode="&#x166;" horiz-adv-x="539" 
d="M296 664v-284h129v-42h-129v-338h-54v338h-130v42h130v284h-212v48h479v-48h-213z" />
    <glyph glyph-name="tbar" unicode="&#x167;" horiz-adv-x="325" 
d="M225 0q-57 0 -86.5 35.5t-29.5 90.5v119h-66v38h66v161h-66v38h66v154h51v-154h109v-38h-109v-161h109v-38h-109v-120q0 -38 18 -59t56 -21h35v-45h-44z" />
    <glyph glyph-name="Utilde" unicode="&#x168;" horiz-adv-x="688" 
d="M588 231q0 -52 -18 -95.5t-50.5 -75t-77 -49t-98.5 -17.5t-98.5 17.5t-77 49t-50.5 75t-18 95.5v481h54v-474q0 -44 13.5 -80.5t38.5 -62t60 -39.5t78 -14t78 14t60 39.5t38.5 62t13.5 80.5v474h54v-481zM496 843q-17 -17 -30.5 -27t-24.5 -14.5t-19 -5.5t-15 -1
q-17 0 -31.5 5t-37.5 19q-14 8 -27.5 14.5t-28.5 6.5q-12 0 -24 -5t-35 -28l-30 29q17 17 30.5 27t24 14.5t19 5.5t15.5 1q22 0 36.5 -6.5t32.5 -17.5q16 -10 28.5 -15.5t27.5 -5.5q11 0 23.5 5t35.5 28l30 -29v0z" />
    <glyph glyph-name="utilde" unicode="&#x169;" 
d="M411 0v57q-54 -63 -142 -63q-81 0 -128 46q-50 48 -50 134v308h51v-299q0 -70 33.5 -107t99.5 -37t101 37.5t35 106.5v299h51v-482h-51zM428 653q-17 -17 -30.5 -27t-24.5 -14.5t-19 -5.5t-15 -1q-17 0 -31.5 5t-37.5 19q-14 8 -27.5 14.5t-28.5 6.5q-12 0 -24 -5
t-35 -28l-30 29q17 17 30.5 27t24 14.5t19 5.5t15.5 1q22 0 36.5 -6.5t32.5 -17.5q16 -10 28.5 -15.5t27.5 -5.5q11 0 23.5 5t35.5 28l30 -29v0z" />
    <glyph glyph-name="Umacron" unicode="&#x16a;" horiz-adv-x="688" 
d="M588 231q0 -52 -18 -95.5t-50.5 -75t-77 -49t-98.5 -17.5t-98.5 17.5t-77 49t-50.5 75t-18 95.5v481h54v-474q0 -44 13.5 -80.5t38.5 -62t60 -39.5t78 -14t78 14t60 39.5t38.5 62t13.5 80.5v474h54v-481zM196 800v46h296v-46h-296z" />
    <glyph glyph-name="umacron" unicode="&#x16b;" 
d="M411 0v57q-54 -63 -142 -63q-81 0 -128 46q-50 48 -50 134v308h51v-299q0 -70 33.5 -107t99.5 -37t101 37.5t35 106.5v299h51v-482h-51zM131 610v46h296v-46h-296z" />
    <glyph glyph-name="Ubreve" unicode="&#x16c;" horiz-adv-x="688" 
d="M588 231q0 -52 -18 -95.5t-50.5 -75t-77 -49t-98.5 -17.5t-98.5 17.5t-77 49t-50.5 75t-18 95.5v481h54v-474q0 -44 13.5 -80.5t38.5 -62t60 -39.5t78 -14t78 14t60 39.5t38.5 62t13.5 80.5v474h54v-481zM509 927q-7 -64 -45.5 -99.5t-119.5 -35.5t-119.5 35.5
t-45.5 99.5h45q6 -42 37 -66t83 -24t83 24t37 66h45v0z" />
    <glyph glyph-name="ubreve" unicode="&#x16d;" 
d="M411 0v57q-54 -63 -142 -63q-81 0 -128 46q-50 48 -50 134v308h51v-299q0 -70 33.5 -107t99.5 -37t101 37.5t35 106.5v299h51v-482h-51zM440 722q-7 -64 -45.5 -99.5t-119.5 -35.5t-119.5 35.5t-45.5 99.5h45q6 -42 37 -66t83 -24t83 24t37 66h45v0z" />
    <glyph glyph-name="Uring" unicode="&#x16e;" horiz-adv-x="688" 
d="M588 231q0 -52 -18 -95.5t-50.5 -75t-77 -49t-98.5 -17.5t-98.5 17.5t-77 49t-50.5 75t-18 95.5v481h54v-474q0 -44 13.5 -80.5t38.5 -62t60 -39.5t78 -14t78 14t60 39.5t38.5 62t13.5 80.5v474h54v-481zM458 867q0 -24 -9 -44.5t-24.5 -36.5t-36 -25t-44.5 -9t-44.5 9
t-36 25t-24.5 36.5t-9 44.5t9 44.5t24.5 36t36 24.5t44.5 9t44.5 -9t36 -24.5t24.5 -36t9 -44.5zM417 867q0 30 -21.5 51t-51.5 21t-51.5 -21t-21.5 -51t21.5 -51.5t51.5 -21.5t51.5 21.5t21.5 51.5z" />
    <glyph glyph-name="uring" unicode="&#x16f;" 
d="M411 0v57q-54 -63 -142 -63q-81 0 -128 46q-50 48 -50 134v308h51v-299q0 -70 33.5 -107t99.5 -37t101 37.5t35 106.5v299h51v-482h-51zM393 677q0 -24 -9 -44.5t-24.5 -36.5t-36 -25t-44.5 -9t-44.5 9t-36 25t-24.5 36.5t-9 44.5t9 44.5t24.5 36t36 24.5t44.5 9t44.5 -9
t36 -24.5t24.5 -36t9 -44.5zM352 677q0 30 -21.5 51t-51.5 21t-51.5 -21t-21.5 -51t21.5 -51.5t51.5 -21.5t51.5 21.5t21.5 51.5z" />
    <glyph glyph-name="Uhungarumlaut" unicode="&#x170;" horiz-adv-x="688" 
d="M588 231q0 -52 -18 -95.5t-50.5 -75t-77 -49t-98.5 -17.5t-98.5 17.5t-77 49t-50.5 75t-18 95.5v481h54v-474q0 -44 13.5 -80.5t38.5 -62t60 -39.5t78 -14t78 14t60 39.5t38.5 62t13.5 80.5v474h54v-481zM282 780h-58l97 147h67zM428 780h-57l97 147h67z" />
    <glyph glyph-name="uhungarumlaut" unicode="&#x171;" 
d="M411 0v57q-54 -63 -142 -63q-81 0 -128 46q-50 48 -50 134v308h51v-299q0 -70 33.5 -107t99.5 -37t101 37.5t35 106.5v299h51v-482h-51zM217 590h-58l97 147h67zM363 590h-57l97 147h67z" />
    <glyph glyph-name="Uogonek" unicode="&#x172;" horiz-adv-x="688" 
d="M588 231q0 -52 -18 -95.5t-50.5 -75t-77 -49t-98.5 -17.5t-98.5 17.5t-77 49t-50.5 75t-18 95.5v481h54v-474q0 -44 13.5 -80.5t38.5 -62t60 -39.5t78 -14t78 14t60 39.5t38.5 62t13.5 80.5v474h54v-481zM420 -220h-63l72 150h55z" />
    <glyph glyph-name="uogonek" unicode="&#x173;" 
d="M411 0v57q-54 -63 -142 -63q-81 0 -128 46q-50 48 -50 134v308h51v-299q0 -70 33.5 -107t99.5 -37t101 37.5t35 106.5v299h51v-482h-51zM402 -220h-63l72 150h55z" />
    <glyph glyph-name="Wcircumflex" unicode="&#x174;" horiz-adv-x="842" 
d="M644 0h-55l-168 620l-168 -620h-55l-178 712h57l150 -619l166 619h56l166 -619l150 619h57zM514 780l-93 109l-93 -109h-57l123 147h54l123 -147h-57z" />
    <glyph glyph-name="wcircumflex" unicode="&#x175;" horiz-adv-x="712" 
d="M544 0h-52l-136 402l-136 -402h-52l-154 482h56l123 -422l138 422h50l138 -422l123 422h56zM449 590l-93 109l-93 -109h-57l123 147h54l123 -147h-57z" />
    <glyph glyph-name="Ycircumflex" unicode="&#x176;" horiz-adv-x="494" 
d="M274 295v-295h-54v295l-210 417h58l181 -360l177 360h58zM343 780l-93 109l-93 -109h-57l123 147h54l123 -147h-57z" />
    <glyph glyph-name="ycircumflex" unicode="&#x177;" horiz-adv-x="430" 
d="M192 -131q-14 -40 -33 -56q-18 -17 -42.5 -24t-48.5 -7h-24v45h19q21 0 34.5 3.5t23.5 11.5t17 20.5t13 30.5l39 107l-176 482h56l145 -422l145 422h56zM309 590l-93 109l-93 -109h-57l123 147h54l123 -147h-57z" />
    <glyph glyph-name="Ydieresis" unicode="&#x178;" horiz-adv-x="494" 
d="M274 295v-295h-54v295l-210 417h58l181 -360l177 360h58zM115 790v77h58v-77h-58zM323 790v77h58v-77h-58z" />
    <glyph glyph-name="Zacute" unicode="&#x179;" 
d="M63 0v57l375 607h-360v48h418v-48l-378 -616h378v-48h-433zM291 780h-58l97 147h67z" />
    <glyph glyph-name="zacute" unicode="&#x17a;" horiz-adv-x="452" 
d="M54 0v48l290 389h-274v45h328v-48l-291 -389h291v-45h-344zM238 590h-58l97 147h67z" />
    <glyph glyph-name="Zdotaccent" unicode="&#x17b;" 
d="M63 0v57l375 607h-360v48h418v-48l-378 -616h378v-48h-433zM248 800v63h62v-63h-62z" />
    <glyph glyph-name="zdotaccent" unicode="&#x17c;" horiz-adv-x="452" 
d="M54 0v48l290 389h-274v45h328v-48l-291 -389h291v-45h-344zM196 610v63h62v-63h-62z" />
    <glyph glyph-name="Zcaron" unicode="&#x17d;" 
d="M63 0v57l375 607h-360v48h418v-48l-378 -616h378v-48h-433zM314 780h-54l-123 147h57l93 -109l93 109h57z" />
    <glyph glyph-name="zcaron" unicode="&#x17e;" horiz-adv-x="452" 
d="M54 0v48l290 389h-274v45h328v-48l-291 -389h291v-45h-344zM261 590h-54l-123 147h57l93 -109l93 109h57z" />
    <glyph glyph-name="longs" unicode="&#x17f;" horiz-adv-x="245" 
d="M222 667q-38 0 -56 -21t-18 -59v-587h-51v586q0 55 29.5 90.5t86.5 35.5h44v-45h-35z" />
    <glyph glyph-name="uni018F" unicode="&#x18f;" horiz-adv-x="651" 
d="M569 356q0 -65 -2 -109.5t-9 -77.5t-21 -57.5t-39 -49.5q-32 -32 -75.5 -50t-97.5 -18t-103 22t-84 60q-32 35 -45 75t-13 97v116h435q0 54 -1.5 93t-7 68t-16.5 50t-30 40q-55 55 -135 55q-72 0 -122.5 -42.5t-66.5 -117.5h-54q8 47 29.5 85.5t53.5 65.5t72.5 42
t87.5 15q54 0 97.5 -18t75.5 -50q25 -25 39 -49.5t21 -57.5t9 -77.5t2 -109.5zM134 316v-64q0 -46 10 -79t33 -62q28 -34 67 -51.5t81 -17.5q80 0 135 55q17 17 27.5 36.5t16.5 45t8.5 59t2.5 78.5h-381z" />
    <glyph glyph-name="florin" unicode="&#x192;" horiz-adv-x="394" 
d="M321 667q-38 0 -59.5 -21t-28.5 -59l-36 -207h109v-38h-116l-101 -572h-51l101 572h-109v38h116l36 206q10 55 45.5 90.5t92.5 35.5h44v-45h-43z" />
    <glyph glyph-name="uni01B5" unicode="&#x1b5;" 
d="M63 0v57l173 281h-113v42h139l176 284h-360v48h418v-48l-174 -284h114v-42h-140l-178 -290h378v-48h-433z" />
    <glyph glyph-name="uni01B6" unicode="&#x1b6;" horiz-adv-x="452" 
d="M54 0v48l130 175h-84v36h111l133 178h-274v45h328v-48l-131 -175h84v-36h-111l-133 -178h291v-45h-344z" />
    <glyph glyph-name="uni01C4" unicode="&#x1c4;" horiz-adv-x="1237" 
d="M596 356q0 -40 -1 -81t-8 -79t-21 -72t-39 -59q-65 -65 -178 -65h-239v712h239q113 0 178 -65q25 -26 39 -59.5t21 -72t8 -79t1 -80.5zM542 356q0 35 -1 71t-6 69.5t-15.5 62.5t-30.5 50q-31 32 -70.5 43.5t-82.5 11.5h-172v-616h172q43 0 82.5 11.5t70.5 43.5
q20 21 30.5 50t15.5 62.5t6 69.5t1 71zM741 0v57l375 607h-360v48h418v-48l-378 -616h378v-48h-433zM992 780h-54l-123 147h57l93 -109l93 109h57z" />
    <glyph glyph-name="uni01C5" unicode="&#x1c5;" horiz-adv-x="1130" 
d="M596 356q0 -40 -1 -81t-8 -79t-21 -72t-39 -59q-65 -65 -178 -65h-239v712h239q113 0 178 -65q25 -26 39 -59.5t21 -72t8 -79t1 -80.5zM542 356q0 35 -1 71t-6 69.5t-15.5 62.5t-30.5 50q-31 32 -70.5 43.5t-82.5 11.5h-172v-616h172q43 0 82.5 11.5t70.5 43.5
q20 21 30.5 50t15.5 62.5t6 69.5t1 71zM732 0v48l290 389h-274v45h328v-48l-291 -389h291v-45h-344zM939 590h-54l-123 147h57l93 -109l93 109h57z" />
    <glyph glyph-name="uni01C6" unicode="&#x1c6;" horiz-adv-x="992" 
d="M392 0v62q-32 -42 -66.5 -55t-76.5 -13q-38 0 -68.5 11.5t-49.5 30.5q-37 37 -49.5 92.5t-12.5 112.5t12.5 112.5t49.5 92.5q19 19 49.5 30.5t68.5 11.5q42 0 76.5 -13t66.5 -55v292h51v-712h-51zM392 241q0 37 -4.5 73.5t-19 65t-41.5 46t-71 17.5t-71 -17.5t-41.5 -46
t-19 -65t-4.5 -73.5q0 -38 4.5 -74t19 -64.5t41.5 -46t71 -17.5t71 17.5t41.5 46t19 64.5t4.5 74zM594 0v48l290 389h-274v45h328v-48l-291 -389h291v-45h-344zM801 590h-54l-123 147h57l93 -109l93 109h57z" />
    <glyph glyph-name="uni01C7" unicode="&#x1c7;" horiz-adv-x="1070" 
d="M110 0v712h54v-664h378v-48h-432zM970 210q0 -49 -15 -88.5t-42.5 -68t-67 -44t-87.5 -15.5q-95 0 -156 61l37 37q20 -20 46 -35t73 -15q78 0 118 46t40 133v491h54v-502z" />
    <glyph glyph-name="uni01C8" unicode="&#x1c8;" horiz-adv-x="817" 
d="M110 0v712h54v-664h378v-48h-432zM720 -105q0 -57 -28 -91t-88 -34h-44v45h35q43 0 58.5 19.5t15.5 61.5v586h51v-587zM663 649v63h63v-63h-63z" />
    <glyph glyph-name="uni01C9" unicode="&#x1c9;" horiz-adv-x="532" 
d="M211 0q-60 0 -88 34t-28 91v587h51v-586q0 -42 15.5 -61.5t58.5 -19.5h35v-45h-44zM435 -105q0 -57 -28 -91t-88 -34h-44v45h35q43 0 58.5 19.5t15.5 61.5v586h51v-587zM378 649v63h63v-63h-63z" />
    <glyph glyph-name="uni01CA" unicode="&#x1ca;" horiz-adv-x="1237" 
d="M575 0l-411 619v-619h-54v712h54l411 -617v617h54v-712h-54zM1137 210q0 -49 -15 -88.5t-42.5 -68t-67 -44t-87.5 -15.5q-95 0 -156 61l37 37q20 -20 46 -35t73 -15q78 0 118 46t40 133v491h54v-502z" />
    <glyph glyph-name="uni01CB" unicode="&#x1cb;" horiz-adv-x="984" 
d="M575 0l-411 619v-619h-54v712h54l411 -617v617h54v-712h-54zM887 -105q0 -57 -28 -91t-88 -34h-44v45h35q43 0 58.5 19.5t15.5 61.5v586h51v-587zM830 649v63h63v-63h-63z" />
    <glyph glyph-name="uni01CC" unicode="&#x1cc;" horiz-adv-x="804" 
d="M417 0v299q0 70 -33.5 107t-99.5 37t-101 -37.5t-35 -106.5v-299h-51v482h51v-57q54 63 142 63q81 0 128 -46q50 -48 50 -134v-308h-51zM707 -105q0 -57 -28 -91t-88 -34h-44v45h35q43 0 58.5 19.5t15.5 61.5v586h51v-587zM650 649v63h63v-63h-63z" />
    <glyph glyph-name="uni01F1" unicode="&#x1f1;" horiz-adv-x="1237" 
d="M596 356q0 -40 -1 -81t-8 -79t-21 -72t-39 -59q-65 -65 -178 -65h-239v712h239q113 0 178 -65q25 -26 39 -59.5t21 -72t8 -79t1 -80.5zM542 356q0 35 -1 71t-6 69.5t-15.5 62.5t-30.5 50q-31 32 -70.5 43.5t-82.5 11.5h-172v-616h172q43 0 82.5 11.5t70.5 43.5
q20 21 30.5 50t15.5 62.5t6 69.5t1 71zM741 0v57l375 607h-360v48h418v-48l-378 -616h378v-48h-433z" />
    <glyph glyph-name="uni01F2" unicode="&#x1f2;" horiz-adv-x="1130" 
d="M596 356q0 -40 -1 -81t-8 -79t-21 -72t-39 -59q-65 -65 -178 -65h-239v712h239q113 0 178 -65q25 -26 39 -59.5t21 -72t8 -79t1 -80.5zM542 356q0 35 -1 71t-6 69.5t-15.5 62.5t-30.5 50q-31 32 -70.5 43.5t-82.5 11.5h-172v-616h172q43 0 82.5 11.5t70.5 43.5
q20 21 30.5 50t15.5 62.5t6 69.5t1 71zM732 0v48l290 389h-274v45h328v-48l-291 -389h291v-45h-344z" />
    <glyph glyph-name="uni01F3" unicode="&#x1f3;" horiz-adv-x="992" 
d="M392 0v62q-32 -42 -66.5 -55t-76.5 -13q-38 0 -68.5 11.5t-49.5 30.5q-37 37 -49.5 92.5t-12.5 112.5t12.5 112.5t49.5 92.5q19 19 49.5 30.5t68.5 11.5q42 0 76.5 -13t66.5 -55v292h51v-712h-51zM392 241q0 37 -4.5 73.5t-19 65t-41.5 46t-71 17.5t-71 -17.5t-41.5 -46
t-19 -65t-4.5 -73.5q0 -38 4.5 -74t19 -64.5t41.5 -46t71 -17.5t71 17.5t41.5 46t19 64.5t4.5 74zM594 0v48l290 389h-274v45h328v-48l-291 -389h291v-45h-344z" />
    <glyph glyph-name="Aringacute" unicode="&#x1fa;" horiz-adv-x="602" 
d="M529 0l-62 173h-332l-62 -173h-58l262 712h48l262 -712h-58zM152 221h298l-149 419zM415 861q0 -24 -9 -44.5t-24.5 -36.5t-36 -25t-44.5 -9t-44.5 9t-36 25t-24.5 36.5t-9 44.5t9 44.5t24.5 36t36 24.5t44.5 9t44.5 -9t36 -24.5t24.5 -36t9 -44.5zM374 861
q0 30 -21.5 51t-51.5 21t-51.5 -21t-21.5 -51t21.5 -51.5t51.5 -21.5t51.5 21.5t21.5 51.5zM313 985h-58l97 147h67z" />
    <glyph glyph-name="aringacute" unicode="&#x1fb;" horiz-adv-x="524" 
d="M380 0v48q-31 -31 -63.5 -42.5t-83.5 -11.5q-54 0 -86.5 10t-55.5 34q-17 17 -26 42t-9 52q0 66 44.5 102.5t123.5 36.5h156v54q0 58 -30.5 88t-105.5 30q-51 0 -80.5 -14t-52.5 -47l-37 32q31 43 70.5 58.5t99.5 15.5q97 0 142 -41t45 -117v-330h-51zM380 230h-150
q-123 0 -123 -97q0 -48 30 -71t96 -23q33 0 63.5 6t56.5 31q27 25 27 92v62zM363 677q0 -24 -9 -44.5t-24.5 -36.5t-36 -25t-44.5 -9t-44.5 9t-36 25t-24.5 36.5t-9 44.5t9 44.5t24.5 36t36 24.5t44.5 9t44.5 -9t36 -24.5t24.5 -36t9 -44.5zM322 677q0 30 -21.5 51t-51.5 21
t-51.5 -21t-21.5 -51t21.5 -51.5t51.5 -21.5t51.5 21.5t21.5 51.5zM261 801h-58l97 147h67z" />
    <glyph glyph-name="AEacute" unicode="&#x1fc;" horiz-adv-x="901" 
d="M414 0v173h-255l-90 -173h-59l377 712h458v-48h-378v-284h322v-48h-322v-284h378v-48h-431zM414 664l-232 -443h232v443zM465 780h-58l97 147h67z" />
    <glyph glyph-name="aeacute" unicode="&#x1fd;" horiz-adv-x="834" 
d="M431 230q0 -93 39.5 -141.5t117.5 -48.5q43 0 72.5 13.5t60.5 44.5l38 -30q-37 -37 -76 -55.5t-99 -18.5q-123 0 -172 90q-30 -49 -71 -69.5t-108 -20.5q-54 0 -86.5 10t-55.5 34q-17 17 -26 42t-9 52q0 66 44.5 102.5t123.5 36.5h156v54q0 58 -30.5 88t-105.5 30
q-51 0 -80.5 -14t-52.5 -47l-37 32q31 43 70.5 58.5t99.5 15.5q136 0 173 -85q50 85 156 85q91 0 142 -61.5t51 -173.5v-23h-335zM230 230q-123 0 -123 -97q0 -48 30 -71t96 -23q33 0 63.5 6t56.5 31q27 25 27 92v62h-150zM715 271q-1 17 -2 29.5t-2.5 22.5t-4.5 19t-8 20
q-16 38 -49.5 59.5t-75.5 21.5t-76 -21t-49 -60q-5 -12 -7.5 -21t-4.5 -18.5t-3 -21.5t-2 -30h284zM438 590h-58l97 147h67z" />
    <glyph glyph-name="Oslashacute" unicode="&#x1fe;" horiz-adv-x="652" 
d="M570 356q0 -65 -2 -109.5t-9 -77.5t-21 -57.5t-39 -49.5q-32 -32 -75.5 -50t-97.5 -18q-38 0 -70 9t-60 26l-35 -73h-53l49 102q-27 26 -42 51.5t-22.5 58.5t-9 78t-1.5 110t2 109.5t9 77.5t21 57.5t39 49.5q32 32 75.5 50t97.5 18q37 0 70 -9t60 -26l35 73h53l-49 -102
q27 -26 42 -51.5t22.5 -58.5t9 -78t1.5 -110zM434 637q-48 33 -108 33q-80 0 -135 -55q-19 -19 -30 -41t-16.5 -51.5t-7 -70t-1.5 -96.5q0 -53 1 -91.5t5.5 -67t13.5 -50t25 -39.5zM516 356q0 52 -1.5 90.5t-6 67.5t-13.5 50.5t-24 39.5l-253 -529q48 -33 108 -33
q80 0 135 55q19 19 30 41t16.5 51.5t7 70t1.5 96.5zM337 780h-58l97 147h67z" />
    <glyph glyph-name="oslashacute" unicode="&#x1ff;" horiz-adv-x="526" 
d="M457 241q0 -52 -11 -104t-49 -90q-53 -53 -134 -53q-58 0 -105 29l-40 -67h-48l56 94q-36 38 -46.5 89t-10.5 102q0 52 11 104t49 90q53 53 134 53q60 0 105 -30l40 68h48l-56 -94q36 -38 46.5 -89t10.5 -102zM344 418q-35 25 -81 25q-59 0 -100 -41q-15 -15 -23.5 -34
t-13 -40.5t-5.5 -43.5t-1 -43q0 -38 4.5 -77.5t27.5 -70.5zM406 241q0 38 -4.5 77.5t-27.5 70.5l-192 -325q35 -25 81 -25q59 0 100 41q15 15 23.5 34t13 40.5t5.5 43.5t1 43zM274 590h-58l97 147h67z" />
    <glyph glyph-name="Scommaaccent" unicode="&#x218;" horiz-adv-x="587" 
d="M528 191q0 -45 -16.5 -81.5t-47.5 -62t-75.5 -39.5t-100.5 -14q-79 0 -133.5 22.5t-103.5 71.5l38 38q24 -24 46.5 -40t46.5 -26t50.5 -14t58.5 -4q85 0 134 38.5t49 108.5q0 67 -39 100q-9 8 -18.5 14t-21 10t-27 7.5t-36.5 6.5l-83 13q-82 12 -127 51q-56 47 -56 132
q0 45 15.5 81t44 61.5t69.5 39t92 13.5q66 0 112.5 -18.5t92.5 -58.5l-35 -35q-16 15 -33 27t-37.5 21t-46 13.5t-56.5 4.5q-78 0 -121.5 -39t-43.5 -108q0 -64 36 -94q19 -16 45.5 -26t56.5 -15l83 -13q25 -4 43 -8t32.5 -9.5t27 -13.5t24.5 -18q29 -25 45 -59t16 -78z
M256 -220h-63l72 150h55z" />
    <glyph glyph-name="scommaaccent" unicode="&#x219;" horiz-adv-x="494" 
d="M438 137q0 -66 -51.5 -104.5t-141.5 -38.5q-63 0 -110.5 17t-84.5 52l35 35q56 -59 158 -59q145 0 145 98q0 38 -22 57t-70 24l-80 7q-145 12 -145 126q0 63 47 100t126 37q51 0 94 -13.5t75 -37.5l-34 -34q-56 41 -135 41q-60 0 -91.5 -24t-31.5 -69q0 -38 23.5 -57
t74.5 -24l78 -7q30 -3 56 -10t44.5 -21t29.5 -37t11 -58zM213 -220h-63l72 150h55z" />
    <glyph glyph-name="uni021A" unicode="&#x21a;" horiz-adv-x="539" 
d="M296 664v-664h-54v664h-212v48h479v-48h-213zM233 -220h-63l72 150h55z" />
    <glyph glyph-name="uni021B" unicode="&#x21b;" horiz-adv-x="325" 
d="M225 0q-57 0 -86.5 35.5t-29.5 90.5v318h-66v38h66v154h51v-154h109v-38h-109v-319q0 -38 18 -59t56 -21h35v-45h-44zM157 -220h-63l72 150h55z" />
    <glyph glyph-name="uni0237" unicode="&#x237;" horiz-adv-x="245" 
d="M148 -105q0 -57 -28 -91t-88 -34h-44v45h35q43 0 58.5 19.5t15.5 61.5v586h51v-587z" />
    <glyph glyph-name="uni0259" unicode="&#x259;" horiz-adv-x="523" 
d="M403 252q0 93 -39.5 141.5t-117.5 48.5q-43 0 -72.5 -13.5t-60.5 -44.5l-38 30q18 18 36.5 32t39 23.5t44.5 14t54 4.5q100 0 152.5 -63t52.5 -184q0 -118 -51 -182.5t-142 -64.5t-142 61.5t-51 173.5v23h335zM119 211q1 -17 2 -29.5t2.5 -22.5t4.5 -19t8 -20
q16 -38 49.5 -59.5t75.5 -21.5t75 21.5t50 59.5q5 11 8 20t4.5 19t2.5 22.5t2 29.5h-284z" />
    <glyph glyph-name="uni02BB" unicode="&#x2bb;" horiz-adv-x="260" 
d="M95 642v70l70 70v-140h-70z" />
    <glyph glyph-name="afii57929" unicode="&#x2bc;" horiz-adv-x="260" 
d="M95 572v140h70v-70z" />
    <glyph glyph-name="circumflex" unicode="&#x2c6;" horiz-adv-x="500" 
d="M344 590l-93 109l-93 -109h-57l123 147h54l123 -147h-57z" />
    <glyph glyph-name="caron" unicode="&#x2c7;" horiz-adv-x="500" 
d="M277 590h-54l-123 147h57l93 -109l93 109h57z" />
    <glyph glyph-name="breve" unicode="&#x2d8;" horiz-adv-x="500" 
d="M415 722q-7 -64 -45.5 -99.5t-119.5 -35.5t-119.5 35.5t-45.5 99.5h45q6 -42 37 -66t83 -24t83 24t37 66h45v0z" />
    <glyph glyph-name="dotaccent" unicode="&#x2d9;" horiz-adv-x="500" 
d="M219 610v63h62v-63h-62z" />
    <glyph glyph-name="ring" unicode="&#x2da;" horiz-adv-x="500" 
d="M364 677q0 -24 -9 -44.5t-24.5 -36.5t-36 -25t-44.5 -9t-44.5 9t-36 25t-24.5 36.5t-9 44.5t9 44.5t24.5 36t36 24.5t44.5 9t44.5 -9t36 -24.5t24.5 -36t9 -44.5zM323 677q0 30 -21.5 51t-51.5 21t-51.5 -21t-21.5 -51t21.5 -51.5t51.5 -21.5t51.5 21.5t21.5 51.5z" />
    <glyph glyph-name="ogonek" unicode="&#x2db;" horiz-adv-x="500" 
d="M291 -220h-63l72 150h55z" />
    <glyph glyph-name="tilde" unicode="&#x2dc;" horiz-adv-x="500" 
d="M399 653q-17 -17 -30.5 -27t-24.5 -14.5t-19 -5.5t-15 -1q-17 0 -31.5 5t-37.5 19q-14 8 -27.5 14.5t-28.5 6.5q-12 0 -24 -5t-35 -28l-30 29q17 17 30.5 27t24 14.5t19 5.5t15.5 1q22 0 36.5 -6.5t32.5 -17.5q16 -10 28.5 -15.5t27.5 -5.5q11 0 23.5 5t35.5 28l30 -29v0
z" />
    <glyph glyph-name="hungarumlaut" unicode="&#x2dd;" horiz-adv-x="500" 
d="M188 590h-58l97 147h67zM334 590h-57l97 147h67z" />
    <glyph glyph-name="uni037E" unicode="&#x37e;" horiz-adv-x="292" 
d="M125 -136v204h68v-136zM123 312v74h74v-74h-74z" />
    <glyph glyph-name="tonos" unicode="&#x384;" horiz-adv-x="253" 
d="M101 582v130h58v-97z" />
    <glyph glyph-name="dieresistonos" unicode="&#x385;" horiz-adv-x="500" 
d="M325 600v77h58v-77h-58zM221 582v130h58v-97zM117 600v77h58v-77h-58z" />
    <glyph glyph-name="Alphatonos" unicode="&#x386;" horiz-adv-x="602" 
d="M529 0l-62 173h-332l-62 -173h-58l262 712h48l262 -712h-58zM152 221h298l-149 419zM11 582v130h58v-97z" />
    <glyph glyph-name="anoteleia" unicode="&#x387;" horiz-adv-x="264" 
d="M95 227v74h74v-74h-74z" />
    <glyph glyph-name="Epsilontonos" unicode="&#x388;" horiz-adv-x="598" 
d="M110 0v712h432v-48h-378v-281h322v-48h-322v-287h378v-48h-432zM-49 582v130h58v-97z" />
    <glyph glyph-name="Etatonos" unicode="&#x389;" horiz-adv-x="699" 
d="M535 0v335h-371v-335h-54v712h54v-329h371v329h54v-712h-54zM-49 582v130h58v-97z" />
    <glyph glyph-name="Iotatonos" unicode="&#x38a;" horiz-adv-x="274" 
d="M110 0v712h54v-712h-54zM-49 582v130h58v-97z" />
    <glyph glyph-name="Omicrontonos" unicode="&#x38c;" horiz-adv-x="652" 
d="M570 356q0 -65 -2 -109.5t-9 -77.5t-21 -57.5t-39 -49.5q-32 -32 -75.5 -50t-97.5 -18t-97.5 18t-75.5 50q-25 25 -39 49.5t-21 57.5t-9 77.5t-2 109.5t2 109.5t9 77.5t21 57.5t39 49.5q32 32 75.5 50t97.5 18t97.5 -18t75.5 -50q25 -25 39 -49.5t21 -57.5t9 -77.5
t2 -109.5zM516 356q0 56 -1.5 96.5t-7 70t-16.5 51.5t-30 41q-55 55 -135 55t-135 -55q-19 -19 -30 -41t-16.5 -51.5t-7 -70t-1.5 -96.5t1.5 -96.5t7 -70t16.5 -51.5t30 -41q55 -55 135 -55t135 55q19 19 30 41t16.5 51.5t7 70t1.5 96.5zM-29 582v130h58v-97z" />
    <glyph glyph-name="Upsilontonos" unicode="&#x38e;" horiz-adv-x="494" 
d="M274 295v-295h-54v295l-210 417h58l181 -360l177 360h58zM-69 582v130h58v-97z" />
    <glyph glyph-name="Omegatonos" unicode="&#x38f;" horiz-adv-x="652" 
d="M570 356q0 -86 -4 -143t-25 -95q-11 -20 -25 -36.5t-37 -34.5h91v-47h-186v47q35 17 60 36.5t45 51.5q19 31 23 85.5t4 135.5q0 56 -1.5 96.5t-7 70t-16.5 51.5t-30 41q-55 55 -135 55t-135 -55q-19 -19 -30 -41t-16.5 -51.5t-7 -70t-1.5 -96.5q0 -81 4 -135.5t23 -85.5
q20 -32 45 -51.5t60 -36.5v-47h-186v47h91q-23 18 -37 34.5t-25 36.5q-21 38 -25 95t-4 143q0 65 2 109.5t9 77.5t21 57.5t39 49.5q32 32 75.5 50t97.5 18t97.5 -18t75.5 -50q25 -25 39 -49.5t21 -57.5t9 -77.5t2 -109.5zM-29 582v130h58v-97z" />
    <glyph glyph-name="iotadieresistonos" unicode="&#x390;" horiz-adv-x="287" 
d="M211 0q-60 0 -88 34t-28 91v357h51v-356q0 -42 15.5 -61.5t58.5 -19.5h35v-45h-44zM196 600v77h58v-77h-58zM92 582v130h58v-97zM-12 600v77h58v-77h-58z" />
    <glyph glyph-name="Alpha" unicode="&#x391;" horiz-adv-x="602" 
d="M529 0l-62 173h-332l-62 -173h-58l262 712h48l262 -712h-58zM152 221h298l-149 419z" />
    <glyph glyph-name="Beta" unicode="&#x392;" horiz-adv-x="671" 
d="M589 194q0 -48 -15 -84t-42.5 -60.5t-66 -37t-85.5 -12.5h-270v712h262q44 0 82 -12.5t65.5 -36.5t43 -58.5t15.5 -78.5q0 -57 -29.5 -100t-81.5 -60q58 -20 90 -64.5t32 -107.5zM535 194q0 69 -44 107.5t-117 38.5h-210v-292h210q73 0 117 38.5t44 107.5zM524 526
q0 37 -12.5 63t-34 42.5t-50.5 24.5t-61 8h-202v-276h202q32 0 61 8t50.5 24.5t34 42.5t12.5 63z" />
    <glyph glyph-name="Gamma" unicode="&#x393;" horiz-adv-x="554" 
d="M172 664v-664h-54v712h412v-48h-358z" />
    <glyph glyph-name="uni0394" unicode="&#x394;" horiz-adv-x="591" 
d="M10 0l262 712h47l262 -712h-571zM295 640l-215 -592h431z" />
    <glyph glyph-name="Epsilon" unicode="&#x395;" horiz-adv-x="598" 
d="M110 0v712h432v-48h-378v-281h322v-48h-322v-287h378v-48h-432z" />
    <glyph glyph-name="Zeta" unicode="&#x396;" 
d="M63 0v57l375 607h-360v48h418v-48l-378 -616h378v-48h-433z" />
    <glyph glyph-name="Eta" unicode="&#x397;" horiz-adv-x="699" 
d="M535 0v335h-371v-335h-54v712h54v-329h371v329h54v-712h-54z" />
    <glyph glyph-name="Theta" unicode="&#x398;" horiz-adv-x="652" 
d="M570 356q0 -65 -2 -109.5t-9 -77.5t-21 -57.5t-39 -49.5q-32 -32 -75.5 -50t-97.5 -18t-97.5 18t-75.5 50q-25 25 -39 49.5t-21 57.5t-9 77.5t-2 109.5t2 109.5t9 77.5t21 57.5t39 49.5q32 32 75.5 50t97.5 18t97.5 -18t75.5 -50q25 -25 39 -49.5t21 -57.5t9 -77.5
t2 -109.5zM136 335q0 -50 1.5 -87t7.5 -64.5t17 -48t29 -38.5q55 -55 135 -55t135 55q18 18 28.5 38.5t16.5 48t8 64.5t2 87h-380zM516 383q0 49 -2 84.5t-8 62.5t-16.5 47t-28.5 38q-55 55 -135 55t-135 -55q-18 -18 -29 -38t-16.5 -47t-7.5 -62.5t-2 -84.5h380z" />
    <glyph glyph-name="Iota" unicode="&#x399;" horiz-adv-x="274" 
d="M110 0v712h54v-712h-54z" />
    <glyph glyph-name="Kappa" unicode="&#x39a;" horiz-adv-x="645" 
d="M563 0l-229 399l-170 -206v-193h-54v712h54v-445l361 445h65l-220 -272l257 -440h-64z" />
    <glyph glyph-name="Lambda" unicode="&#x39b;" horiz-adv-x="570" 
d="M488 0l-203 640l-203 -640h-57l234 712h52l234 -712h-57z" />
    <glyph glyph-name="Mu" unicode="&#x39c;" horiz-adv-x="818" 
d="M654 0v587l-216 -487h-54l-220 487v-587h-54v712h54l248 -549l242 549h54v-712h-54z" />
    <glyph glyph-name="Nu" unicode="&#x39d;" horiz-adv-x="739" 
d="M575 0l-411 619v-619h-54v712h54l411 -617v617h54v-712h-54z" />
    <glyph glyph-name="Xi" unicode="&#x39e;" horiz-adv-x="564" 
d="M56 0v48h199v287h-143v48h143v281h-199v48h452v-48h-199v-281h143v-48h-143v-287h199v-48h-452z" />
    <glyph glyph-name="Omicron" unicode="&#x39f;" horiz-adv-x="652" 
d="M570 356q0 -65 -2 -109.5t-9 -77.5t-21 -57.5t-39 -49.5q-32 -32 -75.5 -50t-97.5 -18t-97.5 18t-75.5 50q-25 25 -39 49.5t-21 57.5t-9 77.5t-2 109.5t2 109.5t9 77.5t21 57.5t39 49.5q32 32 75.5 50t97.5 18t97.5 -18t75.5 -50q25 -25 39 -49.5t21 -57.5t9 -77.5
t2 -109.5zM516 356q0 56 -1.5 96.5t-7 70t-16.5 51.5t-30 41q-55 55 -135 55t-135 -55q-19 -19 -30 -41t-16.5 -51.5t-7 -70t-1.5 -96.5t1.5 -96.5t7 -70t16.5 -51.5t30 -41q55 -55 135 -55t135 55q19 19 30 41t16.5 51.5t7 70t1.5 96.5z" />
    <glyph glyph-name="Pi" unicode="&#x3a0;" horiz-adv-x="680" 
d="M515 0v664h-351v-664h-54v712h459v-712h-54z" />
    <glyph glyph-name="Rho" unicode="&#x3a1;" horiz-adv-x="631" 
d="M586 507q0 -49 -16.5 -87t-45 -64.5t-68 -40t-85.5 -13.5h-207v-302h-54v712h261q46 0 85.5 -14t68 -40t45 -64t16.5 -87zM532 507q0 80 -46.5 118.5t-120.5 38.5h-201v-314h201q74 0 120.5 38.5t46.5 118.5z" />
    <glyph glyph-name="Sigma" unicode="&#x3a3;" horiz-adv-x="552" 
d="M63 0v57l199 324l-184 283v48h418v-48h-359l185 -282l-204 -334h378v-48h-433z" />
    <glyph glyph-name="Tau" unicode="&#x3a4;" horiz-adv-x="539" 
d="M296 664v-664h-54v664h-212v48h479v-48h-213z" />
    <glyph glyph-name="Upsilon" unicode="&#x3a5;" horiz-adv-x="494" 
d="M274 295v-295h-54v295l-210 417h58l181 -360l177 360h58z" />
    <glyph glyph-name="Phi" unicode="&#x3a6;" horiz-adv-x="715" 
d="M649 361q0 -29 -1.5 -59t-7.5 -58.5t-18.5 -54.5t-34.5 -48q-44 -44 -93 -60.5t-109 -16.5v-64h-54v64q-60 0 -109 16.5t-93 60.5q-22 22 -34.5 48t-18.5 54.5t-7.5 58.5t-1.5 59t1.5 59t7.5 58.5t18.5 54.5t34.5 48q44 44 93 60.5t109 16.5v54h54v-54q60 0 109 -16.5
t93 -60.5q22 -22 34.5 -48t18.5 -54.5t7.5 -58.5t1.5 -59zM331 610q-48 0 -86 -12t-73 -47q-18 -18 -28.5 -41t-15.5 -48t-6 -51t-1 -50t1 -50t6 -51t15.5 -48t28.5 -41q35 -35 73 -47t86 -12v498zM595 361q0 24 -1 50t-6 51t-15.5 48t-28.5 41q-35 35 -73 47t-86 12v-498
q48 0 86 12t73 47q18 18 28.5 41t15.5 48t6 51t1 50z" />
    <glyph glyph-name="Chi" unicode="&#x3a7;" horiz-adv-x="532" 
d="M451 0l-186 317l-186 -317h-61l218 365l-204 347h63l170 -299l171 299h62l-204 -347l220 -365h-63z" />
    <glyph glyph-name="Psi" unicode="&#x3a8;" horiz-adv-x="654" 
d="M600 376q0 -55 -16.5 -90.5t-49.5 -68.5q-35 -35 -81 -54t-97 -19h-2v-144h-54v144h-2q-51 0 -97 19t-81 54q-33 33 -49.5 68.5t-16.5 90.5v336h54v-336q0 -47 15 -75.5t40 -53.5q27 -27 62 -41t73 -14h2v520h54v-520h2q38 0 73 14t62 41q25 25 40 53.5t15 75.5v336h54
v-336z" />
    <glyph glyph-name="uni03A9" unicode="&#x3a9;" horiz-adv-x="652" 
d="M570 356q0 -86 -4 -143t-25 -95q-11 -20 -25 -36.5t-37 -34.5h91v-47h-186v47q35 17 60 36.5t45 51.5q19 31 23 85.5t4 135.5q0 56 -1.5 96.5t-7 70t-16.5 51.5t-30 41q-55 55 -135 55t-135 -55q-19 -19 -30 -41t-16.5 -51.5t-7 -70t-1.5 -96.5q0 -81 4 -135.5t23 -85.5
q20 -32 45 -51.5t60 -36.5v-47h-186v47h91q-23 18 -37 34.5t-25 36.5q-21 38 -25 95t-4 143q0 65 2 109.5t9 77.5t21 57.5t39 49.5q32 32 75.5 50t97.5 18t97.5 -18t75.5 -50q25 -25 39 -49.5t21 -57.5t9 -77.5t2 -109.5z" />
    <glyph glyph-name="Iotadieresis" unicode="&#x3aa;" horiz-adv-x="274" 
d="M110 0v712h54v-712h-54zM5 790v77h58v-77h-58zM213 790v77h58v-77h-58z" />
    <glyph glyph-name="Upsilondieresis" unicode="&#x3ab;" horiz-adv-x="494" 
d="M274 295v-295h-54v295l-210 417h58l181 -360l177 360h58zM115 790v77h58v-77h-58zM323 790v77h58v-77h-58z" />
    <glyph glyph-name="alphatonos" unicode="&#x3ac;" horiz-adv-x="540" 
d="M392 0v62q-32 -42 -66.5 -55t-76.5 -13q-38 0 -68.5 11.5t-49.5 30.5q-37 37 -49.5 92.5t-12.5 112.5t12.5 112.5t49.5 92.5q19 19 49.5 30.5t68.5 11.5q42 0 76.5 -13t66.5 -55v62h51v-482h-51zM392 241q0 37 -4.5 73.5t-19 65t-41.5 46t-71 17.5t-71 -17.5t-41.5 -46
t-19 -65t-4.5 -73.5q0 -38 4.5 -74t19 -64.5t41.5 -46t71 -17.5t71 17.5t41.5 46t19 64.5t4.5 74zM233 582v130h58v-97z" />
    <glyph glyph-name="epsilontonos" unicode="&#x3ad;" horiz-adv-x="492" 
d="M437 68q-23 -23 -46.5 -37.5t-48 -22.5t-50 -11t-52.5 -3q-36 0 -67.5 8.5t-54.5 26t-36.5 43t-13.5 58.5q0 45 20 71.5t62 43.5q-72 28 -72 108q0 31 13.5 56.5t37 42.5t54 26.5t63.5 9.5q62 0 108.5 -17.5t81.5 -56.5l-34 -33q-26 27 -65 45t-90 18q-20 0 -40 -6
t-36.5 -18t-27 -29t-10.5 -39q0 -41 23.5 -62.5t72.5 -21.5h82v-44h-82q-56 0 -81 -25t-25 -69q0 -22 9.5 -39t25.5 -29t37 -18t43 -6q15 0 34.5 1t41 7t44 18.5t44.5 34.5zM233 582v130h58v-97z" />
    <glyph glyph-name="etatonos" unicode="&#x3ae;" 
d="M253 582v130h58v-97zM417 0v299q0 70 -33.5 107t-99.5 37t-101 -37.5t-35 -106.5v-299h-51v482h51v-57q54 63 142 63q81 0 128 -46q50 -48 50 -134v-308h-51z" />
    <glyph glyph-name="iotatonos" unicode="&#x3af;" horiz-adv-x="287" 
d="M211 0q-60 0 -88 34t-28 91v357h51v-356q0 -42 15.5 -61.5t58.5 -19.5h35v-45h-44zM96 582v130h58v-97z" />
    <glyph glyph-name="upsilondieresistonos" unicode="&#x3b0;" horiz-adv-x="511" 
d="M255 -6q-42 0 -76.5 11.5t-58.5 34.5q-50 48 -50 134v308h51v-295q0 -75 34 -111.5t100 -36.5t100.5 37t34.5 111v295h51v-308q0 -85 -51 -134q-24 -23 -58.5 -34.5t-76.5 -11.5zM327 600v77h58v-77h-58zM223 582v130h58v-97zM119 600v77h58v-77h-58z" />
    <glyph glyph-name="alpha" unicode="&#x3b1;" horiz-adv-x="540" 
d="M392 0v62q-32 -42 -66.5 -55t-76.5 -13q-38 0 -68.5 11.5t-49.5 30.5q-37 37 -49.5 92.5t-12.5 112.5t12.5 112.5t49.5 92.5q19 19 49.5 30.5t68.5 11.5q42 0 76.5 -13t66.5 -55v62h51v-482h-51zM392 241q0 37 -4.5 73.5t-19 65t-41.5 46t-71 17.5t-71 -17.5t-41.5 -46
t-19 -65t-4.5 -73.5q0 -38 4.5 -74t19 -64.5t41.5 -46t71 -17.5t71 17.5t41.5 46t19 64.5t4.5 74z" />
    <glyph glyph-name="beta" unicode="&#x3b2;" horiz-adv-x="540" 
d="M491 197q0 -41 -13.5 -78t-37.5 -64.5t-56.5 -44t-69.5 -16.5q-23 0 -44.5 1.5t-42 8t-40.5 20.5t-40 39v-63h-50v538q0 37 13 69t36.5 55t56.5 36.5t74 13.5q39 0 71.5 -10.5t56 -31t36.5 -51t13 -71.5q0 -23 -4.5 -49.5t-16 -50.5t-31.5 -42.5t-52 -24.5
q69 -8 105 -54.5t36 -129.5zM442 200q0 52 -15 83.5t-39.5 48.5t-55.5 22t-63 5h-61v38h63q46 0 73 14.5t41 36t17.5 45.5t3.5 44q0 36 -10.5 61.5t-27.5 41.5t-40.5 23.5t-48.5 7.5q-34 0 -59 -11.5t-41 -32t-23.5 -48.5t-7.5 -60v-319q0 -30 8 -59t25.5 -52.5t44.5 -37.5
t66 -14q40 0 68.5 14.5t46.5 38t26.5 52.5t8.5 58z" />
    <glyph glyph-name="gamma" unicode="&#x3b3;" horiz-adv-x="430" 
d="M241 0v-230h-51v230l-176 482h56l145 -422l145 422h56z" />
    <glyph glyph-name="delta" unicode="&#x3b4;" horiz-adv-x="526" 
d="M457 241q0 -52 -11 -104t-49 -90q-53 -53 -134 -53t-134 53q-38 38 -49 90t-11 104t11 104t49 90q53 53 134 53q19 0 38.5 -4t34.5 -13l-213 202v39h285v-39h-229l179 -172q34 -33 54 -66t30 -65.5t12.5 -64.5t2.5 -64zM406 241q0 21 -1 43t-5.5 43.5t-13 40.5t-23.5 34
q-41 41 -100 41t-100 -41q-15 -15 -23.5 -34t-13 -40.5t-5.5 -43.5t-1 -43t1 -43t5.5 -43.5t13 -40.5t23.5 -34q41 -41 100 -41t100 41q15 15 23.5 34t13 40.5t5.5 43.5t1 43z" />
    <glyph glyph-name="epsilon" unicode="&#x3b5;" horiz-adv-x="492" 
d="M437 68q-23 -23 -46.5 -37.5t-48 -22.5t-50 -11t-52.5 -3q-36 0 -67.5 8.5t-54.5 26t-36.5 43t-13.5 58.5q0 45 20 71.5t62 43.5q-72 28 -72 108q0 31 13.5 56.5t37 42.5t54 26.5t63.5 9.5q62 0 108.5 -17.5t81.5 -56.5l-34 -33q-26 27 -65 45t-90 18q-20 0 -40 -6
t-36.5 -18t-27 -29t-10.5 -39q0 -41 23.5 -62.5t72.5 -21.5h82v-44h-82q-56 0 -81 -25t-25 -69q0 -22 9.5 -39t25.5 -29t37 -18t43 -6q15 0 34.5 1t41 7t44 18.5t44.5 34.5z" />
    <glyph glyph-name="zeta" unicode="&#x3b6;" horiz-adv-x="458" 
d="M413 -52q0 -48 -28.5 -74.5t-96.5 -26.5v39q35 0 58 12t23 44q0 31 -19.5 44.5t-64.5 13.5h-36q-50 0 -86.5 5t-60.5 17.5t-35.5 34.5t-11.5 56q0 22 4.5 40.5t14.5 35t26 32.5t39 35l219 181h-274v45h328v-48q-1 -2 -12 -11.5t-28 -25t-39 -34.5t-44 -39
q-53 -47 -119 -104q-21 -18 -33.5 -31t-18.5 -25t-8 -24.5t-2 -30.5q0 -39 37.5 -51.5t103.5 -12.5h33q23 0 46.5 -4t42 -15t30.5 -29.5t12 -48.5z" />
    <glyph glyph-name="eta" unicode="&#x3b7;" 
d="M417 0v299q0 70 -33.5 107t-99.5 37t-101 -37.5t-35 -106.5v-299h-51v482h51v-57q54 63 142 63q81 0 128 -46q50 -48 50 -134v-308h-51z" />
    <glyph glyph-name="theta" unicode="&#x3b8;" horiz-adv-x="534" 
d="M464 356q0 -43 -1 -87t-7 -85t-19.5 -76t-38.5 -60q-26 -26 -57 -40t-74 -14t-74 14t-57 40q-25 25 -38.5 60t-19.5 76t-7 85t-1 87t1 87t7 85t19.5 76t38.5 60q26 26 57 40t74 14t74 -14t57 -40q25 -25 38.5 -60t19.5 -76t7 -85t1 -87zM121 353q0 -44 1 -85t6 -76.5
t15.5 -64.5t28.5 -47q20 -20 42.5 -30.5t52.5 -10.5t52.5 10.5t42.5 30.5q18 18 28.5 47t15.5 64.5t6 76.5t1 85h-292zM413 398q0 29 -1 62.5t-6.5 65.5t-15.5 60t-28 46q-20 20 -42.5 30.5t-52.5 10.5t-52.5 -10.5t-42.5 -30.5q-18 -18 -28 -46t-15.5 -60t-6.5 -65.5
t-1 -62.5h292z" />
    <glyph glyph-name="iota" unicode="&#x3b9;" horiz-adv-x="287" 
d="M211 0q-60 0 -88 34t-28 91v357h51v-356q0 -42 15.5 -61.5t58.5 -19.5h35v-45h-44z" />
    <glyph glyph-name="kappa" unicode="&#x3ba;" horiz-adv-x="527" 
d="M424 0l-166 265l-110 -127v-138h-51v482h51v-272l239 272h65l-159 -180l194 -302h-63z" />
    <glyph glyph-name="lambda" unicode="&#x3bb;" horiz-adv-x="465" 
d="M449 0q-24 0 -41 7t-35 24q-9 9 -17 22.5t-14 33.5l-109 334l-159 -421h-56l191 481l-44 129q-6 18 -11.5 29t-14 17.5t-21.5 8.5t-34 2h-9v45h15q50 0 76 -16.5t41 -61.5l176 -523q12 -36 28 -51t44 -15h18v-45h-24z" />
    <glyph glyph-name="uni03BC" unicode="&#x3bc;" horiz-adv-x="556" 
d="M408 0v57q-54 -63 -142 -63q-79 0 -127 45v-269h-51v712h51v-299q0 -70 33.5 -107t99.5 -37t101 37.5t35 106.5v299h51v-482h-51z" />
    <glyph glyph-name="nu" unicode="&#x3bd;" horiz-adv-x="430" 
d="M240 0h-50l-176 482h56l145 -422l145 422h56z" />
    <glyph glyph-name="xi" unicode="&#x3be;" horiz-adv-x="475" 
d="M421 581q-26 27 -60 44.5t-79 17.5q-61 0 -97 -34t-36 -97t35 -92t96 -29h121v-45h-119q-37 0 -67 -11t-51 -31.5t-32.5 -49t-11.5 -62.5q0 -33 11.5 -60t32 -46.5t48.5 -30t60 -10.5h43q24 0 47 -4t42 -15t30.5 -29.5t11.5 -48.5q0 -48 -28.5 -74.5t-96.5 -26.5v39
q35 0 58 12t23 44q0 31 -19.5 44.5t-64.5 13.5h-46q-43 0 -80.5 14t-65 39.5t-43 60.5t-15.5 78q0 37 10 67t27.5 52t40 36.5t46.5 22.5q-22 6 -40 19.5t-31 32.5t-20 42.5t-7 47.5q0 39 14 71.5t38.5 55.5t59 36t76.5 13q48 0 93 -17.5t80 -56.5z" />
    <glyph glyph-name="omicron" unicode="&#x3bf;" horiz-adv-x="526" 
d="M457 241q0 -52 -11 -104t-49 -90q-53 -53 -134 -53t-134 53q-38 38 -49 90t-11 104t11 104t49 90q53 53 134 53t134 -53q38 -38 49 -90t11 -104zM406 241q0 21 -1 43t-5.5 43.5t-13 40.5t-23.5 34q-41 41 -100 41t-100 -41q-15 -15 -23.5 -34t-13 -40.5t-5.5 -43.5
t-1 -43t1 -43t5.5 -43.5t13 -40.5t23.5 -34q41 -41 100 -41t100 41q15 15 23.5 34t13 40.5t5.5 43.5t1 43z" />
    <glyph glyph-name="pi" unicode="&#x3c0;" 
d="M417 0v437h-269v-437h-51v482h371v-482h-51z" />
    <glyph glyph-name="rho" unicode="&#x3c1;" horiz-adv-x="513" 
d="M444 241q0 -57 -13 -112.5t-50 -92.5q-19 -19 -49.5 -30.5t-68.5 -11.5q-42 0 -76.5 13t-66.5 55v-292h-51v520q0 34 10 69.5t32.5 64t57.5 46.5t86 18q55 0 91 -19.5t58 -53.5t31 -78.5t9 -95.5zM392 241q0 37 -4.5 73.5t-18.5 64.5t-40.5 45.5t-70.5 17.5t-71 -17.5
t-42 -45.5t-20 -63t-5 -70q0 -38 4.5 -75t19 -66t41.5 -47.5t71 -18.5t71 17.5t41.5 46t19 64.5t4.5 74z" />
    <glyph glyph-name="sigma1" unicode="&#x3c2;" horiz-adv-x="493" 
d="M405 382q-31 34 -58.5 47.5t-65.5 13.5q-85 0 -128 -64q-18 -26 -25.5 -57.5t-7.5 -80.5t7.5 -80.5t25.5 -57.5q26 -38 59.5 -48t76.5 -10q25 0 50.5 -3.5t46 -13.5t33.5 -29.5t13 -50.5q0 -48 -29 -74.5t-97 -26.5v39q35 0 58 12t23 44q0 21 -8.5 33t-22 17.5t-31.5 6.5
t-36 1q-57 0 -98.5 17t-68.5 48t-40 75.5t-13 100.5q0 57 14.5 103t42 78t66.5 49t89 17q49 0 85 -15.5t74 -58.5z" />
    <glyph glyph-name="sigma" unicode="&#x3c3;" horiz-adv-x="536" 
d="M380 437q41 -32 60 -84t19 -112q0 -52 -11 -104t-49 -90q-53 -53 -134 -53t-134 53q-38 38 -49 90t-11 104t10 101t48 87q53 53 134 53h209v-45h-92zM408 241q0 42 -7.5 83.5t-37.5 71.5q-41 41 -100 41t-100 -41q-30 -30 -35.5 -71.5t-5.5 -83.5q0 -21 1 -43t5.5 -43.5
t13 -40.5t23.5 -34q41 -41 100 -41t100 41q15 15 23.5 34t13 40.5t5.5 43.5t1 43z" />
    <glyph glyph-name="tau" unicode="&#x3c4;" horiz-adv-x="349" 
d="M200 437v-437h-51v437h-121v45h293v-45h-121z" />
    <glyph glyph-name="upsilon" unicode="&#x3c5;" horiz-adv-x="511" 
d="M255 -6q-42 0 -76.5 11.5t-58.5 34.5q-50 48 -50 134v308h51v-295q0 -75 34 -111.5t100 -36.5t100.5 37t34.5 111v295h51v-308q0 -85 -51 -134q-24 -23 -58.5 -34.5t-76.5 -11.5z" />
    <glyph glyph-name="phi" unicode="&#x3c6;" horiz-adv-x="646" 
d="M577 243q0 -60 -10.5 -106t-37 -78t-71 -48.5t-111.5 -16.5v-224h-51v224q-68 0 -112 19t-69.5 52.5t-35.5 79t-10 98.5q0 168 116 239l14 -42q-24 -18 -39.5 -41.5t-24 -49.5t-12 -54t-3.5 -55q0 -38 5 -73.5t23 -63.5t53 -45.5t95 -18.5v443h69q113 0 162.5 -59
t49.5 -180zM526 246q0 41 -6 76t-24.5 61t-54 40.5t-94.5 14.5v-399q62 2 98 19t54 45.5t22.5 65t4.5 77.5z" />
    <glyph glyph-name="chi" unicode="&#x3c7;" horiz-adv-x="460" 
d="M358 0l-127 203l-129 -203h-62l163 246l-156 236h62l122 -194l120 194h62l-156 -236l163 -246h-62z" />
    <glyph glyph-name="psi" unicode="&#x3c8;" horiz-adv-x="614" 
d="M540 241q0 -62 -11.5 -107t-36.5 -75t-65.5 -45.5t-98.5 -18.5v-225h-51v225q-58 3 -98.5 18.5t-65.5 45.5t-36 75t-11 107v241h50v-241q0 -52 7 -89t25.5 -61t49.5 -36.5t79 -14.5v442h51v-442q48 2 79.5 14.5t49.5 37t25 61.5t7 88v241h51v-241z" />
    <glyph glyph-name="omega" unicode="&#x3c9;" horiz-adv-x="704" 
d="M635 233q0 -48 -8 -93.5t-28 -79.5q-19 -31 -49 -48.5t-75 -17.5t-78.5 30t-44.5 72q-11 -42 -44.5 -72t-78.5 -30t-75 17.5t-49 48.5q-20 34 -28 79.5t-8 93.5q0 25 3.5 51t9.5 50.5t14.5 45.5t19.5 35q7 9 17.5 21t24.5 22.5t31 19t37 10.5v-45q-24 -5 -46 -25t-32 -39
q-7 -13 -12.5 -26.5t-9 -30t-5.5 -38t-2 -51.5q0 -15 0.5 -33.5t3 -38.5t7.5 -39t15 -35q12 -20 33.5 -34t50.5 -14q35 0 54.5 19.5t29 48t11.5 60t2 55.5v128h52v-128q0 -24 2 -55.5t11.5 -60t29 -48t54.5 -19.5q29 0 50.5 14t33.5 34q10 16 15 35t7.5 39t3 38.5t0.5 33.5
q0 30 -2 51.5t-5.5 38t-9 30t-12.5 26.5q-10 19 -32 39t-46 25v45q20 -2 37 -10.5t31 -19t24.5 -22.5t17.5 -21q10 -14 19 -35t15 -45.5t9.5 -50.5t3.5 -51z" />
    <glyph glyph-name="iotadieresis" unicode="&#x3ca;" horiz-adv-x="287" 
d="M211 0q-60 0 -88 34t-28 91v357h51v-356q0 -42 15.5 -61.5t58.5 -19.5h35v-45h-44zM-9 600v77h58v-77h-58zM199 600v77h58v-77h-58z" />
    <glyph glyph-name="upsilondieresis" unicode="&#x3cb;" horiz-adv-x="511" 
d="M255 -6q-42 0 -76.5 11.5t-58.5 34.5q-50 48 -50 134v308h51v-295q0 -75 34 -111.5t100 -36.5t100.5 37t34.5 111v295h51v-308q0 -85 -51 -134q-24 -23 -58.5 -34.5t-76.5 -11.5zM124 600v77h58v-77h-58zM332 600v77h58v-77h-58z" />
    <glyph glyph-name="omicrontonos" unicode="&#x3cc;" horiz-adv-x="526" 
d="M233 582v130h58v-97zM457 241q0 -52 -11 -104t-49 -90q-53 -53 -134 -53t-134 53q-38 38 -49 90t-11 104t11 104t49 90q53 53 134 53t134 -53q38 -38 49 -90t11 -104zM406 241q0 21 -1 43t-5.5 43.5t-13 40.5t-23.5 34q-41 41 -100 41t-100 -41q-15 -15 -23.5 -34
t-13 -40.5t-5.5 -43.5t-1 -43t1 -43t5.5 -43.5t13 -40.5t23.5 -34q41 -41 100 -41t100 41q15 15 23.5 34t13 40.5t5.5 43.5t1 43z" />
    <glyph glyph-name="upsilontonos" unicode="&#x3cd;" horiz-adv-x="511" 
d="M255 -6q-42 0 -76.5 11.5t-58.5 34.5q-50 48 -50 134v308h51v-295q0 -75 34 -111.5t100 -36.5t100.5 37t34.5 111v295h51v-308q0 -85 -51 -134q-24 -23 -58.5 -34.5t-76.5 -11.5zM223 582v130h58v-97z" />
    <glyph glyph-name="omegatonos" unicode="&#x3ce;" horiz-adv-x="704" 
d="M635 233q0 -48 -8 -93.5t-28 -79.5q-19 -31 -49 -48.5t-75 -17.5t-78.5 30t-44.5 72q-11 -42 -44.5 -72t-78.5 -30t-75 17.5t-49 48.5q-20 34 -28 79.5t-8 93.5q0 25 3.5 51t9.5 50.5t14.5 45.5t19.5 35q7 9 17.5 21t24.5 22.5t31 19t37 10.5v-45q-24 -5 -46 -25t-32 -39
q-7 -13 -12.5 -26.5t-9 -30t-5.5 -38t-2 -51.5q0 -15 0.5 -33.5t3 -38.5t7.5 -39t15 -35q12 -20 33.5 -34t50.5 -14q35 0 54.5 19.5t29 48t11.5 60t2 55.5v128h52v-128q0 -24 2 -55.5t11.5 -60t29 -48t54.5 -19.5q29 0 50.5 14t33.5 34q10 16 15 35t7.5 39t3 38.5t0.5 33.5
q0 30 -2 51.5t-5.5 38t-9 30t-12.5 26.5q-10 19 -32 39t-46 25v45q20 -2 37 -10.5t31 -19t24.5 -22.5t17.5 -21q10 -14 19 -35t15 -45.5t9.5 -50.5t3.5 -51zM318 582v130h58v-97z" />
    <glyph glyph-name="uni03D0" unicode="&#x3d0;" horiz-adv-x="540" 
d="M491 197q0 -41 -13.5 -78t-37.5 -64.5t-56.5 -44t-69.5 -16.5q-23 0 -44.5 1t-41.5 7.5t-40 20.5t-40 39v-292h-51v768q0 37 13 69t36.5 55t56.5 36.5t74 13.5q39 0 71.5 -10.5t56 -31t36.5 -51t13 -71.5q0 -23 -4.5 -49.5t-16 -50.5t-31.5 -42.5t-52 -24.5
q69 -8 105 -54.5t36 -129.5zM442 200q0 52 -15 83.5t-39.5 48.5t-55.5 22t-63 5h-61v38h63q46 0 73 14.5t41 36t17.5 45.5t3.5 44q0 36 -10.5 61.5t-27.5 41.5t-40.5 23.5t-48.5 7.5q-34 0 -59 -11.5t-41 -32t-23.5 -48.5t-7.5 -60v-319q0 -30 8 -59t25.5 -52.5t44.5 -37.5
t66 -14q40 0 68.5 14.5t46.5 38t26.5 52.5t8.5 58z" />
    <glyph glyph-name="uni0400" unicode="&#x400;" horiz-adv-x="598" 
d="M110 0v712h432v-48h-378v-281h322v-48h-322v-287h378v-48h-432zM304 780l-106 147h67l97 -147h-58z" />
    <glyph glyph-name="afii10023" unicode="&#x401;" horiz-adv-x="598" 
d="M110 0v712h432v-48h-378v-281h322v-48h-322v-287h378v-48h-432zM182 790v77h58v-77h-58zM390 790v77h58v-77h-58z" />
    <glyph glyph-name="afii10051" unicode="&#x402;" horiz-adv-x="743" 
d="M646 216q0 -104 -58.5 -160t-156.5 -56h-40v48h34q80 0 123.5 41t43.5 126t-43.5 126t-123.5 41h-164v-382h-54v664h-182v48h479v-48h-243v-234h170q49 0 88.5 -14t67.5 -41.5t43.5 -67.5t15.5 -91z" />
    <glyph glyph-name="afii10052" unicode="&#x403;" horiz-adv-x="564" 
d="M172 664v-664h-54v712h422v-48h-368zM319 780h-58l97 147h67z" />
    <glyph glyph-name="afii10053" unicode="&#x404;" horiz-adv-x="644" 
d="M568 202q-9 -48 -30 -86.5t-52.5 -65.5t-72 -41.5t-87.5 -14.5q-54 0 -97.5 18t-75.5 50q-25 25 -39 49.5t-21 57.5t-9 77.5t-2 109.5t2 109.5t9 77.5t21 57.5t39 49.5q32 32 75.5 50t97.5 18q97 0 160.5 -55.5t81.5 -152.5h-55q-16 75 -65.5 117.5t-121.5 42.5
q-80 0 -135 -55q-18 -18 -29 -38t-16.5 -47t-7.5 -62.5t-2 -84.5h286v-48h-286q0 -50 1.5 -87t7.5 -64.5t17 -48t29 -38.5q55 -55 135 -55q72 0 122.5 42.5t66.5 117.5h53z" />
    <glyph glyph-name="afii10054" unicode="&#x405;" horiz-adv-x="587" 
d="M528 191q0 -45 -16.5 -81.5t-47.5 -62t-75.5 -39.5t-100.5 -14q-79 0 -133.5 22.5t-103.5 71.5l38 38q24 -24 46.5 -40t46.5 -26t50.5 -14t58.5 -4q85 0 134 38.5t49 108.5q0 67 -39 100q-9 8 -18.5 14t-21 10t-27 7.5t-36.5 6.5l-83 13q-82 12 -127 51q-56 47 -56 132
q0 45 15.5 81t44 61.5t69.5 39t92 13.5q66 0 112.5 -18.5t92.5 -58.5l-35 -35q-16 15 -33 27t-37.5 21t-46 13.5t-56.5 4.5q-78 0 -121.5 -39t-43.5 -108q0 -64 36 -94q19 -16 45.5 -26t56.5 -15l83 -13q25 -4 43 -8t32.5 -9.5t27 -13.5t24.5 -18q29 -25 45 -59t16 -78z" />
    <glyph glyph-name="afii10055" unicode="&#x406;" horiz-adv-x="274" 
d="M110 0v712h54v-712h-54z" />
    <glyph glyph-name="afii10056" unicode="&#x407;" horiz-adv-x="274" 
d="M110 0v712h54v-712h-54zM5 790v77h58v-77h-58zM213 790v77h58v-77h-58z" />
    <glyph glyph-name="afii10057" unicode="&#x408;" horiz-adv-x="498" 
d="M398 210q0 -49 -15 -88.5t-42.5 -68t-67 -44t-87.5 -15.5q-95 0 -156 61l37 37q20 -20 46 -35t73 -15q78 0 118 46t40 133v491h54v-502z" />
    <glyph glyph-name="afii10058" unicode="&#x409;" horiz-adv-x="1037" 
d="M238 407q0 -113 -13.5 -190.5t-39 -125.5t-64 -69.5t-87.5 -21.5h-29v48h18q36 0 65.5 15t51 57.5t33.5 118t12 196.5v277h385v-302h209q49 0 88.5 -14.5t67.5 -41.5t43.5 -65t15.5 -84q0 -47 -15.5 -84.5t-43.5 -64.5t-67.5 -41.5t-88.5 -14.5h-263v664h-278v-257z
M940 205q0 75 -43.5 116t-123.5 41h-203v-314h203q80 0 123.5 41t43.5 116z" />
    <glyph glyph-name="afii10059" unicode="&#x40a;" horiz-adv-x="1056" 
d="M1013 205q0 -47 -15.5 -84.5t-43.5 -64.5t-67.5 -41.5t-88.5 -14.5h-263v362h-371v-362h-54v712h54v-302h371v302h54v-302h209q49 0 88.5 -14.5t67.5 -41.5t43.5 -65t15.5 -84zM959 205q0 75 -43.5 116t-123.5 41h-203v-314h203q80 0 123.5 41t43.5 116z" />
    <glyph glyph-name="afii10060" unicode="&#x40b;" horiz-adv-x="743" 
d="M592 0v225q0 75 -43.5 116t-123.5 41h-164v-382h-54v664h-182v48h479v-48h-243v-234h170q49 0 88.5 -14.5t67.5 -41.5t43.5 -65t15.5 -84v-225h-54z" />
    <glyph glyph-name="afii10061" unicode="&#x40c;" horiz-adv-x="600" 
d="M524 0l-354 371l331 341h72l-338 -340l365 -372h-76zM115 712h54v-712h-54v712zM324 780h-58l97 147h67z" />
    <glyph glyph-name="uni040D" unicode="&#x40d;" horiz-adv-x="720" 
d="M556 0v624l-392 -624h-54v712h54v-622l392 622h54v-712h-54zM334 780l-106 147h67l97 -147h-58z" />
    <glyph glyph-name="afii10062" unicode="&#x40e;" horiz-adv-x="534" 
d="M407 880q-5 -63 -41 -91.5t-99 -28.5t-99 28.5t-41 91.5h51q8 -80 89 -80t89 80h51v0zM263 108q-21 -50 -52 -79t-82 -29h-54v48h42q40 0 61.5 19t39.5 61l31 74l-237 510h58l207 -449l187 449h58z" />
    <glyph glyph-name="afii10145" unicode="&#x40f;" horiz-adv-x="699" 
d="M377 0v-180h-54v180h-213v712h54v-664h371v664h54v-712h-212z" />
    <glyph glyph-name="afii10017" unicode="&#x410;" horiz-adv-x="602" 
d="M529 0l-62 173h-332l-62 -173h-58l262 712h48l262 -712h-58zM152 221h298l-149 419z" />
    <glyph glyph-name="afii10018" unicode="&#x411;" horiz-adv-x="657" 
d="M588 205q0 -47 -15.5 -84.5t-43.5 -64.5t-67.5 -41.5t-88.5 -14.5h-263v712h434v-48h-380v-254h209q49 0 88.5 -14.5t67.5 -41.5t43.5 -65t15.5 -84zM534 205q0 75 -43.5 116t-123.5 41h-203v-314h203q80 0 123.5 41t43.5 116z" />
    <glyph glyph-name="afii10019" unicode="&#x412;" horiz-adv-x="671" 
d="M589 194q0 -48 -15 -84t-42.5 -60.5t-66 -37t-85.5 -12.5h-270v712h262q44 0 82 -12.5t65.5 -36.5t43 -58.5t15.5 -78.5q0 -57 -29.5 -100t-81.5 -60q58 -20 90 -64.5t32 -107.5zM535 194q0 69 -44 107.5t-117 38.5h-210v-292h210q73 0 117 38.5t44 107.5zM524 526
q0 37 -12.5 63t-34 42.5t-50.5 24.5t-61 8h-202v-276h202q32 0 61 8t50.5 24.5t34 42.5t12.5 63z" />
    <glyph glyph-name="afii10020" unicode="&#x413;" horiz-adv-x="564" 
d="M172 664v-664h-54v712h422v-48h-368z" />
    <glyph glyph-name="afii10021" unicode="&#x414;" horiz-adv-x="680" 
d="M586 -180v180h-512v-180h-54v228h65q25 40 42.5 83t28.5 92t16 105.5t5 123.5v260h378v-664h85v-228h-54zM501 664h-273v-260q0 -97 -19 -189t-64 -167h356v616z" />
    <glyph glyph-name="afii10022" unicode="&#x415;" horiz-adv-x="598" 
d="M110 0v712h432v-48h-378v-281h322v-48h-322v-287h378v-48h-432z" />
    <glyph glyph-name="afii10024" unicode="&#x416;" horiz-adv-x="886" 
d="M886 0h-76l-339 371l316 341h72l-323 -340zM350 372l-323 340h72l316 -341l-339 -371h-76zM416 0v712h54v-712h-54z" />
    <glyph glyph-name="afii10025" unicode="&#x417;" horiz-adv-x="620" 
d="M538 192q0 -46 -18 -82.5t-49 -62t-73.5 -39.5t-91.5 -14q-45 0 -84.5 14.5t-70 41.5t-51.5 65.5t-30 86.5h53q16 -74 66.5 -117t122.5 -43q36 0 67.5 10.5t55 30t36.5 47.5t13 64q0 75 -41.5 110.5t-116.5 35.5h-89v48h92q69 0 106 37t37 106q0 68 -43.5 103.5
t-115.5 35.5t-121.5 -43t-65.5 -117h-55q9 48 30 86.5t52 65.5t71.5 41.5t88.5 14.5q46 0 85 -13t67.5 -37t44.5 -58.5t16 -77.5q0 -60 -26 -101t-81 -64q119 -41 119 -175z" />
    <glyph glyph-name="afii10026" unicode="&#x418;" horiz-adv-x="720" 
d="M556 0v624l-392 -624h-54v712h54v-622l392 622h54v-712h-54z" />
    <glyph glyph-name="afii10027" unicode="&#x419;" horiz-adv-x="720" 
d="M500 880q-5 -63 -41 -91.5t-99 -28.5t-99 28.5t-41 91.5h51q8 -80 89 -80t89 80h51v0zM556 0v624l-392 -624h-54v712h54v-622l392 622h54v-712h-54z" />
    <glyph glyph-name="afii10028" unicode="&#x41a;" horiz-adv-x="600" 
d="M524 0l-354 371l331 341h72l-338 -340l365 -372h-76zM115 712h54v-712h-54v712z" />
    <glyph glyph-name="afii10029" unicode="&#x41b;" horiz-adv-x="680" 
d="M516 0v664h-278v-257q0 -113 -13.5 -190.5t-39 -125.5t-64 -69.5t-87.5 -21.5h-29v48h18q36 0 65.5 15t51 57.5t33.5 118t12 196.5v277h385v-712h-54z" />
    <glyph glyph-name="afii10030" unicode="&#x41c;" horiz-adv-x="818" 
d="M654 0v587l-216 -487h-54l-220 487v-587h-54v712h54l248 -549l242 549h54v-712h-54z" />
    <glyph glyph-name="afii10031" unicode="&#x41d;" horiz-adv-x="699" 
d="M535 0v335h-371v-335h-54v712h54v-329h371v329h54v-712h-54z" />
    <glyph glyph-name="afii10032" unicode="&#x41e;" horiz-adv-x="652" 
d="M570 356q0 -65 -2 -109.5t-9 -77.5t-21 -57.5t-39 -49.5q-32 -32 -75.5 -50t-97.5 -18t-97.5 18t-75.5 50q-25 25 -39 49.5t-21 57.5t-9 77.5t-2 109.5t2 109.5t9 77.5t21 57.5t39 49.5q32 32 75.5 50t97.5 18t97.5 -18t75.5 -50q25 -25 39 -49.5t21 -57.5t9 -77.5
t2 -109.5zM516 356q0 56 -1.5 96.5t-7 70t-16.5 51.5t-30 41q-55 55 -135 55t-135 -55q-19 -19 -30 -41t-16.5 -51.5t-7 -70t-1.5 -96.5t1.5 -96.5t7 -70t16.5 -51.5t30 -41q55 -55 135 -55t135 55q19 19 30 41t16.5 51.5t7 70t1.5 96.5z" />
    <glyph glyph-name="afii10033" unicode="&#x41f;" horiz-adv-x="699" 
d="M535 0v664h-371v-664h-54v712h479v-712h-54z" />
    <glyph glyph-name="afii10034" unicode="&#x420;" horiz-adv-x="631" 
d="M586 507q0 -49 -16.5 -87t-45 -64.5t-68 -40t-85.5 -13.5h-207v-302h-54v712h261q46 0 85.5 -14t68 -40t45 -64t16.5 -87zM532 507q0 80 -46.5 118.5t-120.5 38.5h-201v-314h201q74 0 120.5 38.5t46.5 118.5z" />
    <glyph glyph-name="afii10035" unicode="&#x421;" horiz-adv-x="644" 
d="M568 202q-9 -48 -30 -86.5t-52.5 -65.5t-72 -41.5t-87.5 -14.5q-54 0 -97.5 18t-75.5 50q-25 25 -39 49.5t-21 57.5t-9 77.5t-2 109.5t2 109.5t9 77.5t21 57.5t39 49.5q32 32 75.5 50t97.5 18q97 0 160.5 -55.5t81.5 -152.5h-55q-16 75 -65.5 117.5t-121.5 42.5
q-80 0 -135 -55q-19 -19 -30 -41t-16.5 -51.5t-7 -70t-1.5 -96.5t1.5 -96.5t7 -70t16.5 -51.5t30 -41q55 -55 135 -55q72 0 122.5 42.5t66.5 117.5h53z" />
    <glyph glyph-name="afii10036" unicode="&#x422;" horiz-adv-x="539" 
d="M296 664v-664h-54v664h-212v48h479v-48h-213z" />
    <glyph glyph-name="afii10037" unicode="&#x423;" horiz-adv-x="534" 
d="M263 108q-21 -50 -52 -79t-82 -29h-54v48h42q40 0 61.5 19t39.5 61l31 74l-237 510h58l207 -449l187 449h58z" />
    <glyph glyph-name="afii10038" unicode="&#x424;" horiz-adv-x="760" 
d="M704 380q0 -140 -70 -213t-227 -77v-93h-54v93q-79 2 -135 21.5t-92 55.5t-53 89.5t-17 123.5t17 123.5t53 89.5t92 55.5t135 21.5v65h54v-65q157 -5 227 -77.5t70 -212.5zM353 623q-71 -1 -117.5 -18.5t-74.5 -49t-39.5 -76t-11.5 -99.5t11.5 -99.5t39.5 -76t74.5 -49
t117.5 -18.5v486zM650 380q0 55 -11.5 99.5t-39.5 76t-75 49t-117 18.5v-486q70 1 117 18.5t75 49t39.5 76t11.5 99.5z" />
    <glyph glyph-name="afii10039" unicode="&#x425;" horiz-adv-x="532" 
d="M451 0l-186 317l-186 -317h-61l218 365l-204 347h63l170 -299l171 299h62l-204 -347l220 -365h-63z" />
    <glyph glyph-name="afii10040" unicode="&#x426;" horiz-adv-x="714" 
d="M620 -180v180h-510v712h54v-664h371v664h54v-664h85v-228h-54z" />
    <glyph glyph-name="afii10041" unicode="&#x427;" horiz-adv-x="644" 
d="M480 0v300q-18 -4 -44 -9t-55.5 -9.5t-58 -8t-50.5 -3.5q-37 0 -71.5 8.5t-61.5 29t-43 55t-16 86.5v263h54v-256q0 -44 13 -71t34 -42t47 -20t53 -5q20 0 46.5 3t54 7.5t53.5 9t45 8.5v366h54v-712h-54z" />
    <glyph glyph-name="afii10042" unicode="&#x428;" horiz-adv-x="1000" 
d="M110 0v712h54v-664h309v664h54v-664h309v664h54v-712h-780z" />
    <glyph glyph-name="afii10043" unicode="&#x429;" horiz-adv-x="1015" 
d="M921 -180v180h-811v712h54v-664h309v664h54v-664h309v664h54v-664h85v-228h-54z" />
    <glyph glyph-name="afii10044" unicode="&#x42a;" horiz-adv-x="728" 
d="M685 205q0 -47 -15.5 -84.5t-43.5 -64.5t-67.5 -41.5t-88.5 -14.5h-263v664h-177v48h231v-302h209q49 0 88.5 -14.5t67.5 -41.5t43.5 -65t15.5 -84zM631 205q0 75 -43.5 116t-123.5 41h-203v-314h203q80 0 123.5 41t43.5 116z" />
    <glyph glyph-name="afii10045" unicode="&#x42b;" horiz-adv-x="854" 
d="M588 205q0 -47 -15.5 -84.5t-43.5 -64.5t-67.5 -41.5t-88.5 -14.5h-263v712h54v-302h209q49 0 88.5 -14.5t67.5 -41.5t43.5 -65t15.5 -84zM534 205q0 75 -43.5 116t-123.5 41h-203v-314h203q80 0 123.5 41t43.5 116zM690 0v712h54v-712h-54z" />
    <glyph glyph-name="afii10046" unicode="&#x42c;" horiz-adv-x="631" 
d="M588 205q0 -47 -15.5 -84.5t-43.5 -64.5t-67.5 -41.5t-88.5 -14.5h-263v712h54v-302h209q49 0 88.5 -14.5t67.5 -41.5t43.5 -65t15.5 -84zM534 205q0 75 -43.5 116t-123.5 41h-203v-314h203q80 0 123.5 41t43.5 116z" />
    <glyph glyph-name="afii10047" unicode="&#x42d;" horiz-adv-x="644" 
d="M562 356q0 -65 -2 -109.5t-9 -77.5t-21 -57.5t-39 -49.5q-32 -32 -75.5 -50t-97.5 -18q-47 0 -87.5 14.5t-72 41.5t-52.5 65.5t-30 86.5h53q16 -75 66.5 -117.5t122.5 -42.5q80 0 135 55q18 18 29 38.5t17 48t7.5 64.5t1.5 87h-286v48h286q0 49 -2 84.5t-7.5 62.5
t-16.5 47t-29 38q-55 55 -135 55q-72 0 -121.5 -42.5t-65.5 -117.5h-55q18 97 81.5 152.5t160.5 55.5q54 0 97.5 -18t75.5 -50q25 -25 39 -49.5t21 -57.5t9 -77.5t2 -109.5z" />
    <glyph glyph-name="afii10048" unicode="&#x42e;" horiz-adv-x="900" 
d="M818 356q0 -65 -2 -109.5t-9 -77.5t-21 -57.5t-39 -49.5q-32 -32 -75.5 -50t-97.5 -18t-97.5 18t-75.5 50q-24 24 -38 47.5t-21.5 54t-9.5 71.5t-2 100h-166v-335h-54v712h54v-329h166q0 57 2 96.5t9.5 69.5t21.5 53.5t38 47.5q32 32 75.5 50t97.5 18t97.5 -18t75.5 -50
q25 -25 39 -49.5t21 -57.5t9 -77.5t2 -109.5zM764 356q0 56 -1.5 96.5t-7 70t-16.5 51.5t-30 41q-55 55 -135 55t-135 -55q-19 -19 -30 -41t-16.5 -51.5t-7 -70t-1.5 -96.5t1.5 -96.5t7 -70t16.5 -51.5t30 -41q55 -55 135 -55t135 55q19 19 30 41t16.5 51.5t7 70t1.5 96.5z
" />
    <glyph glyph-name="afii10049" unicode="&#x42f;" horiz-adv-x="657" 
d="M493 0v302h-200l-166 -302h-63l170 307q-75 14 -119 67t-44 133q0 46 15.5 84t43.5 65t67.5 41.5t88.5 14.5h261v-712h-54zM493 664h-201q-80 0 -123.5 -41t-43.5 -116t43.5 -116t123.5 -41h201v314z" />
    <glyph glyph-name="afii10065" unicode="&#x430;" horiz-adv-x="524" 
d="M380 0v48q-31 -31 -63.5 -42.5t-83.5 -11.5q-54 0 -86.5 10t-55.5 34q-17 17 -26 42t-9 52q0 66 44.5 102.5t123.5 36.5h156v54q0 58 -30.5 88t-105.5 30q-51 0 -80.5 -14t-52.5 -47l-37 32q31 43 70.5 58.5t99.5 15.5q97 0 142 -41t45 -117v-330h-51zM380 230h-150
q-123 0 -123 -97q0 -48 30 -71t96 -23q33 0 63.5 6t56.5 31q27 25 27 92v62z" />
    <glyph glyph-name="afii10066" unicode="&#x431;" horiz-adv-x="528" 
d="M461 241q0 -72 -13.5 -117.5t-45.5 -77.5q-24 -25 -58.5 -38.5t-73.5 -13.5q-72 0 -121 39.5t-64 108.5q-7 29 -8.5 69t-1.5 79q0 88 1 147t6.5 98t17.5 64t33 46q25 25 62.5 38.5t79 20t81.5 8.5t70 5v-49q-24 -2 -59 -3.5t-71 -6t-69 -15t-54 -31.5q-34 -34 -41.5 -84
t-7.5 -118q8 17 24 31t36.5 24.5t43.5 16t45 5.5q38 0 70 -10.5t55 -33.5q32 -31 47.5 -82t15.5 -120zM410 236q0 66 -9 104t-33 62q-18 19 -44 29.5t-54 10.5t-53.5 -10.5t-44.5 -29.5q-23 -23 -34.5 -61.5t-11.5 -102.5t11.5 -99.5t34.5 -59.5q19 -19 44.5 -29.5
t53.5 -10.5t54 10.5t44 29.5q23 23 32.5 59t9.5 98z" />
    <glyph glyph-name="afii10067" unicode="&#x432;" horiz-adv-x="535" 
d="M463 131q0 -61 -37.5 -96t-104.5 -35h-224v482h219q63 0 101 -33.5t38 -90.5q0 -41 -22 -68.5t-60 -39.5q40 -13 65 -43t25 -76zM412 135q0 42 -27 67.5t-75 25.5h-162v-185h162q48 0 75 25t27 67zM404 355q0 41 -25.5 62.5t-73.5 21.5h-157v-169h157q48 0 73.5 22.5
t25.5 62.5z" />
    <glyph glyph-name="afii10068" unicode="&#x433;" horiz-adv-x="411" 
d="M152 437v-437h-51v482h300v-45h-249z" />
    <glyph glyph-name="afii10069" unicode="&#x434;" horiz-adv-x="551" 
d="M464 -150v150h-388v-150h-51v195h59q14 20 26.5 44t22.5 58t15.5 81.5t5.5 113.5v140h286v-437h75v-195h-51zM389 437h-186v-108q0 -61 -5 -106.5t-13.5 -79.5t-19.5 -57.5t-23 -40.5h247v392z" />
    <glyph glyph-name="afii10070" unicode="&#x435;" horiz-adv-x="523" 
d="M120 230q0 -93 39.5 -141.5t117.5 -48.5q43 0 72.5 13.5t60.5 44.5l38 -30q-18 -18 -36.5 -32t-39 -23.5t-44.5 -14t-54 -4.5q-100 0 -152.5 63t-52.5 184q0 118 51 182.5t142 64.5t142 -61.5t51 -173.5v-23h-335zM404 271q-1 17 -2 29.5t-2.5 22.5t-4.5 19t-8 20
q-16 38 -49.5 59.5t-75.5 21.5t-75 -21.5t-50 -59.5q-5 -11 -8 -20t-4.5 -19t-2.5 -22.5t-2 -29.5h284z" />
    <glyph glyph-name="afii10072" unicode="&#x436;" horiz-adv-x="699" 
d="M601 482h66l-225 -229l248 -253h-70l-244 249zM323 249l-244 -249h-70l248 253l-225 229h66zM324 0v482h51v-482h-51z" />
    <glyph glyph-name="afii10073" unicode="&#x437;" horiz-adv-x="477" 
d="M405 133q0 -32 -15 -57.5t-40 -43.5t-58 -27.5t-69 -9.5q-58 0 -100.5 15t-85.5 54l35 35q17 -17 33.5 -28.5t33.5 -18t37 -9.5t44 -3t48 6.5t43.5 18.5t32 29.5t12.5 39.5q0 46 -31 69t-80 23h-69v43h71q44 0 72 22.5t28 65.5q0 42 -32.5 64t-86.5 22q-78 0 -139 -42
l-30 36q40 28 80.5 39.5t88.5 11.5q36 0 67 -8.5t53.5 -25t35.5 -41t13 -55.5q0 -38 -20.5 -67.5t-60.5 -41.5q41 -11 65 -42t24 -74z" />
    <glyph glyph-name="afii10074" unicode="&#x438;" horiz-adv-x="573" 
d="M425 0v408l-277 -408h-51v482h51v-408l277 408h51v-482h-51z" />
    <glyph glyph-name="afii10075" unicode="&#x439;" horiz-adv-x="573" 
d="M427 697q-5 -63 -41 -91.5t-99 -28.5t-99 28.5t-41 91.5h51q8 -80 89 -80t89 80h51v0zM425 0v408l-277 -408h-51v482h51v-408l277 408h51v-482h-51z" />
    <glyph glyph-name="afii10076" unicode="&#x43a;" horiz-adv-x="485" 
d="M387 482h66l-233 -229l256 -253h-70l-252 249zM153 0h-51v482h51v-482z" />
    <glyph glyph-name="afii10077" unicode="&#x43b;" horiz-adv-x="533" 
d="M436 482v-482h-51v439h-190v-187q0 -75 -12 -124t-33 -77.5t-49 -39.5t-59 -11h-22v43h15q16 0 35.5 6t36 29t27.5 68.5t11 124.5v211h291z" />
    <glyph glyph-name="afii10078" unicode="&#x43c;" horiz-adv-x="648" 
d="M500 0v378l-151 -310h-48l-153 310v-378h-51v482h51l178 -363l174 363h51v-482h-51z" />
    <glyph glyph-name="afii10079" unicode="&#x43d;" 
d="M411 0v227h-263v-227h-51v482h51v-210h263v210h51v-482h-51z" />
    <glyph glyph-name="afii10080" unicode="&#x43e;" horiz-adv-x="526" 
d="M457 241q0 -52 -11 -104t-49 -90q-53 -53 -134 -53t-134 53q-38 38 -49 90t-11 104t11 104t49 90q53 53 134 53t134 -53q38 -38 49 -90t11 -104zM406 241q0 21 -1 43t-5.5 43.5t-13 40.5t-23.5 34q-41 41 -100 41t-100 -41q-15 -15 -23.5 -34t-13 -40.5t-5.5 -43.5
t-1 -43t1 -43t5.5 -43.5t13 -40.5t23.5 -34q41 -41 100 -41t100 41q15 15 23.5 34t13 40.5t5.5 43.5t1 43z" />
    <glyph glyph-name="afii10081" unicode="&#x43f;" horiz-adv-x="553" 
d="M411 0v437h-263v-437h-51v482h365v-482h-51z" />
    <glyph glyph-name="afii10082" unicode="&#x440;" horiz-adv-x="540" 
d="M471 241q0 -57 -12.5 -112.5t-49.5 -92.5q-19 -19 -49.5 -30.5t-68.5 -11.5q-42 0 -76.5 13t-66.5 55v-292h-51v712h51v-62q32 42 66.5 55t76.5 13q38 0 68.5 -11.5t49.5 -30.5q37 -37 49.5 -92.5t12.5 -112.5zM420 241q0 37 -4.5 73.5t-19 65t-41.5 46t-71 17.5
t-71 -17.5t-41.5 -46t-19 -65t-4.5 -73.5q0 -38 4.5 -74t19 -64.5t41.5 -46t71 -17.5t71 17.5t41.5 46t19 64.5t4.5 74z" />
    <glyph glyph-name="afii10083" unicode="&#x441;" horiz-adv-x="493" 
d="M440 68q-38 -43 -74 -58.5t-85 -15.5q-50 0 -89 17t-66.5 49t-42 78t-14.5 103t14.5 103t42 78t66.5 49t89 17q49 0 85 -15.5t74 -58.5l-35 -32q-31 34 -58.5 47.5t-65.5 13.5q-85 0 -128 -64q-18 -26 -25.5 -57.5t-7.5 -80.5t7.5 -80.5t25.5 -57.5q43 -64 128 -64
q38 0 65.5 13.5t58.5 47.5z" />
    <glyph glyph-name="afii10084" unicode="&#x442;" horiz-adv-x="409" 
d="M235 437v-437h-51v437h-174v45h389v-45h-164z" />
    <glyph glyph-name="afii10085" unicode="&#x443;" horiz-adv-x="430" 
d="M192 -131q-14 -40 -33 -56q-18 -17 -42.5 -24t-48.5 -7h-24v45h19q21 0 34.5 3.5t23.5 11.5t17 20.5t13 30.5l39 107l-176 482h56l145 -422l145 422h56z" />
    <glyph glyph-name="afii10086" unicode="&#x444;" horiz-adv-x="667" 
d="M607 241q0 -118 -65 -180t-183 -67v-224h-51v224q-118 5 -183 67t-65 180t65 180t183 67v224h51v-224q118 -5 183 -67t65 -180zM308 443q-99 -3 -148 -58.5t-49 -143.5t49 -143.5t148 -58.5v404zM556 241q0 88 -49 143.5t-148 58.5v-404q99 3 148 58.5t49 143.5z" />
    <glyph glyph-name="afii10087" unicode="&#x445;" horiz-adv-x="460" 
d="M358 0l-127 203l-129 -203h-62l163 246l-156 236h62l122 -194l120 194h62l-156 -236l163 -246h-62z" />
    <glyph glyph-name="afii10088" unicode="&#x446;" horiz-adv-x="573" 
d="M486 -150v150h-389v482h51v-439h263v439h51v-439h75v-193h-51z" />
    <glyph glyph-name="afii10089" unicode="&#x447;" horiz-adv-x="530" 
d="M382 0v195q-14 -3 -33 -6.5t-40 -7t-43.5 -5.5t-43.5 -2q-66 0 -104.5 32.5t-38.5 107.5v168h51v-163q0 -55 27.5 -76t73.5 -21q43 0 82.5 6t68.5 12v242h51v-482h-51z" />
    <glyph glyph-name="afii10090" unicode="&#x448;" horiz-adv-x="793" 
d="M97 0v482h51v-437h223v437h51v-437h223v437h51v-482h-599z" />
    <glyph glyph-name="afii10091" unicode="&#x449;" horiz-adv-x="807" 
d="M720 -150v150h-623v482h51v-437h223v437h51v-437h223v437h51v-437h75v-195h-51z" />
    <glyph glyph-name="afii10092" unicode="&#x44a;" horiz-adv-x="543" 
d="M503 142q0 -65 -40.5 -103.5t-108.5 -38.5h-212v439h-132v43h183v-198h161q68 0 108.5 -38.5t40.5 -103.5zM452 142q0 97 -106 97h-153v-194h153q106 0 106 97z" />
    <glyph glyph-name="afii10093" unicode="&#x44b;" horiz-adv-x="679" 
d="M448 142q0 -65 -40.5 -103.5t-108.5 -38.5h-202v482h51v-198h151q68 0 108.5 -38.5t40.5 -103.5zM397 142q0 97 -106 97h-143v-194h143q106 0 106 97zM531 0v482h51v-482h-51z" />
    <glyph glyph-name="afii10094" unicode="&#x44c;" horiz-adv-x="498" 
d="M458 142q0 -65 -40.5 -103.5t-108.5 -38.5h-212v482h51v-198h161q68 0 108.5 -38.5t40.5 -103.5zM407 142q0 97 -106 97h-153v-194h153q106 0 106 97z" />
    <glyph glyph-name="afii10095" unicode="&#x44d;" horiz-adv-x="493" 
d="M424 241q0 -116 -57 -181.5t-158 -65.5q-27 0 -48 4.5t-39 13.5t-34.5 23t-34.5 33l35 32q28 -30 54.5 -45.5t68.5 -15.5q44 0 74.5 15.5t50 41.5t28.5 60.5t9 73.5h-229v41h228q-2 36 -12.5 67.5t-30.5 55t-49.5 36.5t-69.5 13q-41 0 -68 -16t-54 -45l-35 32
q18 19 34.5 33t34.5 23t39 13.5t48 4.5q101 0 158 -65.5t57 -181.5z" />
    <glyph glyph-name="afii10096" unicode="&#x44e;" horiz-adv-x="712" 
d="M643 241q0 -52 -11 -104t-49 -90q-53 -53 -134 -53t-134 53q-36 35 -47.5 82.5t-12.5 96.5h-107v-226h-51v482h51v-213h107q2 45 14.5 89t45.5 77q53 53 134 53t134 -53q38 -38 49 -90t11 -104zM592 241q0 21 -1 43t-5.5 43.5t-13 40.5t-23.5 34q-41 41 -100 41t-100 -41
q-15 -15 -23.5 -34t-13 -40.5t-5.5 -43.5t-1 -43t1 -43t5.5 -43.5t13 -40.5t23.5 -34q41 -41 100 -41t100 41q15 15 23.5 34t13 40.5t5.5 43.5t1 43z" />
    <glyph glyph-name="afii10097" unicode="&#x44f;" horiz-adv-x="524" 
d="M376 0v196h-135l-114 -196h-60l118 198q-56 8 -88.5 46.5t-32.5 95.5q0 65 40.5 103.5t108.5 38.5h214v-482h-51zM376 439h-153q-52 0 -79.5 -26t-27.5 -74t27.5 -74t79.5 -26h153v200z" />
    <glyph glyph-name="uni0450" unicode="&#x450;" horiz-adv-x="523" 
d="M120 230q0 -93 39.5 -141.5t117.5 -48.5q43 0 72.5 13.5t60.5 44.5l38 -30q-18 -18 -36.5 -32t-39 -23.5t-44.5 -14t-54 -4.5q-100 0 -152.5 63t-52.5 184q0 118 51 182.5t142 64.5t142 -61.5t51 -173.5v-23h-335zM404 271q-1 17 -2 29.5t-2.5 22.5t-4.5 19t-8 20
q-16 38 -49.5 59.5t-75.5 21.5t-75 -21.5t-50 -59.5q-5 -11 -8 -20t-4.5 -19t-2.5 -22.5t-2 -29.5h284zM253 590l-106 147h67l97 -147h-58z" />
    <glyph glyph-name="afii10071" unicode="&#x451;" horiz-adv-x="523" 
d="M120 230q0 -93 39.5 -141.5t117.5 -48.5q43 0 72.5 13.5t60.5 44.5l38 -30q-18 -18 -36.5 -32t-39 -23.5t-44.5 -14t-54 -4.5q-100 0 -152.5 63t-52.5 184q0 118 51 182.5t142 64.5t142 -61.5t51 -173.5v-23h-335zM404 271q-1 17 -2 29.5t-2.5 22.5t-4.5 19t-8 20
q-16 38 -49.5 59.5t-75.5 21.5t-75 -21.5t-50 -59.5q-5 -11 -8 -20t-4.5 -19t-2.5 -22.5t-2 -29.5h284zM131 600v77h58v-77h-58zM339 600v77h58v-77h-58z" />
    <glyph glyph-name="afii10099" unicode="&#x452;" 
d="M468 -85q0 -30 -8.5 -56t-25 -46t-42.5 -31.5t-60 -11.5h-44v45h35q45 0 69.5 28.5t24.5 72.5v383q0 70 -31.5 107t-96.5 37t-103 -37.5t-38 -106.5v-299h-51v564h-61v38h61v110h51v-110h254v-38h-254v-139q32 33 66.5 48t81.5 15q82 0 127 -48t45 -132v-393z" />
    <glyph glyph-name="afii10100" unicode="&#x453;" horiz-adv-x="411" 
d="M152 437v-437h-51v482h300v-45h-249zM243 590h-58l97 147h67z" />
    <glyph glyph-name="afii10101" unicode="&#x454;" horiz-adv-x="493" 
d="M440 68q-18 -19 -34.5 -33t-34.5 -23t-39 -13.5t-48 -4.5q-101 0 -158 65.5t-57 181.5t57 181.5t158 65.5q27 0 48 -4.5t39 -13.5t34.5 -23t34.5 -33l-35 -32q-27 29 -54 45t-68 16q-40 0 -69.5 -13t-49.5 -36.5t-30.5 -55t-12.5 -67.5h228v-41h-229q0 -39 9 -73.5
t28.5 -60.5t50 -41.5t74.5 -15.5q42 0 68.5 15.5t54.5 45.5z" />
    <glyph glyph-name="afii10102" unicode="&#x455;" horiz-adv-x="494" 
d="M438 137q0 -66 -51.5 -104.5t-141.5 -38.5q-63 0 -110.5 17t-84.5 52l35 35q56 -59 158 -59q145 0 145 98q0 38 -22 57t-70 24l-80 7q-145 12 -145 126q0 63 47 100t126 37q51 0 94 -13.5t75 -37.5l-34 -34q-56 41 -135 41q-60 0 -91.5 -24t-31.5 -69q0 -38 23.5 -57
t74.5 -24l78 -7q30 -3 56 -10t44.5 -21t29.5 -37t11 -58z" />
    <glyph glyph-name="afii10103" unicode="&#x456;" horiz-adv-x="245" 
d="M97 0v482h51v-482h-51zM91 649v63h63v-63h-63z" />
    <glyph glyph-name="afii10104" unicode="&#x457;" horiz-adv-x="245" 
d="M97 0v482h51v-482h-51zM-9 600v77h58v-77h-58zM199 600v77h58v-77h-58z" />
    <glyph glyph-name="afii10105" unicode="&#x458;" horiz-adv-x="245" 
d="M148 -105q0 -57 -28 -91t-88 -34h-44v45h35q43 0 58.5 19.5t15.5 61.5v586h51v-587zM91 649v63h63v-63h-63z" />
    <glyph glyph-name="afii10106" unicode="&#x459;" horiz-adv-x="797" 
d="M757 142q0 -65 -40.5 -103.5t-108.5 -38.5h-212v439h-201v-187q0 -75 -12 -124t-33 -77.5t-49 -39.5t-59 -11h-22v43h15q16 0 35.5 6t36 29t27.5 68.5t11 124.5v211h302v-198h161q68 0 108.5 -38.5t40.5 -103.5zM706 142q0 48 -27 73.5t-79 25.5h-153v-198h153
q52 0 79 25.5t27 73.5z" />
    <glyph glyph-name="afii10107" unicode="&#x45a;" horiz-adv-x="812" 
d="M772 142q0 -65 -40.5 -103.5t-108.5 -38.5h-212v241h-263v-241h-51v482h51v-198h263v198h51v-198h161q68 0 108.5 -38.5t40.5 -103.5zM721 142q0 48 -27 73.5t-79 25.5h-153v-198h153q52 0 79 25.5t27 73.5z" />
    <glyph glyph-name="afii10108" unicode="&#x45b;" 
d="M417 0v299q0 70 -34 107t-99 37t-100.5 -37.5t-35.5 -106.5v-299h-51v564h-61v38h61v110h51v-110h254v-38h-254v-139q32 33 64 48t79 15q82 0 129.5 -48t47.5 -132v-308h-51z" />
    <glyph glyph-name="afii10109" unicode="&#x45c;" horiz-adv-x="485" 
d="M387 482h66l-233 -229l256 -253h-70l-252 249zM153 0h-51v482h51v-482zM269 590h-58l97 147h67z" />
    <glyph glyph-name="uni045D" unicode="&#x45d;" horiz-adv-x="573" 
d="M425 0v408l-277 -408h-51v482h51v-408l277 408h51v-482h-51zM259 590l-106 147h67l97 -147h-58z" />
    <glyph glyph-name="afii10110" unicode="&#x45e;" horiz-adv-x="430" 
d="M192 -131q-14 -40 -33 -56q-18 -17 -42.5 -24t-48.5 -7h-24v45h19q21 0 34.5 3.5t23.5 11.5t17 20.5t13 30.5l39 107l-176 482h56l145 -422l145 422h56zM356 697q-5 -63 -41 -91.5t-99 -28.5t-99 28.5t-41 91.5h51q8 -80 89 -80t89 80h51v0z" />
    <glyph glyph-name="afii10193" unicode="&#x45f;" 
d="M305 0v-150h-51v150h-157v482h51v-439h263v439h51v-482h-157z" />
    <glyph glyph-name="afii10146" unicode="&#x462;" horiz-adv-x="642" 
d="M599 205q0 -47 -15.5 -84.5t-43.5 -64.5t-67.5 -41.5t-88.5 -14.5h-263v559h-81v42h81v111h54v-111h178v-42h-178v-149h209q49 0 88.5 -14.5t67.5 -41.5t43.5 -65t15.5 -84zM545 205q0 75 -43.5 116t-123.5 41h-203v-314h203q80 0 123.5 41t43.5 116z" />
    <glyph glyph-name="afii10194" unicode="&#x463;" horiz-adv-x="498" 
d="M458 142q0 -65 -40.5 -103.5t-108.5 -38.5h-212v390h-65v36h65v56h51v-56h136v-36h-136v-106h161q68 0 108.5 -38.5t40.5 -103.5zM407 142q0 48 -27 73.5t-79 25.5h-153v-198h153q52 0 79 25.5t27 73.5z" />
    <glyph glyph-name="afii10147" unicode="&#x472;" horiz-adv-x="652" 
d="M570 356q0 -65 -2 -109.5t-9 -77.5t-21 -57.5t-39 -49.5q-32 -32 -75.5 -50t-97.5 -18t-97.5 18t-75.5 50q-25 25 -39 49.5t-21 57.5t-9 77.5t-2 109.5t2 109.5t9 77.5t21 57.5t39 49.5q32 32 75.5 50t97.5 18t97.5 -18t75.5 -50q25 -25 39 -49.5t21 -57.5t9 -77.5
t2 -109.5zM136 335q0 -50 1.5 -87t7.5 -64.5t17 -48t29 -38.5q55 -55 135 -55t135 55q18 18 28.5 38.5t16.5 48t8 64.5t2 87h-380zM516 383q0 49 -2 84.5t-8 62.5t-16.5 47t-28.5 38q-55 55 -135 55t-135 -55q-18 -18 -29 -38t-16.5 -47t-7.5 -62.5t-2 -84.5h380z" />
    <glyph glyph-name="afii10195" unicode="&#x473;" horiz-adv-x="526" 
d="M457 241q0 -52 -11 -104t-49 -90q-53 -53 -134 -53t-134 53q-38 38 -49 90t-11 104t11 104t49 90q53 53 134 53t134 -53q38 -38 49 -90t11 -104zM363 80q28 28 35 68.5t8 81.5h-286q0 -20 1.5 -41t6 -40.5t13 -37t22.5 -31.5q41 -41 100 -41t100 41zM163 402
q-25 -25 -33 -60t-10 -71h285q-1 36 -9 71t-33 60q-41 41 -100 41t-100 -41z" />
    <glyph glyph-name="afii10148" unicode="&#x474;" horiz-adv-x="534" 
d="M583 664q-40 0 -63.5 -19.5t-37.5 -60.5l-192 -584h-46l-234 712h57l200 -617l165 509q16 48 49.5 78t84.5 30h54v-48h-37z" />
    <glyph glyph-name="afii10196" unicode="&#x475;" horiz-adv-x="430" 
d="M459 439q-18 0 -31 -3t-22 -10.5t-16 -20.5t-14 -32l-136 -373h-50l-176 482h56l145 -422l115 335q13 37 33 56q34 31 91 31h24v-43h-19z" />
    <glyph glyph-name="afii10050" unicode="&#x490;" horiz-adv-x="564" 
d="M172 664v-664h-54v712h368v170h54v-218h-368z" />
    <glyph glyph-name="afii10098" unicode="&#x491;" horiz-adv-x="411" 
d="M152 439v-439h-51v482h249v160h51v-203h-249z" />
    <glyph glyph-name="uni0492" unicode="&#x492;" horiz-adv-x="558" 
d="M166 664v-284h178v-42h-178v-338h-54v338h-81v42h81v332h422v-48h-368z" />
    <glyph glyph-name="uni0493" unicode="&#x493;" horiz-adv-x="397" 
d="M138 439v-157h136v-36h-136v-246h-51v246h-65v36h65v200h300v-43h-249z" />
    <glyph glyph-name="uni0496" unicode="&#x496;" horiz-adv-x="886" 
d="M832 -180v180h-22l-339 371l316 341h72l-323 -340l305 -324h45v-228h-54zM350 372l-323 340h72l316 -341l-339 -371h-76zM416 0v712h54v-712h-54z" />
    <glyph glyph-name="uni0497" unicode="&#x497;" horiz-adv-x="699" 
d="M639 -150v150h-19l-244 249l225 233h66l-225 -229l204 -208h44v-195h-51zM323 249l-244 -249h-70l248 253l-225 229h66zM324 0v482h51v-482h-51z" />
    <glyph glyph-name="uni049A" unicode="&#x49a;" horiz-adv-x="600" 
d="M546 -180v180h-22l-354 371l331 341h72l-338 -340l318 -324h47v-228h-54zM115 712h54v-712h-54v712z" />
    <glyph glyph-name="uni049B" unicode="&#x49b;" horiz-adv-x="485" 
d="M425 -150v150h-19l-252 249l233 233h66l-233 -229l210 -208h46v-195h-51zM153 0h-51v482h51v-482z" />
    <glyph glyph-name="uni049C" unicode="&#x49c;" horiz-adv-x="642" 
d="M211 345h-42v-345h-54v712h54v-319h42v161h53v-161h27l252 319h72l-278 -340l305 -372h-76l-272 345h-30v-161h-53v161z" />
    <glyph glyph-name="uni049D" unicode="&#x49d;" horiz-adv-x="530" 
d="M193 228h-40v-228h-51v482h51v-211h40v134h50v-134h25l164 211h66l-183 -229l206 -253h-70l-184 228h-24v-134h-50v134z" />
    <glyph glyph-name="uni04A2" unicode="&#x4a2;" horiz-adv-x="699" 
d="M562 -180v180h-27v335h-371v-335h-54v712h54v-329h371v329h54v-664h27v-228h-54z" />
    <glyph glyph-name="uni04A3" unicode="&#x4a3;" 
d="M436 -150v150h-25v227h-263v-227h-51v482h51v-210h263v210h51v-437h25v-195h-51z" />
    <glyph glyph-name="uni04AE" unicode="&#x4ae;" horiz-adv-x="494" 
d="M274 295v-295h-54v295l-210 417h58l181 -360l177 360h58z" />
    <glyph glyph-name="uni04AF" unicode="&#x4af;" horiz-adv-x="430" 
d="M241 0v-230h-51v230l-176 482h56l145 -422l145 422h56z" />
    <glyph glyph-name="uni04B0" unicode="&#x4b0;" horiz-adv-x="494" 
d="M274 295h129v-42h-129v-253h-54v253h-129v42h129l-210 417h58l181 -360l177 360h58z" />
    <glyph glyph-name="uni04B1" unicode="&#x4b1;" horiz-adv-x="430" 
d="M241 0h95v-36h-95v-194h-51v194h-95v36h95l-176 482h56l145 -422l145 422h56z" />
    <glyph glyph-name="uni04B2" unicode="&#x4b2;" horiz-adv-x="532" 
d="M460 -180v180h-9l-186 317l-186 -317h-61l218 365l-204 347h63l170 -299l171 299h62l-204 -347l191 -317h29v-228h-54z" />
    <glyph glyph-name="uni04B3" unicode="&#x4b3;" horiz-adv-x="460" 
d="M369 -150v150h-11l-127 203l-129 -203h-62l163 246l-156 236h62l122 -194l120 194h62l-156 -236l133 -201h30v-195h-51z" />
    <glyph glyph-name="uni04B6" unicode="&#x4b6;" horiz-adv-x="644" 
d="M507 -180v180h-27v300q-18 -4 -44 -9t-55.5 -9.5t-58 -8t-50.5 -3.5q-37 0 -71.5 8.5t-61.5 29t-43 55t-16 86.5v263h54v-256q0 -44 13 -71t34 -42t47 -20t53 -5q20 0 46.5 3t54 7.5t53.5 9t45 8.5v366h54v-664h27v-228h-54z" />
    <glyph glyph-name="uni04B7" unicode="&#x4b7;" horiz-adv-x="530" 
d="M407 -150v150h-25v195q-14 -3 -33 -6.5t-40 -7t-43.5 -5.5t-43.5 -2q-66 0 -104.5 32.5t-38.5 107.5v168h51v-163q0 -55 27.5 -76t73.5 -21q43 0 82.5 6t68.5 12v242h51v-437h25v-195h-51z" />
    <glyph glyph-name="uni04B8" unicode="&#x4b8;" horiz-adv-x="644" 
d="M281 270h-9q-37 0 -71.5 8.5t-61.5 29t-43 55t-16 86.5v263h54v-256q0 -44 13 -71t34 -42t47 -20t53 -5v162h53v-159q38 5 78 12.5t68 12.5v366h54v-712h-54v300q-25 -5 -65.5 -13t-80.5 -13v-167h-53v163z" />
    <glyph glyph-name="uni04B9" unicode="&#x4b9;" horiz-adv-x="530" 
d="M231 174h-9q-66 0 -104.5 32.5t-38.5 107.5v168h51v-163q0 -55 27.5 -76t73.5 -21v132h50v-130q29 2 55 6.5t46 9.5v242h51v-482h-51v195q-19 -5 -45.5 -9.5t-55.5 -7.5v-136h-50v132z" />
    <glyph glyph-name="uni04BA" unicode="&#x4ba;" horiz-adv-x="644" 
d="M510 0v256q0 44 -13 71t-34 42t-47 20t-53 5q-20 0 -46.5 -3t-54 -7.5t-53.5 -9t-45 -8.5v-366h-54v712h54v-300q18 4 44 9t55.5 9.5t58 8t50.5 3.5q37 0 71.5 -8.5t61.5 -29t43 -55t16 -86.5v-263h-54z" />
    <glyph glyph-name="uni04BB" unicode="&#x4bb;" horiz-adv-x="530" 
d="M400 0v163q0 55 -27.5 76t-73.5 21q-43 0 -82.5 -6t-68.5 -12v-242h-51v482h51v-195q14 3 33 6.5t40 7t43.5 5.5t43.5 2q66 0 104.5 -32.5t38.5 -107.5v-168h-51z" />
    <glyph glyph-name="uni04C0" unicode="&#x4c0;" horiz-adv-x="274" 
d="M110 0v712h54v-712h-54z" />
    <glyph glyph-name="uni04CF" unicode="&#x4cf;" horiz-adv-x="241" 
d="M95 0v712h51v-712h-51z" />
    <glyph glyph-name="uni04D8" unicode="&#x4d8;" horiz-adv-x="651" 
d="M569 356q0 -65 -2 -109.5t-9 -77.5t-21 -57.5t-39 -49.5q-32 -32 -75.5 -50t-97.5 -18t-103 22t-84 60q-32 35 -45 75t-13 97v116h435q0 54 -1.5 93t-7 68t-16.5 50t-30 40q-55 55 -135 55q-72 0 -122.5 -42.5t-66.5 -117.5h-54q8 47 29.5 85.5t53.5 65.5t72.5 42
t87.5 15q54 0 97.5 -18t75.5 -50q25 -25 39 -49.5t21 -57.5t9 -77.5t2 -109.5zM134 316v-64q0 -46 10 -79t33 -62q28 -34 67 -51.5t81 -17.5q80 0 135 55q17 17 27.5 36.5t16.5 45t8.5 59t2.5 78.5h-381z" />
    <glyph glyph-name="afii10846" unicode="&#x4d9;" horiz-adv-x="523" 
d="M403 252q0 93 -39.5 141.5t-117.5 48.5q-43 0 -72.5 -13.5t-60.5 -44.5l-38 30q18 18 36.5 32t39 23.5t44.5 14t54 4.5q100 0 152.5 -63t52.5 -184q0 -118 -51 -182.5t-142 -64.5t-142 61.5t-51 173.5v23h335zM119 211q1 -17 2 -29.5t2.5 -22.5t4.5 -19t8 -20
q16 -38 49.5 -59.5t75.5 -21.5t75 21.5t50 59.5q5 11 8 20t4.5 19t2.5 22.5t2 29.5h-284z" />
    <glyph glyph-name="uni04E2" unicode="&#x4e2;" horiz-adv-x="720" 
d="M556 0v624l-392 -624h-54v712h54v-622l392 622h54v-712h-54zM212 800v46h296v-46h-296z" />
    <glyph glyph-name="uni04E3" unicode="&#x4e3;" horiz-adv-x="573" 
d="M425 0v408l-277 -408h-51v482h51v-408l277 408h51v-482h-51zM138 610v46h296v-46h-296z" />
    <glyph glyph-name="uni04E8" unicode="&#x4e8;" horiz-adv-x="652" 
d="M570 356q0 -65 -2 -109.5t-9 -77.5t-21 -57.5t-39 -49.5q-32 -32 -75.5 -50t-97.5 -18t-97.5 18t-75.5 50q-25 25 -39 49.5t-21 57.5t-9 77.5t-2 109.5t2 109.5t9 77.5t21 57.5t39 49.5q32 32 75.5 50t97.5 18t97.5 -18t75.5 -50q25 -25 39 -49.5t21 -57.5t9 -77.5
t2 -109.5zM136 335q0 -50 1.5 -87t7.5 -64.5t17 -48t29 -38.5q55 -55 135 -55t135 55q18 18 28.5 38.5t16.5 48t8 64.5t2 87h-380zM516 383q0 49 -2 84.5t-8 62.5t-16.5 47t-28.5 38q-55 55 -135 55t-135 -55q-18 -18 -29 -38t-16.5 -47t-7.5 -62.5t-2 -84.5h380z" />
    <glyph glyph-name="uni04E9" unicode="&#x4e9;" horiz-adv-x="526" 
d="M457 241q0 -52 -11 -104t-49 -90q-53 -53 -134 -53t-134 53q-38 38 -49 90t-11 104t11 104t49 90q53 53 134 53t134 -53q38 -38 49 -90t11 -104zM363 80q28 28 35 68.5t8 81.5h-286q0 -20 1.5 -41t6 -40.5t13 -37t22.5 -31.5q41 -41 100 -41t100 41zM163 402
q-25 -25 -33 -60t-10 -71h285q-1 36 -9 71t-33 60q-41 41 -100 41t-100 -41z" />
    <glyph glyph-name="uni04EE" unicode="&#x4ee;" horiz-adv-x="534" 
d="M263 108q-21 -50 -52 -79t-82 -29h-54v48h42q40 0 61.5 19t39.5 61l31 74l-237 510h58l207 -449l187 449h58zM129 800v46h296v-46h-296z" />
    <glyph glyph-name="uni04EF" unicode="&#x4ef;" horiz-adv-x="430" 
d="M68 610v46h296v-46h-296zM192 -131q-14 -40 -33 -56q-18 -17 -42.5 -24t-48.5 -7h-24v45h19q21 0 34.5 3.5t23.5 11.5t17 20.5t13 30.5l39 107l-176 482h56l145 -422l145 422h56z" />
    <glyph glyph-name="Wgrave" unicode="&#x1e80;" horiz-adv-x="842" 
d="M644 0h-55l-168 620l-168 -620h-55l-178 712h57l150 -619l166 619h56l166 -619l150 619h57zM389 780l-106 147h67l97 -147h-58z" />
    <glyph glyph-name="wgrave" unicode="&#x1e81;" horiz-adv-x="712" 
d="M544 0h-52l-136 402l-136 -402h-52l-154 482h56l123 -422l138 422h50l138 -422l123 422h56zM329 590l-106 147h67l97 -147h-58z" />
    <glyph glyph-name="Wacute" unicode="&#x1e82;" horiz-adv-x="842" 
d="M644 0h-55l-168 620l-168 -620h-55l-178 712h57l150 -619l166 619h56l166 -619l150 619h57zM452 780h-58l97 147h67z" />
    <glyph glyph-name="wacute" unicode="&#x1e83;" horiz-adv-x="712" 
d="M544 0h-52l-136 402l-136 -402h-52l-154 482h56l123 -422l138 422h50l138 -422l123 422h56zM384 590h-58l97 147h67z" />
    <glyph glyph-name="Wdieresis" unicode="&#x1e84;" horiz-adv-x="842" 
d="M644 0h-55l-168 620l-168 -620h-55l-178 712h57l150 -619l166 619h56l166 -619l150 619h57zM287 790v77h58v-77h-58zM495 790v77h58v-77h-58z" />
    <glyph glyph-name="wdieresis" unicode="&#x1e85;" horiz-adv-x="712" 
d="M544 0h-52l-136 402l-136 -402h-52l-154 482h56l123 -422l138 422h50l138 -422l123 422h56zM223 600v77h58v-77h-58zM431 600v77h58v-77h-58z" />
    <glyph glyph-name="uni1E8A" unicode="&#x1e8a;" horiz-adv-x="532" 
d="M451 0l-186 317l-186 -317h-61l218 365l-204 347h63l170 -299l171 299h62l-204 -347l220 -365h-63zM234 800v63h62v-63h-62z" />
    <glyph glyph-name="uni1E8B" unicode="&#x1e8b;" horiz-adv-x="460" 
d="M358 0l-127 203l-129 -203h-62l163 246l-156 236h62l122 -194l120 194h62l-156 -236l163 -246h-62zM201 610v63h62v-63h-62z" />
    <glyph glyph-name="Ygrave" unicode="&#x1ef2;" horiz-adv-x="494" 
d="M274 295v-295h-54v295l-210 417h58l181 -360l177 360h58zM226 780l-106 147h67l97 -147h-58z" />
    <glyph glyph-name="ygrave" unicode="&#x1ef3;" horiz-adv-x="430" 
d="M192 -131q-14 -40 -33 -56q-18 -17 -42.5 -24t-48.5 -7h-24v45h19q21 0 34.5 3.5t23.5 11.5t17 20.5t13 30.5l39 107l-176 482h56l145 -422l145 422h56zM180 590l-106 147h67l97 -147h-58z" />
    <glyph glyph-name="uni2007" unicode="&#x2007;" horiz-adv-x="514" 
 />
    <glyph glyph-name="uni2008" unicode="&#x2008;" horiz-adv-x="264" 
 />
    <glyph glyph-name="uni200B" unicode="&#x200b;" horiz-adv-x="0" 
 />
    <glyph glyph-name="endash" unicode="&#x2013;" horiz-adv-x="514" 
d="M53 240v47h408v-47h-408z" />
    <glyph glyph-name="emdash" unicode="&#x2014;" horiz-adv-x="873" 
d="M82 240v47h709v-47h-709z" />
    <glyph glyph-name="afii00208" unicode="&#x2015;" horiz-adv-x="873" 
d="M82 240v47h709v-47h-709z" />
    <glyph glyph-name="quoteleft" unicode="&#x2018;" horiz-adv-x="260" 
d="M95 642v70l70 70v-140h-70z" />
    <glyph glyph-name="quoteright" unicode="&#x2019;" horiz-adv-x="260" 
d="M95 572v140h70v-70z" />
    <glyph glyph-name="quotesinglbase" unicode="&#x201a;" horiz-adv-x="260" 
d="M95 -70v140h70v-70z" />
    <glyph glyph-name="quotedblleft" unicode="&#x201c;" horiz-adv-x="416" 
d="M95 642v70l70 70v-140h-70zM251 642v70l70 70v-140h-70z" />
    <glyph glyph-name="quotedblright" unicode="&#x201d;" horiz-adv-x="416" 
d="M95 572v140h70v-70zM251 572v140h70v-70z" />
    <glyph glyph-name="quotedblbase" unicode="&#x201e;" horiz-adv-x="416" 
d="M95 -70v140h70v-70zM251 -70v140h70v-70z" />
    <glyph glyph-name="dagger" unicode="&#x2020;" horiz-adv-x="614" 
d="M331 457v-457h-51v457h-200v45h200v210h51v-210h203v-45h-203z" />
    <glyph glyph-name="daggerdbl" unicode="&#x2021;" horiz-adv-x="614" 
d="M331 -20v-210h-51v210h-200v45h200v432h-200v45h200v210h51v-210h203v-45h-203v-432h203v-45h-203z" />
    <glyph glyph-name="bullet" unicode="&#x2022;" horiz-adv-x="546" 
d="M436 334q0 -34 -13 -63.5t-35 -51.5t-51.5 -35t-63.5 -13t-63.5 13t-51.5 35t-35 51.5t-13 63.5t13 63.5t35 51.5t51.5 35t63.5 13t63.5 -13t51.5 -35t35 -51.5t13 -63.5z" />
    <glyph glyph-name="ellipsis" unicode="&#x2026;" horiz-adv-x="724" 
d="M95 0v74h74v-74h-74zM325 0v74h74v-74h-74zM555 0v74h74v-74h-74z" />
    <glyph glyph-name="perthousand" unicode="&#x2030;" horiz-adv-x="1168" 
d="M288 583q0 45 -19.5 71.5t-67.5 26.5t-68 -26.5t-20 -71.5v-103q0 -45 20 -71t68 -26t67.5 26t19.5 71v103zM332 478q0 -60 -36 -96.5t-95 -36.5t-95.5 36.5t-36.5 96.5v107q0 60 36.5 97t95.5 37t95 -37t36 -97v-107zM226 0l332 712h45l-332 -712h-45zM715 231
q0 45 -19.5 71.5t-67.5 26.5t-68 -26.5t-20 -71.5v-103q0 -45 20 -71t68 -26t67.5 26t19.5 71v103zM759 126q0 -60 -36 -96.5t-95 -36.5t-95.5 36.5t-36.5 96.5v107q0 60 36.5 97t95.5 37t95 -37t36 -97v-107zM1055 231q0 45 -19.5 71.5t-67.5 26.5t-68 -26.5t-20 -71.5
v-103q0 -45 20 -71t68 -26t67.5 26t19.5 71v103zM1099 126q0 -60 -36 -96.5t-95 -36.5t-95.5 36.5t-36.5 96.5v107q0 60 36.5 97t95.5 37t95 -37t36 -97v-107z" />
    <glyph glyph-name="guilsinglleft" unicode="&#x2039;" horiz-adv-x="320" 
d="M42 265l196 196v-66l-130 -130l130 -130v-66z" />
    <glyph glyph-name="guilsinglright" unicode="&#x203a;" horiz-adv-x="320" 
d="M82 69v66l130 130l-130 130v66l196 -196z" />
    <glyph glyph-name="fraction" unicode="&#x2044;" horiz-adv-x="177" 
d="M-55 0h-45l332 712h45z" />
    <glyph glyph-name="uni2070" unicode="&#x2070;" horiz-adv-x="313" 
d="M274 399q0 -54 -33 -86t-84 -32t-84 32t-33 86v199q0 54 33 86t84 32t84 -32t33 -86v-199zM230 596q0 35 -19 58t-54 23t-54 -23t-19 -58v-195q0 -35 19 -57.5t54 -22.5t54 22.5t19 57.5v195z" />
    <glyph glyph-name="uni2074" unicode="&#x2074;" horiz-adv-x="313" 
d="M238 352v-67h-44v67h-170v40l154 320h47l-153 -320h122v120h44v-120h52v-40h-52z" />
    <glyph glyph-name="uni2075" unicode="&#x2075;" horiz-adv-x="313" 
d="M278 426q0 -32 -5.5 -61t-28.5 -52q-15 -15 -36.5 -23.5t-49.5 -8.5q-56 0 -86 30q-15 15 -21.5 34t-8.5 41h44q4 -32 21 -48.5t51 -16.5t53 19q17 17 20 40t3 46q0 19 -3 38t-10.5 33t-22 23t-36.5 9q-28 0 -46 -11t-24 -31h-40v225h216v-40h-176v-133q25 28 76 28
q48 0 74 -26q23 -24 29.5 -54.5t6.5 -60.5z" />
    <glyph glyph-name="uni2076" unicode="&#x2076;" horiz-adv-x="313" 
d="M276 408q0 -55 -31.5 -91t-86.5 -36t-87 34t-32 90q0 22 6 43.5t20 51.5l105 212h46l-95 -191q10 5 21 6.5t23 1.5q50 0 80.5 -34t30.5 -87zM232 406q0 35 -19 60.5t-56 25.5q-34 0 -54 -23t-20 -63q0 -39 20 -62t54 -23t54.5 23t20.5 62z" />
    <glyph glyph-name="uni2077" unicode="&#x2077;" horiz-adv-x="313" 
d="M135 285h-44l148 387h-151v-71h-43v111h238v-39z" />
    <glyph glyph-name="uni2078" unicode="&#x2078;" horiz-adv-x="313" 
d="M283 403q0 -27 -9.5 -49.5t-26.5 -38.5t-40 -25t-50 -9t-50 9t-40 25t-26.5 38.5t-9.5 49.5q0 38 18.5 63.5t45.5 40.5q-26 14 -41 37.5t-15 56.5q0 25 9 46t24.5 36.5t37 24t47.5 8.5q25 0 47 -8.5t37.5 -24t24.5 -36.5t9 -46q0 -33 -15 -56.5t-41 -37.5
q27 -15 45.5 -40.5t18.5 -63.5zM239 403q0 35 -23.5 59t-58.5 24t-58.5 -24t-23.5 -59t23.5 -58.5t58.5 -23.5t58.5 23.5t23.5 58.5zM231 601q0 33 -20 54t-54 21t-54 -21t-20 -54t20.5 -54.5t53.5 -21.5t53.5 21.5t20.5 54.5z" />
    <glyph glyph-name="uni2079" unicode="&#x2079;" horiz-adv-x="313" 
d="M275 592q0 -23 -6.5 -44t-20.5 -50l-105 -213h-46l96 191q-21 -8 -45 -8q-51 0 -81 34t-30 87q0 55 32 91t87 36t87 -34t32 -90zM231 591q0 39 -20 62t-55 23t-55 -23t-20 -62q0 -35 19 -60.5t56 -25.5q34 0 54.5 23t20.5 63z" />
    <glyph glyph-name="uni2080" unicode="&#x2080;" horiz-adv-x="313" 
d="M274 -36q0 -54 -33 -86t-84 -32t-84 32t-33 86v199q0 54 33 86t84 32t84 -32t33 -86v-199zM230 161q0 35 -19 58t-54 23t-54 -23t-19 -58v-195q0 -35 19 -57.5t54 -22.5t54 22.5t19 57.5v195z" />
    <glyph glyph-name="uni2081" unicode="&#x2081;" horiz-adv-x="313" 
d="M152 -150v378l-80 -71v51l80 69h44v-427h-44z" />
    <glyph glyph-name="uni2082" unicode="&#x2082;" horiz-adv-x="313" 
d="M44 -150v40l168 213q23 31 23 62q0 35 -19 55.5t-54 20.5q-29 0 -51.5 -17t-22.5 -59h-44q0 51 32 83.5t86 32.5t86 -31t32 -85q0 -26 -8 -45t-26 -42l-149 -188h183v-40h-236z" />
    <glyph glyph-name="uni2083" unicode="&#x2083;" horiz-adv-x="313" 
d="M287 -32q0 -30 -9.5 -52.5t-26.5 -38t-40 -23.5t-49 -8t-48.5 7t-39.5 21t-27.5 35.5t-11.5 50.5h45q2 -40 26.5 -57t55.5 -17q34 0 57.5 22t23.5 60t-20.5 59.5t-63.5 21.5h-8v39h8q38 0 57 20.5t19 55.5q0 38 -22.5 57.5t-51.5 19.5q-34 0 -53.5 -19t-22.5 -51h-44
q4 52 37.5 81t82.5 29q54 0 86 -31t32 -85q0 -69 -57 -94q65 -24 65 -103z" />
    <glyph glyph-name="uni2084" unicode="&#x2084;" horiz-adv-x="313" 
d="M238 -83v-67h-44v67h-170v40l154 320h47l-153 -320h122v120h44v-120h52v-40h-52z" />
    <glyph glyph-name="uni2085" unicode="&#x2085;" horiz-adv-x="313" 
d="M278 -9q0 -32 -5.5 -61t-28.5 -52q-15 -15 -36.5 -23.5t-49.5 -8.5q-56 0 -86 30q-15 15 -21.5 34t-8.5 41h44q4 -32 21 -48.5t51 -16.5t53 19q17 17 20 40t3 46q0 19 -3 38t-10.5 33t-22 23t-36.5 9q-28 0 -46 -11t-24 -31h-40v225h216v-40h-176v-133q25 28 76 28
q48 0 74 -26q23 -24 29.5 -54.5t6.5 -60.5z" />
    <glyph glyph-name="uni2086" unicode="&#x2086;" horiz-adv-x="313" 
d="M276 -27q0 -55 -31.5 -91t-86.5 -36t-87 34t-32 90q0 22 6 43.5t20 51.5l105 212h46l-95 -191q10 5 21 6.5t23 1.5q50 0 80.5 -34t30.5 -87zM232 -29q0 35 -19 60.5t-56 25.5q-34 0 -54 -23t-20 -63q0 -39 20 -62t54 -23t54.5 23t20.5 62z" />
    <glyph glyph-name="uni2087" unicode="&#x2087;" horiz-adv-x="313" 
d="M135 -150h-44l148 387h-151v-71h-43v111h238v-39z" />
    <glyph glyph-name="uni2088" unicode="&#x2088;" horiz-adv-x="313" 
d="M283 -32q0 -27 -9.5 -49.5t-26.5 -38.5t-40 -25t-50 -9t-50 9t-40 25t-26.5 38.5t-9.5 49.5q0 38 18.5 63.5t45.5 40.5q-26 14 -41 37.5t-15 56.5q0 25 9 46t24.5 36.5t37 24t47.5 8.5q25 0 47 -8.5t37.5 -24t24.5 -36.5t9 -46q0 -33 -15 -56.5t-41 -37.5
q27 -15 45.5 -40.5t18.5 -63.5zM239 -32q0 35 -23.5 59t-58.5 24t-58.5 -24t-23.5 -59t23.5 -58.5t58.5 -23.5t58.5 23.5t23.5 58.5zM231 166q0 33 -20 54t-54 21t-54 -21t-20 -54t20.5 -54.5t53.5 -21.5t53.5 21.5t20.5 54.5z" />
    <glyph glyph-name="uni2089" unicode="&#x2089;" horiz-adv-x="313" 
d="M275 157q0 -23 -6.5 -44t-20.5 -50l-105 -213h-46l96 191q-21 -8 -45 -8q-51 0 -81 34t-30 87q0 55 32 91t87 36t87 -34t32 -90zM231 156q0 39 -20 62t-55 23t-55 -23t-20 -62q0 -35 19 -60.5t56 -25.5q34 0 54.5 23t20.5 63z" />
    <glyph glyph-name="Euro" unicode="&#x20ac;" horiz-adv-x="676" 
d="M600 202q-9 -48 -30 -86.5t-52.5 -65.5t-72 -41.5t-87.5 -14.5q-54 0 -97.5 18t-75.5 50q-20 20 -33 39.5t-21 43t-11.5 53.5t-4.5 70h-65v38h64v106h-64v38h65q1 38 5 67t12 52t20.5 42t32.5 39q32 32 75.5 50t97.5 18q97 0 160.5 -55.5t81.5 -152.5h-55
q-16 75 -65.5 117.5t-121.5 42.5q-80 0 -135 -55q-29 -29 -40 -66t-14 -99h244v-38h-245v-106h245v-38h-244q2 -66 13 -104t41 -67q55 -55 135 -55q72 0 122.5 42.5t66.5 117.5h53z" />
    <glyph glyph-name="uni20B4" unicode="&#x20b4;" horiz-adv-x="651" 
d="M524 412q-9 -12 -21 -21q-45 -39 -127 -51l-83 -13q-29 -5 -47.5 -9t-32.5 -12h388v-38h-430q-20 -30 -20 -79q0 -70 49 -108.5t134 -38.5q32 0 58.5 4t50.5 14t46.5 26t46.5 40l38 -38q-49 -49 -103.5 -71.5t-133.5 -22.5q-56 0 -100.5 14t-75.5 39.5t-47.5 62
t-16.5 81.5q0 42 15 77h-62v38h86q10 12 22 22t24.5 18t27 13.5t32.5 9.5t43 8l83 13q20 3 38 8.5t34 13.5h-390v38h437q19 28 19 75q0 69 -43.5 108t-121.5 39q-63 0 -102.5 -18t-70.5 -48l-35 35q46 40 92.5 58.5t112.5 18.5q51 0 92 -13.5t69.5 -39t44 -61.5t15.5 -81
q0 -21 -3.5 -39t-9.5 -34h55v-38h-77z" />
    <glyph glyph-name="afii61352" unicode="&#x2116;" horiz-adv-x="940" 
d="M497 0l-361 616v-616h-51v712h51l361 -614v614h51v-712h-51zM834 542q0 29 -4 59.5t-21 47.5q-24 24 -60 24t-60 -24q-17 -17 -21 -47.5t-4 -59.5t4 -59.5t21 -47.5q24 -24 60 -24t60 24q17 17 21 47.5t4 59.5zM881 542q0 -38 -7.5 -75.5t-33.5 -63.5q-35 -35 -91 -35
t-91 35q-26 26 -33.5 63.5t-7.5 75.5t7.5 75.5t33.5 63.5q35 35 91 35t91 -35q26 -26 33.5 -63.5t7.5 -75.5zM617 285v44h262v-44h-262z" />
    <glyph glyph-name="trademark" unicode="&#x2122;" horiz-adv-x="809" 
d="M709 285v328l-110 -218h-46l-110 218v-328h-44v427h44l133 -270l133 270h44v-427h-44zM198 671v-386h-44v386h-122v41h288v-41h-122z" />
    <glyph glyph-name="Omega" unicode="&#x2126;" horiz-adv-x="652" 
d="M570 356q0 -86 -4 -143t-25 -95q-11 -20 -25 -36.5t-37 -34.5h91v-47h-186v47q35 17 60 36.5t45 51.5q19 31 23 85.5t4 135.5q0 56 -1.5 96.5t-7 70t-16.5 51.5t-30 41q-55 55 -135 55t-135 -55q-19 -19 -30 -41t-16.5 -51.5t-7 -70t-1.5 -96.5q0 -81 4 -135.5t23 -85.5
q20 -32 45 -51.5t60 -36.5v-47h-186v47h91q-23 18 -37 34.5t-25 36.5q-21 38 -25 95t-4 143q0 65 2 109.5t9 77.5t21 57.5t39 49.5q32 32 75.5 50t97.5 18t97.5 -18t75.5 -50q25 -25 39 -49.5t21 -57.5t9 -77.5t2 -109.5z" />
    <glyph glyph-name="uni2150" unicode="&#x2150;" horiz-adv-x="803" 
d="M152 285v378l-80 -71v51l80 69h44v-427h-44zM258 0h-45l332 712h45zM625 0h-44l148 387h-151v-71h-43v111h238v-39z" />
    <glyph glyph-name="uni2151" unicode="&#x2151;" horiz-adv-x="803" 
d="M152 285v378l-80 -71v51l80 69h44v-427h-44zM258 0h-45l332 712h45zM765 307q0 -23 -6.5 -44t-20.5 -50l-105 -213h-46l96 191q-21 -8 -45 -8q-51 0 -81 34t-30 87q0 55 32 91t87 36t87 -34t32 -90zM721 306q0 39 -20 62t-55 23t-55 -23t-20 -62q0 -35 19 -60.5t56 -25.5
q34 0 54.5 23t20.5 63z" />
    <glyph glyph-name="uni2152" unicode="&#x2152;" horiz-adv-x="1116" 
d="M152 285v378l-80 -71v51l80 69h44v-427h-44zM258 0h-45l332 712h45zM642 0v378l-80 -71v51l80 69h44v-427h-44zM1077 114q0 -54 -33 -86t-84 -32t-84 32t-33 86v199q0 54 33 86t84 32t84 -32t33 -86v-199zM1033 311q0 35 -19 58t-54 23t-54 -23t-19 -58v-195
q0 -35 19 -57.5t54 -22.5t54 22.5t19 57.5v195z" />
    <glyph glyph-name="onethird" unicode="&#x2153;" horiz-adv-x="803" 
d="M152 285v378l-80 -71v51l80 69h44v-427h-44zM258 0h-45l332 712h45zM772 118q0 -30 -9.5 -52.5t-26.5 -38t-40 -23.5t-49 -8t-48.5 7t-39.5 21t-27.5 35.5t-11.5 50.5h45q2 -40 26.5 -57t55.5 -17q34 0 57.5 22t23.5 60t-20.5 59.5t-63.5 21.5h-8v39h8q38 0 57 20.5
t19 55.5q0 38 -22.5 57.5t-51.5 19.5q-34 0 -53.5 -19t-22.5 -51h-44q4 52 37.5 81t82.5 29q54 0 86 -31t32 -85q0 -69 -57 -94q65 -24 65 -103z" />
    <glyph glyph-name="twothirds" unicode="&#x2154;" horiz-adv-x="803" 
d="M44 285v40l168 213q23 31 23 62q0 35 -19 55.5t-54 20.5q-29 0 -51.5 -17t-22.5 -59h-44q0 51 32 83.5t86 32.5t86 -31t32 -85q0 -26 -8 -45t-26 -42l-149 -188h183v-40h-236zM258 0h-45l332 712h45zM772 118q0 -30 -9.5 -52.5t-26.5 -38t-40 -23.5t-49 -8t-48.5 7
t-39.5 21t-27.5 35.5t-11.5 50.5h45q2 -40 26.5 -57t55.5 -17q34 0 57.5 22t23.5 60t-20.5 59.5t-63.5 21.5h-8v39h8q38 0 57 20.5t19 55.5q0 38 -22.5 57.5t-51.5 19.5q-34 0 -53.5 -19t-22.5 -51h-44q4 52 37.5 81t82.5 29q54 0 86 -31t32 -85q0 -69 -57 -94
q65 -24 65 -103z" />
    <glyph glyph-name="uni2155" unicode="&#x2155;" horiz-adv-x="803" 
d="M152 285v378l-80 -71v51l80 69h44v-427h-44zM258 0h-45l332 712h45zM768 141q0 -32 -5.5 -61t-28.5 -52q-15 -15 -36.5 -23.5t-49.5 -8.5q-56 0 -86 30q-15 15 -21.5 34t-8.5 41h44q4 -32 21 -48.5t51 -16.5t53 19q17 17 20 40t3 46q0 19 -3 38t-10.5 33t-22 23t-36.5 9
q-28 0 -46 -11t-24 -31h-40v225h216v-40h-176v-133q25 28 76 28q48 0 74 -26q23 -24 29.5 -54.5t6.5 -60.5z" />
    <glyph glyph-name="uni2156" unicode="&#x2156;" horiz-adv-x="803" 
d="M44 285v40l168 213q23 31 23 62q0 35 -19 55.5t-54 20.5q-29 0 -51.5 -17t-22.5 -59h-44q0 51 32 83.5t86 32.5t86 -31t32 -85q0 -26 -8 -45t-26 -42l-149 -188h183v-40h-236zM258 0h-45l332 712h45zM768 141q0 -32 -5.5 -61t-28.5 -52q-15 -15 -36.5 -23.5t-49.5 -8.5
q-56 0 -86 30q-15 15 -21.5 34t-8.5 41h44q4 -32 21 -48.5t51 -16.5t53 19q17 17 20 40t3 46q0 19 -3 38t-10.5 33t-22 23t-36.5 9q-28 0 -46 -11t-24 -31h-40v225h216v-40h-176v-133q25 28 76 28q48 0 74 -26q23 -24 29.5 -54.5t6.5 -60.5z" />
    <glyph glyph-name="uni2157" unicode="&#x2157;" horiz-adv-x="803" 
d="M282 403q0 -30 -9.5 -52.5t-26.5 -38t-40 -23.5t-49 -8t-48.5 7t-39.5 21t-27.5 35.5t-11.5 50.5h45q2 -40 26.5 -57t55.5 -17q34 0 57.5 22t23.5 60t-20.5 59.5t-63.5 21.5h-8v39h8q38 0 57 20.5t19 55.5q0 38 -22.5 57.5t-51.5 19.5q-34 0 -53.5 -19t-22.5 -51h-44
q4 52 37.5 81t82.5 29q54 0 86 -31t32 -85q0 -69 -57 -94q65 -24 65 -103zM258 0h-45l332 712h45zM768 141q0 -32 -5.5 -61t-28.5 -52q-15 -15 -36.5 -23.5t-49.5 -8.5q-56 0 -86 30q-15 15 -21.5 34t-8.5 41h44q4 -32 21 -48.5t51 -16.5t53 19q17 17 20 40t3 46q0 19 -3 38
t-10.5 33t-22 23t-36.5 9q-28 0 -46 -11t-24 -31h-40v225h216v-40h-176v-133q25 28 76 28q48 0 74 -26q23 -24 29.5 -54.5t6.5 -60.5z" />
    <glyph glyph-name="uni2158" unicode="&#x2158;" horiz-adv-x="803" 
d="M238 352v-67h-44v67h-170v40l154 320h47l-153 -320h122v120h44v-120h52v-40h-52zM258 0h-45l332 712h45zM768 141q0 -32 -5.5 -61t-28.5 -52q-15 -15 -36.5 -23.5t-49.5 -8.5q-56 0 -86 30q-15 15 -21.5 34t-8.5 41h44q4 -32 21 -48.5t51 -16.5t53 19q17 17 20 40t3 46
q0 19 -3 38t-10.5 33t-22 23t-36.5 9q-28 0 -46 -11t-24 -31h-40v225h216v-40h-176v-133q25 28 76 28q48 0 74 -26q23 -24 29.5 -54.5t6.5 -60.5z" />
    <glyph glyph-name="uni2159" unicode="&#x2159;" horiz-adv-x="803" 
d="M152 285v378l-80 -71v51l80 69h44v-427h-44zM258 0h-45l332 712h45zM766 123q0 -55 -31.5 -91t-86.5 -36t-87 34t-32 90q0 22 6 43.5t20 51.5l105 212h46l-95 -191q10 5 21 6.5t23 1.5q50 0 80.5 -34t30.5 -87zM722 121q0 35 -19 60.5t-56 25.5q-34 0 -54 -23t-20 -63
q0 -39 20 -62t54 -23t54.5 23t20.5 62z" />
    <glyph glyph-name="uni215A" unicode="&#x215a;" horiz-adv-x="803" 
d="M278 426q0 -32 -5.5 -61t-28.5 -52q-15 -15 -36.5 -23.5t-49.5 -8.5q-56 0 -86 30q-15 15 -21.5 34t-8.5 41h44q4 -32 21 -48.5t51 -16.5t53 19q17 17 20 40t3 46q0 19 -3 38t-10.5 33t-22 23t-36.5 9q-28 0 -46 -11t-24 -31h-40v225h216v-40h-176v-133q25 28 76 28
q48 0 74 -26q23 -24 29.5 -54.5t6.5 -60.5zM258 0h-45l332 712h45zM766 123q0 -55 -31.5 -91t-86.5 -36t-87 34t-32 90q0 22 6 43.5t20 51.5l105 212h46l-95 -191q10 5 21 6.5t23 1.5q50 0 80.5 -34t30.5 -87zM722 121q0 35 -19 60.5t-56 25.5q-34 0 -54 -23t-20 -63
q0 -39 20 -62t54 -23t54.5 23t20.5 62z" />
    <glyph glyph-name="oneeighth" unicode="&#x215b;" horiz-adv-x="803" 
d="M152 285v378l-80 -71v51l80 69h44v-427h-44zM258 0h-45l332 712h45zM773 118q0 -27 -9.5 -49.5t-26.5 -38.5t-40 -25t-50 -9t-50 9t-40 25t-26.5 38.5t-9.5 49.5q0 38 18.5 63.5t45.5 40.5q-26 14 -41 37.5t-15 56.5q0 25 9 46t24.5 36.5t37 24t47.5 8.5q25 0 47 -8.5
t37.5 -24t24.5 -36.5t9 -46q0 -33 -15 -56.5t-41 -37.5q27 -15 45.5 -40.5t18.5 -63.5zM729 118q0 35 -23.5 59t-58.5 24t-58.5 -24t-23.5 -59t23.5 -58.5t58.5 -23.5t58.5 23.5t23.5 58.5zM721 316q0 33 -20 54t-54 21t-54 -21t-20 -54t20.5 -54.5t53.5 -21.5t53.5 21.5
t20.5 54.5z" />
    <glyph glyph-name="threeeighths" unicode="&#x215c;" horiz-adv-x="803" 
d="M282 403q0 -30 -9.5 -52.5t-26.5 -38t-40 -23.5t-49 -8t-48.5 7t-39.5 21t-27.5 35.5t-11.5 50.5h45q2 -40 26.5 -57t55.5 -17q34 0 57.5 22t23.5 60t-20.5 59.5t-63.5 21.5h-8v39h8q38 0 57 20.5t19 55.5q0 38 -22.5 57.5t-51.5 19.5q-34 0 -53.5 -19t-22.5 -51h-44
q4 52 37.5 81t82.5 29q54 0 86 -31t32 -85q0 -69 -57 -94q65 -24 65 -103zM258 0h-45l332 712h45zM773 118q0 -27 -9.5 -49.5t-26.5 -38.5t-40 -25t-50 -9t-50 9t-40 25t-26.5 38.5t-9.5 49.5q0 38 18.5 63.5t45.5 40.5q-26 14 -41 37.5t-15 56.5q0 25 9 46t24.5 36.5t37 24
t47.5 8.5q25 0 47 -8.5t37.5 -24t24.5 -36.5t9 -46q0 -33 -15 -56.5t-41 -37.5q27 -15 45.5 -40.5t18.5 -63.5zM729 118q0 35 -23.5 59t-58.5 24t-58.5 -24t-23.5 -59t23.5 -58.5t58.5 -23.5t58.5 23.5t23.5 58.5zM721 316q0 33 -20 54t-54 21t-54 -21t-20 -54t20.5 -54.5
t53.5 -21.5t53.5 21.5t20.5 54.5z" />
    <glyph glyph-name="fiveeighths" unicode="&#x215d;" horiz-adv-x="803" 
d="M278 426q0 -32 -5.5 -61t-28.5 -52q-15 -15 -36.5 -23.5t-49.5 -8.5q-56 0 -86 30q-15 15 -21.5 34t-8.5 41h44q4 -32 21 -48.5t51 -16.5t53 19q17 17 20 40t3 46q0 19 -3 38t-10.5 33t-22 23t-36.5 9q-28 0 -46 -11t-24 -31h-40v225h216v-40h-176v-133q25 28 76 28
q48 0 74 -26q23 -24 29.5 -54.5t6.5 -60.5zM258 0h-45l332 712h45zM773 118q0 -27 -9.5 -49.5t-26.5 -38.5t-40 -25t-50 -9t-50 9t-40 25t-26.5 38.5t-9.5 49.5q0 38 18.5 63.5t45.5 40.5q-26 14 -41 37.5t-15 56.5q0 25 9 46t24.5 36.5t37 24t47.5 8.5q25 0 47 -8.5
t37.5 -24t24.5 -36.5t9 -46q0 -33 -15 -56.5t-41 -37.5q27 -15 45.5 -40.5t18.5 -63.5zM729 118q0 35 -23.5 59t-58.5 24t-58.5 -24t-23.5 -59t23.5 -58.5t58.5 -23.5t58.5 23.5t23.5 58.5zM721 316q0 33 -20 54t-54 21t-54 -21t-20 -54t20.5 -54.5t53.5 -21.5t53.5 21.5
t20.5 54.5z" />
    <glyph glyph-name="seveneighths" unicode="&#x215e;" horiz-adv-x="803" 
d="M135 285h-44l148 387h-151v-71h-43v111h238v-39zM258 0h-45l332 712h45zM773 118q0 -27 -9.5 -49.5t-26.5 -38.5t-40 -25t-50 -9t-50 9t-40 25t-26.5 38.5t-9.5 49.5q0 38 18.5 63.5t45.5 40.5q-26 14 -41 37.5t-15 56.5q0 25 9 46t24.5 36.5t37 24t47.5 8.5
q25 0 47 -8.5t37.5 -24t24.5 -36.5t9 -46q0 -33 -15 -56.5t-41 -37.5q27 -15 45.5 -40.5t18.5 -63.5zM729 118q0 35 -23.5 59t-58.5 24t-58.5 -24t-23.5 -59t23.5 -58.5t58.5 -23.5t58.5 23.5t23.5 58.5zM721 316q0 33 -20 54t-54 21t-54 -21t-20 -54t20.5 -54.5t53.5 -21.5
t53.5 21.5t20.5 54.5z" />
    <glyph glyph-name="uni215F" unicode="&#x215f;" horiz-adv-x="490" 
d="M152 285v378l-80 -71v51l80 69h44v-427h-44zM258 0h-45l332 712h45z" />
    <glyph glyph-name="uni2189" unicode="&#x2189;" horiz-adv-x="803" 
d="M274 399q0 -54 -33 -86t-84 -32t-84 32t-33 86v199q0 54 33 86t84 32t84 -32t33 -86v-199zM230 596q0 35 -19 58t-54 23t-54 -23t-19 -58v-195q0 -35 19 -57.5t54 -22.5t54 22.5t19 57.5v195zM258 0h-45l332 712h45zM772 118q0 -30 -9.5 -52.5t-26.5 -38t-40 -23.5
t-49 -8t-48.5 7t-39.5 21t-27.5 35.5t-11.5 50.5h45q2 -40 26.5 -57t55.5 -17q34 0 57.5 22t23.5 60t-20.5 59.5t-63.5 21.5h-8v39h8q38 0 57 20.5t19 55.5q0 38 -22.5 57.5t-51.5 19.5q-34 0 -53.5 -19t-22.5 -51h-44q4 52 37.5 81t82.5 29q54 0 86 -31t32 -85
q0 -69 -57 -94q65 -24 65 -103z" />
    <glyph glyph-name="arrowleft" unicode="&#x2190;" horiz-adv-x="1027" 
d="M152 238l379 -379h-69l-404 404l404 404h69l-379 -379h819v-50h-819z" />
    <glyph glyph-name="arrowup" unicode="&#x2191;" horiz-adv-x="1027" 
d="M539 626v-819h-50v819l-379 -379v69l404 404l404 -404v-69z" />
    <glyph glyph-name="arrowright" unicode="&#x2192;" horiz-adv-x="1027" 
d="M567 -141h-69l379 379h-819v50h819l-379 379h69l404 -404z" />
    <glyph glyph-name="arrowdown" unicode="&#x2193;" horiz-adv-x="1027" 
d="M514 -193l-404 404v69l379 -379v819h50v-819l379 379v-69z" />
    <glyph glyph-name="uni2196" unicode="&#x2196;" horiz-adv-x="1027" 
d="M819 -77l-580 579v-536l-48 48v572h571l49 -49h-536l579 -579z" />
    <glyph glyph-name="uni2197" unicode="&#x2197;" horiz-adv-x="1027" 
d="M788 -34v536l-580 -579l-35 35l579 579h-536l49 49h571v-572z" />
    <glyph glyph-name="uni2198" unicode="&#x2198;" horiz-adv-x="1027" 
d="M265 -77l-49 48h536l-579 579l35 36l580 -579v536l48 -49v-571h-571z" />
    <glyph glyph-name="uni2199" unicode="&#x2199;" horiz-adv-x="1027" 
d="M275 -29h536l-49 -48h-571v571l48 49v-536l580 579l35 -36z" />
    <glyph glyph-name="partialdiff" unicode="&#x2202;" horiz-adv-x="540" 
d="M443 241q0 -26 -2 -52.5t-8.5 -51.5t-18 -48t-29.5 -42q-51 -53 -129 -53t-129 53q-18 19 -29.5 42t-18 48t-8.5 51.5t-2 52.5q0 57 10.5 108.5t47.5 88.5q20 20 51.5 35t70.5 15q41 0 76 -13t67 -55v86q0 36 -8.5 66.5t-26.5 53t-45.5 35t-65.5 12.5q-23 0 -40 -3.5
t-31 -10.5t-27 -16.5t-27 -22.5l-33 33q19 17 36 29t35 20t39 12t48 4q47 0 84 -15t62 -43t38 -66.5t13 -84.5v-268zM392 241q0 21 -1 43t-5 43.5t-12.5 40.5t-22.5 34q-39 41 -95 41t-95 -41q-14 -15 -22.5 -34t-12.5 -40.5t-5 -43.5t-1 -43t1 -43t5 -43.5t12.5 -40.5
t22.5 -34q39 -41 95 -41t95 41q14 15 22.5 34t12.5 40.5t5 43.5t1 43z" />
    <glyph glyph-name="Delta" unicode="&#x2206;" horiz-adv-x="591" 
d="M10 0l262 712h47l262 -712h-571zM295 640l-215 -592h431z" />
    <glyph glyph-name="product" unicode="&#x220f;" horiz-adv-x="699" 
d="M535 -230v942h-371v-942h-54v990h479v-990h-54z" />
    <glyph glyph-name="summation" unicode="&#x2211;" horiz-adv-x="551" 
d="M63 -230v48l207 461l-207 433v48h432v-48h-371l195 -409v-48l-195 -437h371v-48h-432z" />
    <glyph glyph-name="minus" unicode="&#x2212;" horiz-adv-x="514" 
d="M53 240v47h408v-47h-408z" />
    <glyph glyph-name="uni2219" unicode="&#x2219;" horiz-adv-x="514" 
d="M421 334q0 -34 -13 -63.5t-35 -51.5t-51.5 -35t-63.5 -13t-63.5 13t-51.5 35t-35 51.5t-13 63.5t13 63.5t35 51.5t51.5 35t63.5 13t63.5 -13t51.5 -35t35 -51.5t13 -63.5z" />
    <glyph glyph-name="radical" unicode="&#x221a;" horiz-adv-x="550" 
d="M432 664l-217 -664h-46l-159 482h56l126 -387l199 617h129v-48h-88z" />
    <glyph glyph-name="infinity" unicode="&#x221e;" horiz-adv-x="792" 
d="M720 260q0 -32 -11 -59t-30.5 -47t-46.5 -31t-59 -11q-26 0 -48 6t-43 19t-42 33.5t-44 49.5q-23 -29 -44 -49.5t-42 -34t-43 -19.5t-47 -6q-32 0 -59.5 11.5t-47 31.5t-30.5 47t-11 59t11 59.5t30.5 47.5t47 31.5t59.5 11.5q49 0 89 -26t87 -84q23 29 44 49.5t41.5 34
t43 20t48.5 6.5q32 0 59 -11.5t46.5 -31.5t30.5 -47.5t11 -59.5zM366 260q-39 47 -71 76t-72 29q-46 0 -74.5 -29.5t-28.5 -75.5t28.5 -74t74.5 -28q40 0 72 27.5t71 74.5zM672 260q0 46 -28.5 74.5t-74.5 28.5q-20 0 -37.5 -7t-34.5 -20.5t-34.5 -32.5t-36.5 -43
q19 -24 36.5 -42.5t34.5 -32t34.5 -20.5t37.5 -7q46 0 74.5 28t28.5 74z" />
    <glyph glyph-name="integral" unicode="&#x222b;" horiz-adv-x="329" 
d="M264 667q-38 0 -56 -21t-18 -59v-691q0 -55 -29.5 -90.5t-86.5 -35.5h-44v45h35q38 0 56 21t18 59v691q0 55 29.5 90.5t86.5 35.5h44v-45h-35z" />
    <glyph glyph-name="approxequal" unicode="&#x2248;" horiz-adv-x="514" 
d="M461 357q-20 -20 -35.5 -32.5t-28.5 -19t-25 -8.5t-27 -2q-25 0 -50 10t-52 21q-21 9 -38.5 16t-37.5 7q-11 0 -19.5 -1.5t-17.5 -6t-20 -13.5t-26 -24l-31 31q20 20 35.5 32.5t28.5 19t25 8.5t27 2q25 0 50 -10t52 -21q21 -9 38.5 -16t37.5 -7q10 0 19 1.5t18 6t20 13.5
t26 24zM461 197q-20 -20 -35.5 -32.5t-28.5 -19t-25 -8.5t-27 -2q-25 0 -50 10t-52 21q-21 9 -38.5 16t-37.5 7q-11 0 -19.5 -1.5t-17.5 -6t-20 -13.5t-26 -24l-31 31q20 20 35.5 32.5t28.5 19t25 8.5t27 2q25 0 50 -10t52 -21q21 -9 38.5 -16t37.5 -7q10 0 19 1.5t18 6
t20 13.5t26 24z" />
    <glyph glyph-name="notequal" unicode="&#x2260;" horiz-adv-x="514" 
d="M190 163l-104 -104l-33 33l71 71h-71v47h118l106 106h-224v47h271l104 104l33 -33l-71 -71h71v-47h-118l-106 -106h224v-47h-271z" />
    <glyph glyph-name="lessequal" unicode="&#x2264;" horiz-adv-x="514" 
d="M105 280v48l304 161v-55l-254 -130l254 -130v-55zM105 155v55l304 -161v-55z" />
    <glyph glyph-name="greaterequal" unicode="&#x2265;" horiz-adv-x="514" 
d="M105 119v55l254 130l-254 130v55l304 -161v-48zM105 -6v55l304 161v-55z" />
    <glyph glyph-name="dotmath" unicode="&#x22c5;" horiz-adv-x="514" 
d="M220 227v74h74v-74h-74z" />
    <glyph glyph-name="lozenge" unicode="&#x25ca;" horiz-adv-x="654" 
d="M327 -7l-255 363l255 363l255 -363zM327 641l-198 -285l198 -287l198 287z" />
    <glyph glyph-name="fi" unicode="&#xfb01;" horiz-adv-x="547" 
d="M163 444v-444h-51v444h-66v38h66v104q0 55 29.5 90.5t86.5 35.5h44v-45h-35q-38 0 -56 -21t-18 -59v-105h109v-38h-109zM399 0v482h51v-482h-51zM393 649v63h63v-63h-63z" />
    <glyph glyph-name="fl" unicode="&#xfb02;" horiz-adv-x="586" 
d="M163 444v-444h-51v444h-66v38h66v104q0 55 29.5 90.5t86.5 35.5h44v-45h-35q-38 0 -56 -21t-18 -59v-105h109v-38h-109zM510 0q-60 0 -88 34t-28 91v587h51v-586q0 -42 15.5 -61.5t58.5 -19.5h35v-45h-44z" />
    <glyph glyph-name="uniFEFF" unicode="&#xfeff;" horiz-adv-x="0" 
 />
    <glyph glyph-name="caroncomma.ss01" horiz-adv-x="526" 
d="M543 528v184h53v-128z" />
    <glyph glyph-name="caroncomma" horiz-adv-x="526" 
d="M553 564h-47l40 148h55z" />
    <glyph glyph-name="commaaccent" horiz-adv-x="258" 
d="M106 -220h-63l72 150h55z" />
    <glyph glyph-name="commaturn" horiz-adv-x="258" 
d="M131 590h-58l97 147h67z" />
    <glyph glyph-name="breveCyrLc.comp" horiz-adv-x="500" 
d="M390 697q-5 -63 -41 -91.5t-99 -28.5t-99 28.5t-41 91.5h51q8 -80 89 -80t89 80h51v0z" />
    <glyph glyph-name="breveCyrUc.comp" horiz-adv-x="500" 
d="M390 880q-5 -63 -41 -91.5t-99 -28.5t-99 28.5t-41 91.5h51q8 -80 89 -80t89 80h51v0z" />
    <glyph glyph-name="grave.lc" horiz-adv-x="500" 
d="M239 590l-106 147h67l97 -147h-58z" />
    <glyph glyph-name="dieresis.lc" horiz-adv-x="526" 
d="M130 600v77h58v-77h-58zM338 600v77h58v-77h-58z" />
    <glyph glyph-name="macron.lc" horiz-adv-x="500" 
d="M102 610v46h296v-46h-296z" />
    <glyph glyph-name="acute.lc" horiz-adv-x="526" 
d="M274 590h-58l97 147h67z" />
    <glyph glyph-name="circumflex.lc" horiz-adv-x="526" 
d="M356 590l-93 109l-93 -109h-57l123 147h54l123 -147h-57z" />
    <glyph glyph-name="caron.lc" horiz-adv-x="452" 
d="M261 590h-54l-123 147h57l93 -109l93 109h57z" />
    <glyph glyph-name="breve.lc" horiz-adv-x="500" 
d="M415 722q-7 -64 -45.5 -99.5t-119.5 -35.5t-119.5 35.5t-45.5 99.5h45q6 -42 37 -66t83 -24t83 24t37 66h45v0z" />
    <glyph glyph-name="dotaccent.lc" horiz-adv-x="500" 
d="M219 610v63h62v-63h-62z" />
    <glyph glyph-name="ring.lc" horiz-adv-x="524" 
d="M363 677q0 -24 -9 -44.5t-24.5 -36.5t-36 -25t-44.5 -9t-44.5 9t-36 25t-24.5 36.5t-9 44.5t9 44.5t24.5 36t36 24.5t44.5 9t44.5 -9t36 -24.5t24.5 -36t9 -44.5zM322 677q0 30 -21.5 51t-51.5 21t-51.5 -21t-21.5 -51t21.5 -51.5t51.5 -21.5t51.5 21.5t21.5 51.5z" />
    <glyph glyph-name="tilde.lc" horiz-adv-x="526" 
d="M412 653q-17 -17 -30.5 -27t-24.5 -14.5t-19 -5.5t-15 -1q-17 0 -31.5 5t-37.5 19q-14 8 -27.5 14.5t-28.5 6.5q-12 0 -24 -5t-35 -28l-30 29q17 17 30.5 27t24 14.5t19 5.5t15.5 1q22 0 36.5 -6.5t32.5 -17.5q16 -10 28.5 -15.5t27.5 -5.5q11 0 23.5 5t35.5 28l30 -29v0
z" />
    <glyph glyph-name="hungarumlaut.lc" horiz-adv-x="500" 
d="M188 590h-58l97 147h67zM334 590h-57l97 147h67z" />
    <glyph glyph-name="grave.uc" horiz-adv-x="652" 
d="M315 780l-106 147h67l97 -147h-58z" />
    <glyph glyph-name="dieresis.uc" horiz-adv-x="652" 
d="M193 790v77h58v-77h-58zM401 790v77h58v-77h-58z" />
    <glyph glyph-name="macron.uc" horiz-adv-x="500" 
d="M102 800v46h296v-46h-296z" />
    <glyph glyph-name="acute.uc" horiz-adv-x="652" 
d="M337 780h-58l97 147h67z" />
    <glyph glyph-name="circumflex.uc" horiz-adv-x="652" 
d="M419 780l-93 109l-93 -109h-57l123 147h54l123 -147h-57z" />
    <glyph glyph-name="caron.uc" 
d="M314 780h-54l-123 147h57l93 -109l93 109h57z" />
    <glyph glyph-name="breve.uc" horiz-adv-x="500" 
d="M415 927q-7 -64 -45.5 -99.5t-119.5 -35.5t-119.5 35.5t-45.5 99.5h45q6 -42 37 -66t83 -24t83 24t37 66h45v0z" />
    <glyph glyph-name="dotaccent.uc" horiz-adv-x="500" 
d="M219 800v63h62v-63h-62z" />
    <glyph glyph-name="ring.uc" horiz-adv-x="500" 
d="M364 861q0 -24 -9 -44.5t-24.5 -36.5t-36 -25t-44.5 -9t-44.5 9t-36 25t-24.5 36.5t-9 44.5t9 44.5t24.5 36t36 24.5t44.5 9t44.5 -9t36 -24.5t24.5 -36t9 -44.5zM323 861q0 30 -21.5 51t-51.5 21t-51.5 -21t-21.5 -51t21.5 -51.5t51.5 -21.5t51.5 21.5t21.5 51.5z" />
    <glyph glyph-name="tilde.uc" horiz-adv-x="652" 
d="M475 843q-17 -17 -30.5 -27t-24.5 -14.5t-19 -5.5t-15 -1q-17 0 -31.5 5t-37.5 19q-14 8 -27.5 14.5t-28.5 6.5q-12 0 -24 -5t-35 -28l-30 29q17 17 30.5 27t24 14.5t19 5.5t15.5 1q22 0 36.5 -6.5t32.5 -17.5q16 -10 28.5 -15.5t27.5 -5.5q11 0 23.5 5t35.5 28l30 -29v0
z" />
    <glyph glyph-name="hungarumlaut.uc" horiz-adv-x="500" 
d="M188 780h-58l97 147h67zM334 780h-57l97 147h67z" />
    </font>
</defs>
</svg>
