<?xml version="1.0" standalone="no"?>
<!DOCTYPE svg PUBLIC "-//W3C//DTD SVG 1.1//EN" "http://www.w3.org/Graphics/SVG/1.1/DTD/svg11.dtd" >
<svg>
<metadata>
Created by FontForge 20110222 at Wed Nov 27 02:03:40 2013
 By Orthosie Webhosting
2009 Albert-Jan Pool published by FSI FontShop International GmbH
</metadata>
<defs>
<font id="DINOffcPro-Bold" horiz-adv-x="543" >
  <font-face 
    font-family="DIN Offc Pro"
    font-weight="700"
    font-stretch="normal"
    units-per-em="1000"
    panose-1="2 11 8 4 2 1 1 2 1 2"
    ascent="764"
    descent="-236"
    x-height="521"
    cap-height="712"
    bbox="-145 -206 1174 1195"
    underline-thickness="87"
    underline-position="-48"
    unicode-range="U+0020-FEFF"
  />
<missing-glyph horiz-adv-x="573" 
d="M73 712h427v-712h-427v712zM413 87v538h-253v-538h253z" />
    <glyph glyph-name=".notdef" horiz-adv-x="573" 
d="M73 712h427v-712h-427v712zM413 87v538h-253v-538h253z" />
    <glyph glyph-name=".null" horiz-adv-x="0" 
 />
    <glyph glyph-name="nonmarkingreturn" horiz-adv-x="232" 
 />
    <glyph glyph-name="space" unicode=" " horiz-adv-x="232" 
 />
    <glyph glyph-name="exclam" unicode="!" horiz-adv-x="347" 
d="M240 223h-96l-32 489h161zM118 0v148h149v-148h-149z" />
    <glyph glyph-name="quotedbl" unicode="&#x22;" horiz-adv-x="464" 
d="M68 501v211h122v-211h-122zM274 501v211h121v-211h-121z" />
    <glyph glyph-name="numbersign" unicode="#" horiz-adv-x="691" 
d="M554 420l-16 -108h69v-122h-89l-30 -190h-137l31 190h-116l-30 -190h-137l30 190h-69v122h89l16 108h-70v121h89l28 177h137l-28 -177h116l28 177h136l-27 -177h69v-121h-89zM302 420l-17 -108h116l16 108h-115z" />
    <glyph glyph-name="dollar" unicode="$" horiz-adv-x="619" 
d="M571 210q0 -46 -16 -82.5t-44.5 -63.5t-68 -43.5t-86.5 -22.5v-112h-101v108q-72 2 -129.5 23t-106.5 71l90 90q32 -32 73 -45t86 -15v181l-32 4q-45 6 -80 21.5t-58 38.5q-51 51 -51 139q0 87 55 145t153 69v90h101v-89q61 -4 108.5 -23.5t88.5 -58.5l-88 -87
q-25 24 -58.5 35t-64.5 13v-174l38 -6q49 -8 81 -21.5t55 -34.5q29 -27 42 -64.5t13 -85.5zM435 206q0 39 -22 60q-12 11 -27.5 16.5t-43.5 9.5v-172q45 5 69 27t24 59zM268 595q-44 -6 -65.5 -30.5t-21.5 -57.5q0 -14 5 -27t16 -24q23 -22 66 -28v167z" />
    <glyph glyph-name="percent" unicode="%" horiz-adv-x="848" 
d="M248 577q0 57 -50 57q-51 0 -51 -57v-91q0 -57 51 -57q50 0 50 57v91zM342 482q0 -34 -11.5 -59.5t-31 -43t-46 -26t-55.5 -8.5q-30 0 -56.5 8.5t-46.5 26t-31.5 43t-11.5 59.5v99q0 34 11.5 59.5t31.5 42.5t46.5 26t56.5 9q29 0 55.5 -9t46 -26t31 -42.5t11.5 -59.5v-99
zM702 226q0 57 -51 57t-51 -57v-92q0 -56 51 -56t51 56v92zM796 131q0 -34 -11.5 -59.5t-31.5 -43t-46 -26t-56 -8.5t-56 8.5t-46 26t-31.5 43t-11.5 59.5v99q0 34 11.5 59.5t31.5 42.5t46 26t56 9t56 -9t46 -26t31.5 -42.5t11.5 -59.5v-99zM307 0h-102l337 712h102z" />
    <glyph glyph-name="ampersand" unicode="&#x26;" horiz-adv-x="721" 
d="M531 0l-52 62q-14 -11 -30.5 -23t-38.5 -22t-50 -16.5t-65 -6.5q-118 0 -176.5 57.5t-58.5 158.5q0 34 11.5 62.5t29.5 52t41 42.5t46 34q-11 12 -23.5 28t-23 34.5t-17.5 40.5t-7 48q0 36 13 66.5t37.5 52.5t59.5 34.5t80 12.5q42 0 75.5 -12.5t57.5 -35t36.5 -53.5
t12.5 -67q0 -42 -20 -71t-53 -53l-51 -37l120 -142q17 23 25.5 55t10.5 70h123q-4 -69 -21 -124t-55 -97l128 -151h-165zM258 321q-32 -23 -52 -47t-20 -62q0 -22 8.5 -40.5t23 -31.5t34 -20.5t42.5 -7.5q32 0 56.5 10t49.5 32zM366 549q0 25 -15.5 41.5t-43.5 16.5
q-29 0 -44 -16.5t-15 -41.5q0 -20 14 -39t33 -41l30 20q17 12 29 26.5t12 33.5z" />
    <glyph glyph-name="quotesingle" unicode="'" horiz-adv-x="259" 
d="M68 501v211h123v-211h-123z" />
    <glyph glyph-name="parenleft" unicode="(" horiz-adv-x="336" 
d="M80 574q0 33 4.5 66.5t21.5 62.5t39.5 53t48.5 50l88 -88q-18 -18 -30.5 -31t-25.5 -35q-15 -29 -15 -84v-424q0 -56 15 -84q13 -22 25.5 -35t30.5 -31l-88 -88q-26 26 -48.5 50t-39.5 53q-18 30 -22 62.5t-4 66.5v436z" />
    <glyph glyph-name="parenright" unicode=")" horiz-adv-x="336" 
d="M256 138q0 -34 -4 -66.5t-22 -62.5q-17 -29 -39.5 -53t-48.5 -50l-88 88q18 18 30.5 31t25.5 35q15 28 15 84v424q0 55 -15 84q-13 22 -25.5 35t-30.5 31l88 88q26 -26 48.5 -50t39.5 -53t21.5 -62.5t4.5 -66.5v-436z" />
    <glyph glyph-name="asterisk" unicode="*" horiz-adv-x="494" 
d="M394 381l-105 66l4 -125h-92l5 125l-106 -66l-45 79l110 58l-110 58l45 80l106 -67l-5 125h92l-4 -125l105 67l46 -80l-111 -58l111 -58z" />
    <glyph glyph-name="plus" unicode="+" 
d="M333 216v-160h-122v160h-161v122h161v160h122v-160h160v-122h-160z" />
    <glyph glyph-name="comma" unicode="," horiz-adv-x="279" 
d="M68 -165v307h143v-197z" />
    <glyph glyph-name="hyphen" unicode="-" horiz-adv-x="426" 
d="M59 225v121h308v-121h-308z" />
    <glyph glyph-name="period" unicode="." horiz-adv-x="285" 
d="M68 0v148h149v-148h-149z" />
    <glyph glyph-name="slash" unicode="/" horiz-adv-x="403" 
d="M122 -74h-122l285 860h122z" />
    <glyph glyph-name="zero" unicode="0" 
d="M488 206q0 -51 -17.5 -90.5t-47 -66.5t-69 -41t-82.5 -14q-44 0 -83 14t-69 41t-47.5 66.5t-17.5 90.5v300q0 51 17.5 90.5t47.5 66.5t69 41t83 14q43 0 82.5 -14t69 -41t47 -66.5t17.5 -90.5v-300zM358 504q0 45 -23.5 71t-62.5 26t-63 -26t-24 -71v-297q0 -45 24 -70.5
t63 -25.5t62.5 25.5t23.5 70.5v297z" />
    <glyph glyph-name="one" unicode="1" 
d="M248 0v572l-145 -126v140l145 126h130v-712h-130z" />
    <glyph glyph-name="two" unicode="2" 
d="M59 0v117l266 309q20 23 28.5 42t8.5 44q0 40 -22 64.5t-64 24.5q-16 0 -31.5 -4.5t-28 -15t-20 -28t-7.5 -43.5h-130q0 49 16.5 87.5t46 65.5t69 41t85.5 14q47 0 87 -14.5t68.5 -41t44.5 -65t16 -86.5q0 -26 -5 -46.5t-14.5 -39.5t-24 -37.5t-32.5 -39.5l-199 -231h275
v-117h-433z" />
    <glyph glyph-name="three" unicode="3" 
d="M495 206q0 -53 -18 -93t-49 -66.5t-72 -39.5t-87 -13q-44 0 -84.5 12t-72 37.5t-50.5 65t-20 95.5h130q1 -24 9 -41.5t21 -29t30.5 -17t36.5 -5.5q42 0 69 25.5t27 73.5q0 45 -26 71.5t-74 26.5h-19v113h19q48 0 69 25.5t21 63.5q0 45 -26 68t-61 23q-37 0 -61.5 -22.5
t-26.5 -63.5h-130q1 48 18.5 85.5t46.5 63.5t68.5 40t84.5 14q47 0 87 -15t69 -42t45 -64.5t16 -82.5q0 -58 -23.5 -92.5t-58.5 -53.5q38 -20 65 -58.5t27 -103.5z" />
    <glyph glyph-name="four" unicode="4" 
d="M447 101v-101h-125v101h-291v123l244 488h142l-244 -488h149v133h125v-133h65v-123h-65z" />
    <glyph glyph-name="five" unicode="5" 
d="M494 240q0 -60 -12 -104.5t-51 -83.5q-24 -24 -62.5 -41t-94.5 -17t-96 17t-63 40q-33 33 -44 71t-14 77h130q5 -42 25.5 -65t61.5 -23q39 0 62 23q17 17 22.5 44.5t5.5 61.5q0 62 -19.5 95t-67.5 33q-40 0 -59.5 -18.5t-26.5 -39.5h-119v402h406v-117h-288v-153
q14 14 42.5 25t64.5 11q45 0 78 -13t55 -35q42 -42 53 -90.5t11 -99.5z" />
    <glyph glyph-name="six" unicode="6" 
d="M492 216q0 -53 -17 -94t-47 -69.5t-70.5 -43.5t-87.5 -15t-87.5 14.5t-70.5 42.5t-47 69t-17 94q0 49 18 95t42 95l150 308h142l-148 -294q13 5 26.5 7t26.5 2q36 0 69.5 -14.5t60 -41.5t42 -66.5t15.5 -88.5zM362 215q0 48 -25 76t-67 28q-40 0 -66 -27t-26 -77t26 -77
t66 -27t66 27t26 77z" />
    <glyph glyph-name="seven" unicode="7" 
d="M272 0h-141l231 595h-188v-112h-124v229h453v-117z" />
    <glyph glyph-name="eight" unicode="8" 
d="M500 207q0 -52 -18 -91.5t-49 -66.5t-72.5 -41t-88.5 -14t-88.5 14t-72.5 41t-49 66.5t-18 91.5q0 33 8.5 58t21.5 44.5t28.5 33.5t30.5 24q-14 9 -28 23t-25.5 32t-19 41t-7.5 52q0 47 17.5 84.5t47.5 64t69.5 40.5t84.5 14t84.5 -14t69 -40.5t47 -64t17.5 -84.5
q0 -29 -7.5 -52t-19 -41t-26 -32t-27.5 -23q15 -10 30.5 -24t29 -33.5t22 -44.5t8.5 -58zM370 209q0 42 -28 70.5t-70 28.5t-70 -28.5t-28 -70.5t28 -70t70 -28t70 28t28 70zM360 511q0 38 -25 64t-63 26t-63.5 -26t-25.5 -64q0 -39 25.5 -64.5t63.5 -25.5t63 25.5t25 64.5z
" />
    <glyph glyph-name="nine" unicode="9" 
d="M495 498q0 -49 -17.5 -95t-41.5 -95l-151 -308h-141l148 294q-13 -5 -26.5 -7t-26.5 -2q-36 0 -70 14.5t-60 41.5t-42 66t-16 89q0 52 17 93.5t47 70t70.5 43.5t87.5 15t87.5 -14.5t70.5 -42.5t47 -69t17 -94zM365 497q0 50 -26 77t-66 27t-66 -27t-26 -77q0 -48 25 -76
t67 -28q40 0 66 27t26 77z" />
    <glyph glyph-name="colon" unicode=":" horiz-adv-x="309" 
d="M93 271v148h148v-148h-148zM93 0v148h148v-148h-148z" />
    <glyph glyph-name="semicolon" unicode=";" horiz-adv-x="309" 
d="M96 -165v307h142v-197zM93 271v148h148v-148h-148z" />
    <glyph glyph-name="less" unicode="&#x3c;" 
d="M69 229v113l406 187v-137l-241 -107l241 -106v-137z" />
    <glyph glyph-name="equal" unicode="=" 
d="M50 333v122h443v-122h-443zM50 116v122h443v-122h-443z" />
    <glyph glyph-name="greater" unicode="&#x3e;" 
d="M69 42v137l241 106l-241 107v137l406 -187v-113z" />
    <glyph glyph-name="question" unicode="?" horiz-adv-x="523" 
d="M487 518q0 -38 -14 -67.5t-35 -57.5l-74 -98q-8 -10 -13 -24t-5 -27v-21h-130v30q0 32 9 55t29 49l74 95q12 16 20.5 33t8.5 34q0 35 -21.5 58.5t-59.5 23.5q-40 0 -60 -24t-20 -59h-130q0 46 16.5 83.5t45 63t66.5 39.5t82 14q42 0 80.5 -13.5t67.5 -39t46 -62.5t17 -85
zM212 0v133h138v-133h-138z" />
    <glyph glyph-name="at" unicode="@" horiz-adv-x="758" 
d="M579 0v46q-24 -26 -51 -39t-69 -13q-79 0 -126 50q-15 16 -24.5 35t-14.5 41.5t-6.5 49.5t-1.5 61q0 67 8 109.5t38 75.5q22 24 54.5 37.5t71.5 13.5q38 0 66.5 -12t51.5 -37v45q0 32 -7.5 57t-27.5 45t-45 27.5t-55 7.5h-124q-30 0 -54.5 -7t-45.5 -28
q-22 -22 -28.5 -46t-6.5 -56v-289q0 -19 2 -32.5t7.5 -25t14 -21t20.5 -20.5l-90 -90q-21 19 -36 37t-24.5 39t-14 46.5t-4.5 59.5v299q0 61 13.5 107.5t48.5 81.5t81 48t107 13h144q59 0 106 -13t82 -48t48 -81t13 -108v-466h-121zM576 231q0 60 -17.5 94t-65.5 34t-65 -34
t-17 -94t17 -94.5t65 -34.5t65.5 34.5t17.5 94.5z" />
    <glyph glyph-name="A" unicode="A" horiz-adv-x="638" 
d="M488 0l-42 126h-253l-43 -126h-145l259 712h109l260 -712h-145zM322 502l-90 -259h177z" />
    <glyph glyph-name="B" unicode="B" horiz-adv-x="658" 
d="M501 365q21 -11 32 -19t22 -19q23 -25 33.5 -55t10.5 -68q0 -47 -15 -84.5t-43.5 -64t-69 -41t-90.5 -14.5h-298v712h286q50 0 91 -14t69.5 -39.5t44 -61.5t15.5 -81q0 -102 -88 -151zM358 424q43 0 67.5 22t24.5 60t-24.5 60t-67.5 22h-136v-164h136zM367 124
q43 0 68 23.5t25 64.5t-25 64t-68 23h-145v-175h145z" />
    <glyph glyph-name="C" unicode="C" horiz-adv-x="620" 
d="M583 219q-20 -112 -90.5 -168.5t-170.5 -56.5q-62 0 -108 19.5t-83 55.5q-27 27 -41.5 56t-21 63.5t-8 75.5t-1.5 92t1.5 92t8 75.5t21 63.5t41.5 56q37 36 83 55.5t108 19.5q100 0 170.5 -56.5t90.5 -168.5h-142q-11 44 -39 72.5t-80 28.5q-29 0 -51.5 -10t-37.5 -27
q-10 -11 -16.5 -25t-10.5 -36t-6 -55.5t-2 -84.5t2 -84.5t6 -55.5t10.5 -36t16.5 -25q15 -17 37.5 -27t51.5 -10q52 0 80.5 28.5t39.5 72.5h141z" />
    <glyph glyph-name="D" unicode="D" horiz-adv-x="659" 
d="M600 356q0 -44 -1 -80.5t-5 -67t-13.5 -56t-25.5 -48.5q-38 -54 -90 -79t-125 -25h-257v712h257q73 0 125 -25t90 -79q16 -23 25.5 -48.5t13.5 -56t5 -67t1 -80.5zM461 356q0 42 -1 72.5t-4 52t-8.5 36.5t-15.5 27q-35 44 -104 44h-106v-464h106q69 0 104 44
q10 12 15.5 27t8.5 36.5t4 52t1 72.5z" />
    <glyph glyph-name="E" unicode="E" horiz-adv-x="605" 
d="M83 0v712h469v-124h-330v-167h281v-124h-281v-173h330v-124h-469z" />
    <glyph glyph-name="F" unicode="F" horiz-adv-x="590" 
d="M222 588v-175h281v-124h-281v-289h-139v712h469v-124h-330z" />
    <glyph glyph-name="G" unicode="G" horiz-adv-x="649" 
d="M590 292q0 -77 -14.5 -127t-53.5 -90q-45 -47 -94.5 -64t-106.5 -17q-61 0 -107 19.5t-83 55.5q-27 27 -41.5 56t-21 63.5t-8 75.5t-1.5 92t1.5 92t8 75.5t21 63.5t41.5 56q37 36 83 55.5t107 19.5q62 0 109 -19t80 -50.5t52.5 -72.5t26.5 -86h-140q-24 104 -128 104
q-29 0 -51 -10.5t-38 -27.5q-10 -11 -16.5 -24.5t-10.5 -35.5t-5.5 -55.5t-1.5 -84.5t1.5 -84.5t5.5 -55.5t10.5 -36t16.5 -25q16 -17 38 -27t51 -10q32 0 57 10.5t42 29.5q17 20 24.5 43.5t7.5 51.5v26h-131v117h269v-104z" />
    <glyph glyph-name="H" unicode="H" horiz-adv-x="685" 
d="M463 0v298h-241v-298h-139v712h139v-291h241v291h139v-712h-139z" />
    <glyph glyph-name="I" unicode="I" horiz-adv-x="305" 
d="M83 0v712h139v-712h-139z" />
    <glyph glyph-name="J" unicode="J" horiz-adv-x="511" 
d="M437 234q0 -59 -20.5 -104t-55.5 -75t-80.5 -45.5t-94.5 -15.5q-58 0 -100.5 16.5t-82.5 56.5l92 91q17 -17 36.5 -28.5t54.5 -11.5q51 0 81.5 30t30.5 92v472h139v-478z" />
    <glyph glyph-name="K" unicode="K" horiz-adv-x="665" 
d="M497 0l-183 324l-92 -110v-214h-139v712h139v-310l251 310h169l-236 -283l253 -429h-162z" />
    <glyph glyph-name="L" unicode="L" horiz-adv-x="575" 
d="M83 0v712h139v-588h323v-124h-462z" />
    <glyph glyph-name="M" unicode="M" horiz-adv-x="811" 
d="M589 0v415l-136 -270h-94l-137 270v-415h-139v712h137l186 -385l185 385h137v-712h-139z" />
    <glyph glyph-name="N" unicode="N" horiz-adv-x="711" 
d="M504 0l-282 437v-437h-139v712h124l282 -436v436h139v-712h-124z" />
    <glyph glyph-name="O" unicode="O" horiz-adv-x="644" 
d="M585 356q0 -51 -1.5 -92t-8.5 -75.5t-21.5 -63.5t-41.5 -56q-36 -36 -82 -55.5t-108 -19.5t-108.5 19.5t-82.5 55.5q-27 27 -41.5 56t-21 63.5t-8 75.5t-1.5 92t1.5 92t8 75.5t21 63.5t41.5 56q36 36 82.5 55.5t108.5 19.5t108 -19.5t82 -55.5q27 -27 41.5 -56
t21.5 -63.5t8.5 -75.5t1.5 -92zM446 356q0 51 -2 84.5t-6 55.5t-10.5 35.5t-16.5 24.5q-15 17 -37.5 27.5t-51.5 10.5t-51.5 -10.5t-38.5 -27.5q-10 -11 -16.5 -24.5t-10.5 -35.5t-5.5 -55.5t-1.5 -84.5t1.5 -84.5t5.5 -55t10.5 -35t16.5 -24.5q16 -17 38.5 -28t51.5 -11
t51.5 11t37.5 28q10 11 16.5 24.5t10.5 35t6 55t2 84.5z" />
    <glyph glyph-name="P" unicode="P" horiz-adv-x="628" 
d="M594 490q0 -45 -16 -85.5t-46 -71t-74 -48t-99 -17.5h-137v-268h-139v712h276q55 0 99 -17.5t74 -48t46 -71t16 -85.5zM455 490q0 44 -27.5 71t-75.5 27h-130v-195h130q48 0 75.5 26.5t27.5 70.5z" />
    <glyph glyph-name="Q" unicode="Q" horiz-adv-x="643" 
d="M585 356q0 -43 -1 -79t-5 -66.5t-13 -56.5t-25 -50l61 -61l-73 -73l-64 62q-29 -18 -64.5 -28t-78.5 -10q-62 0 -108 19.5t-83 55.5q-27 27 -41.5 56t-21 63.5t-8 75.5t-1.5 92t1.5 92t8 75.5t21 63.5t41.5 56q37 36 83 55.5t108 19.5t108 -19.5t82 -55.5
q27 -27 41.5 -56t21.5 -63.5t8.5 -75.5t1.5 -92zM446 356q0 51 -2 84.5t-6 55.5t-10.5 35.5t-16.5 24.5q-15 17 -37.5 27.5t-51.5 10.5t-51.5 -10.5t-38.5 -27.5q-10 -11 -16.5 -24.5t-10.5 -35.5t-5.5 -55.5t-1.5 -84.5t1.5 -84.5t5.5 -55t10.5 -35t16.5 -24.5
q16 -17 38.5 -28t51.5 -11q26 0 46 13l-62 61l73 74l54 -54q8 23 10.5 56.5t2.5 87.5z" />
    <glyph glyph-name="R" unicode="R" horiz-adv-x="654" 
d="M461 0l-139 284h-100v-284h-139v712h279q54 0 97 -17.5t73 -47t45.5 -69t15.5 -84.5q0 -38 -10.5 -68t-28.5 -53.5t-41.5 -40t-49.5 -25.5l159 -307h-161zM454 494q0 42 -27.5 68t-73.5 26h-131v-188h131q46 0 73.5 26t27.5 68z" />
    <glyph glyph-name="S" unicode="S" horiz-adv-x="591" 
d="M543 210q0 -52 -20 -92t-55.5 -67.5t-84 -42t-104.5 -14.5q-81 0 -144.5 20.5t-115.5 73.5l90 90q34 -34 78 -47t93 -13q63 0 95 23t32 66q0 37 -22 59q-11 10 -24 15t-40 9l-85 13q-48 7 -81 21.5t-57 37.5q-51 49 -51 140q0 48 17 87.5t49 68t78 44.5t104 16
q74 0 129 -19t101 -64l-88 -87q-33 32 -72 40.5t-74 8.5q-56 0 -82.5 -26.5t-26.5 -63.5q0 -14 4.5 -27t15.5 -24q11 -10 26.5 -17t38.5 -10l85 -13q49 -7 81 -20t55 -36q29 -26 42 -64t13 -86z" />
    <glyph glyph-name="T" unicode="T" horiz-adv-x="571" 
d="M355 588v-588h-139v588h-186v124h511v-124h-186z" />
    <glyph glyph-name="U" unicode="U" horiz-adv-x="668" 
d="M596 244q0 -57 -20.5 -103t-56 -78.5t-83 -50.5t-102.5 -18t-102.5 18t-83 50.5t-56 78.5t-20.5 103v468h139v-463q0 -62 33 -96.5t90 -34.5t90.5 34.5t33.5 96.5v463h138v-468z" />
    <glyph glyph-name="V" unicode="V" horiz-adv-x="581" 
d="M342 0h-104l-235 712h144l143 -464l143 464h145z" />
    <glyph glyph-name="W" unicode="W" horiz-adv-x="887" 
d="M690 0h-116l-131 432l-131 -432h-116l-190 712h145l110 -449l130 449h104l130 -449l111 449h145z" />
    <glyph glyph-name="X" unicode="X" horiz-adv-x="603" 
d="M439 0l-138 248l-137 -248h-159l221 365l-207 347h158l124 -230l125 230h157l-207 -347l222 -365h-159z" />
    <glyph glyph-name="Y" unicode="Y" horiz-adv-x="572" 
d="M355 292v-292h-138v292l-214 420h151l133 -287l131 287h151z" />
    <glyph glyph-name="Z" unicode="Z" horiz-adv-x="548" 
d="M40 0v112l304 476h-291v124h455v-110l-305 -478h305v-124h-468z" />
    <glyph glyph-name="bracketleft" unicode="[" horiz-adv-x="378" 
d="M80 -74v860h257v-117h-127v-626h127v-117h-257z" />
    <glyph glyph-name="backslash" unicode="\" horiz-adv-x="403" 
d="M281 -74l-281 847h122l281 -847h-122z" />
    <glyph glyph-name="bracketright" unicode="]" horiz-adv-x="378" 
d="M42 -74v116h127v628h-127v116h257v-860h-257z" />
    <glyph glyph-name="asciicircum" unicode="^" horiz-adv-x="602" 
d="M403 389l-102 188l-102 -188h-136l178 330h120l178 -330h-136z" />
    <glyph glyph-name="underscore" unicode="_" horiz-adv-x="602" 
d="M0 -178v87h602v-87h-602z" />
    <glyph glyph-name="grave" unicode="`" horiz-adv-x="500" 
d="M218 604l-114 170h137l64 -170h-87z" />
    <glyph glyph-name="a" unicode="a" horiz-adv-x="534" 
d="M340 0v45q-26 -26 -54.5 -38t-73.5 -12q-87 0 -133 46q-21 22 -32 52t-11 65q0 31 11 58.5t33 48t56 32.5t80 12h121v26q0 43 -22.5 62.5t-74.5 19.5q-35 0 -57 -10.5t-43 -34.5l-82 81q38 42 80 58t107 16q222 0 222 -184v-343h-127zM337 220h-99q-77 0 -77 -60
q0 -27 19 -43t60 -16q24 0 42 4.5t35 20.5q11 10 15.5 25.5t4.5 40.5v28z" />
    <glyph glyph-name="b" unicode="b" horiz-adv-x="560" 
d="M509 261q0 -33 -1.5 -64.5t-7 -59.5t-16 -52.5t-29.5 -43.5q-22 -23 -55 -35t-71 -12q-42 0 -72.5 12.5t-57.5 42.5v-49h-126v712h130v-237q25 29 55.5 40.5t70.5 11.5q39 0 71.5 -12t54.5 -35q19 -19 29.5 -43.5t16 -52.5t7 -59t1.5 -64zM379 261q0 31 -3 58.5t-12 47.5
t-26.5 31.5t-46.5 11.5t-46.5 -11.5t-26.5 -31.5t-12 -47.5t-3 -58.5q0 -32 3 -59t12 -47.5t26.5 -32t46.5 -11.5t46.5 11.5t26.5 32t12 47.5t3 59z" />
    <glyph glyph-name="c" unicode="c" horiz-adv-x="480" 
d="M452 65q-35 -36 -76.5 -53.5t-95.5 -17.5q-39 0 -80.5 12t-75 42.5t-55.5 82t-22 130.5t22 130.5t55.5 81.5t75 42t80.5 12q54 0 95.5 -17t76.5 -53l-88 -88q-20 22 -39 31.5t-45 9.5q-46 0 -74 -34q-15 -19 -22 -46t-7 -69q0 -80 29 -116q28 -34 74 -34q26 0 45 9.5
t39 31.5z" />
    <glyph glyph-name="d" unicode="d" horiz-adv-x="561" 
d="M361 0v49q-27 -30 -57 -42.5t-72 -12.5q-39 0 -72 12t-55 35q-19 19 -29.5 43.5t-16 52.5t-7 59.5t-1.5 64.5t1.5 64t7 59t16 52.5t29.5 43.5q22 23 54.5 35t71.5 12q40 0 70.5 -11.5t56.5 -40.5v237h130v-712h-127zM358 261q0 31 -3 58.5t-12.5 47.5t-27 31.5
t-46.5 11.5t-46.5 -11.5t-26.5 -31.5t-12 -47.5t-3 -58.5q0 -32 3 -59t12 -47.5t26.5 -32t46.5 -11.5t46.5 11.5t27 32t12.5 47.5t3 59z" />
    <glyph glyph-name="e" unicode="e" horiz-adv-x="548" 
d="M175 220q0 -51 29 -83.5t85 -32.5q43 0 68 12.5t50 36.5l79 -77q-20 -20 -40 -35.5t-43.5 -26t-51.5 -15.5t-63 -5q-46 0 -89.5 12t-77 42.5t-54 82t-20.5 130.5q0 64 16.5 113.5t46.5 83.5t71.5 51.5t92.5 17.5q54 0 96.5 -18.5t71.5 -52t44 -80t15 -101.5v-55h-326z
M373 309q-1 17 -3 29.5t-9 26.5q-11 23 -32.5 38.5t-54.5 15.5t-54.5 -15.5t-32.5 -38.5q-7 -14 -9 -26.5t-3 -29.5h198z" />
    <glyph glyph-name="f" unicode="f" horiz-adv-x="342" 
d="M219 407v-407h-130v407h-54v99h54v65q0 28 9 54.5t27.5 47.5t47 34t68.5 13h74v-110h-51q-45 0 -45 -47v-57h96v-99h-96z" />
    <glyph glyph-name="g" unicode="g" horiz-adv-x="555" 
d="M482 19q0 -47 -16 -86.5t-46 -68.5t-72.5 -45t-94.5 -16q-60 0 -104 14.5t-85 53.5l81 82q22 -21 45.5 -30.5t56.5 -9.5q29 0 49 9.5t32.5 24.5t18 34.5t5.5 39.5v53q-26 -29 -56 -40.5t-68 -11.5t-70 12t-54 34q-18 18 -29 40t-16 47.5t-6.5 55.5t-1.5 64t1.5 63.5
t6.5 55t16 47.5t29 40q22 22 54.5 34t70.5 12q42 0 71 -12.5t56 -42.5v49h126v-502zM352 275q0 26 -2.5 50.5t-11.5 43t-26 30t-46 11.5t-46 -11.5t-25.5 -30t-11 -43t-2.5 -50.5t2.5 -50.5t11 -43.5t25.5 -30.5t46 -11.5t46 11.5t26 30.5t11.5 43.5t2.5 50.5z" />
    <glyph glyph-name="h" unicode="h" horiz-adv-x="573" 
d="M376 0v315q0 27 -7.5 45t-20 29t-28 16t-30.5 5t-30.5 -5t-28 -16t-20.5 -29t-8 -45v-315h-130v712h130v-239q25 27 57 40.5t70 13.5q39 0 70 -12t53 -34q32 -32 42.5 -68.5t10.5 -79.5v-333h-130z" />
    <glyph glyph-name="i" unicode="i" horiz-adv-x="275" 
d="M73 0v506h130v-506h-130zM71 610v106h133v-106h-133z" />
    <glyph glyph-name="j" unicode="j" horiz-adv-x="275" 
d="M203 -46q0 -28 -8.5 -54.5t-27 -47.5t-47.5 -34t-69 -13h-74v110h50q25 0 35.5 12t10.5 35v544h130v-552zM71 610v106h133v-106h-133z" />
    <glyph glyph-name="k" unicode="k" horiz-adv-x="559" 
d="M386 0l-128 217l-55 -62v-155h-130v712h130v-404l173 213h157l-186 -210l200 -311h-161z" />
    <glyph glyph-name="l" unicode="l" horiz-adv-x="325" 
d="M220 0q-40 0 -69 13t-47.5 34t-27 47.5t-8.5 54.5v563h130v-555q0 -23 10.5 -35t35.5 -12h50v-110h-74z" />
    <glyph glyph-name="m" unicode="m" horiz-adv-x="876" 
d="M679 0v315q0 27 -7.5 45t-20 29t-28 16t-30.5 5t-30.5 -5t-28 -15.5t-20.5 -28.5t-8 -43v-318h-130v315q0 27 -7.5 45t-20 29t-28 16t-30.5 5t-30.5 -5t-28 -16t-20.5 -29t-8 -45v-315h-130v521h127v-48q26 26 60 40t70 14q44 0 78.5 -16t59.5 -50q33 35 70 50.5t86 15.5
q39 0 72.5 -12t55.5 -34q32 -32 44.5 -68.5t12.5 -79.5v-333h-130z" />
    <glyph glyph-name="n" unicode="n" horiz-adv-x="573" 
d="M376 0v315q0 27 -7.5 45t-20 29t-28 16t-30.5 5t-30.5 -5t-28 -16t-20.5 -29t-8 -45v-315h-130v521h127v-48q26 27 60 40.5t70 13.5q39 0 70 -12t53 -34q32 -32 42.5 -68.5t10.5 -79.5v-333h-130z" />
    <glyph glyph-name="o" unicode="o" 
d="M492 261q0 -71 -11.5 -118.5t-47.5 -84.5q-25 -26 -64.5 -45t-97.5 -19t-97 19t-64 45q-35 38 -47 85t-12 118t12 117.5t47 84.5q25 26 64 45t97 19t97.5 -19t64.5 -45q35 -38 47 -84.5t12 -117.5zM362 261q0 40 -5 73t-25 53q-23 23 -61 23q-37 0 -60 -23
q-20 -20 -25 -53t-5 -73q0 -41 5 -74t25 -53q23 -23 60 -23q38 0 61 23q20 20 25 53t5 74z" />
    <glyph glyph-name="p" unicode="p" horiz-adv-x="560" 
d="M509 261q0 -33 -1.5 -64t-7 -59.5t-16 -53t-29.5 -43.5q-22 -23 -55 -35t-71 -12q-40 0 -70.5 11.5t-55.5 40.5v-237h-130v712h126v-49q27 30 57.5 42.5t72.5 12.5q38 0 71 -12t55 -35q19 -19 29.5 -43.5t16 -52.5t7 -59t1.5 -64zM379 261q0 31 -3 58.5t-12 47.5
t-26.5 31.5t-46.5 11.5t-46.5 -11.5t-26.5 -31.5t-12 -47.5t-3 -58.5q0 -32 3 -59t12 -47.5t26.5 -32t46.5 -11.5t46.5 11.5t26.5 32t12 47.5t3 59z" />
    <glyph glyph-name="q" unicode="q" horiz-adv-x="561" 
d="M358 -191v237q-26 -29 -56.5 -40.5t-70.5 -11.5q-39 0 -71.5 12t-54.5 35q-19 19 -29.5 43.5t-16 53t-7 59.5t-1.5 64t1.5 64t7 59t16 52.5t29.5 43.5q22 23 55 35t72 12q42 0 72 -12.5t57 -42.5v49h127v-712h-130zM358 261q0 31 -3 58.5t-12.5 47.5t-27 31.5t-46.5 11.5
t-46.5 -11.5t-26.5 -31.5t-12 -47.5t-3 -58.5q0 -32 3 -59t12 -47.5t26.5 -32t46.5 -11.5t46.5 11.5t27 31.5t12.5 47.5t3 59.5z" />
    <glyph glyph-name="r" unicode="r" horiz-adv-x="455" 
d="M356 379q-15 15 -30 23t-39 8q-15 0 -30 -5.5t-27 -17.5t-19.5 -30t-7.5 -43v-314h-130v521h127v-50q19 23 54 39.5t77 16.5q38 0 67 -11t56 -38z" />
    <glyph glyph-name="s" unicode="s" horiz-adv-x="501" 
d="M465 164q0 -43 -17 -75t-47 -53t-70.5 -31.5t-86.5 -10.5q-31 0 -60 2.5t-56.5 10.5t-54 22.5t-51.5 39.5l85 85q16 -16 34 -25.5t36.5 -15t36 -7t32.5 -1.5q17 0 33.5 3t29.5 9.5t21 16.5t8 25q0 20 -11.5 32.5t-43.5 15.5l-84 8q-69 7 -109.5 40.5t-40.5 105.5
q0 41 16.5 72t44 52t64 31.5t76.5 10.5q62 0 111.5 -13t87.5 -48l-80 -81q-23 20 -54.5 27.5t-66.5 7.5q-39 0 -56.5 -15t-17.5 -35t12.5 -31t41.5 -14l82 -8q78 -8 116.5 -47t38.5 -106z" />
    <glyph glyph-name="t" unicode="t" horiz-adv-x="352" 
d="M236 0q-40 0 -68.5 13t-47 34t-27 47.5t-8.5 54.5v258h-55v99h55v154h130v-154h92v-99h-92v-250q0 -47 45 -47h47v-110h-71z" />
    <glyph glyph-name="u" unicode="u" horiz-adv-x="573" 
d="M373 0v48q-26 -27 -60 -40.5t-70 -13.5q-39 0 -70 12t-53 34q-32 32 -42.5 68.5t-10.5 79.5v333h130v-315q0 -27 7.5 -45t20 -29t28 -16t30.5 -5t30.5 5t28 16t20.5 29t8 45v315h130v-521h-127z" />
    <glyph glyph-name="v" unicode="v" horiz-adv-x="493" 
d="M298 0h-102l-192 521h137l106 -322l105 322h137z" />
    <glyph glyph-name="w" unicode="w" horiz-adv-x="759" 
d="M596 0h-107l-109 327l-109 -327h-107l-160 521h138l84 -322l106 322h95l107 -322l84 322h137z" />
    <glyph glyph-name="x" unicode="x" horiz-adv-x="527" 
d="M359 0l-96 156l-95 -156h-156l180 266l-173 255h156l88 -149l89 149h156l-173 -255l180 -266h-156z" />
    <glyph glyph-name="y" unicode="y" horiz-adv-x="494" 
d="M267 -84q-17 -45 -39 -67q-23 -23 -51.5 -31.5t-60.5 -8.5h-51v117h30q28 0 41.5 9t23.5 38l22 64l-178 484h137l108 -322l104 322h137z" />
    <glyph glyph-name="z" unicode="z" horiz-adv-x="478" 
d="M37 0v99l231 305h-218v117h384v-99l-234 -305h234v-117h-397z" />
    <glyph glyph-name="braceleft" unicode="{" horiz-adv-x="457" 
d="M312 -74q-39 0 -66.5 9.5t-45.5 27.5q-42 42 -42 111v145q0 43 -17 60q-8 8 -21 13.5t-31 5.5h-46v116h46q18 0 31 5.5t21 13.5q17 17 17 60v145q0 69 42 111q18 18 45.5 27.5t66.5 9.5h102v-117h-53q-23 0 -36 -3t-21 -11q-8 -9 -12 -23.5t-4 -40.5v-135q0 -27 -7 -44.5
t-17.5 -28.5t-22.5 -17t-22 -10q10 -4 22 -10t22.5 -17t17.5 -28.5t7 -44.5v-135q0 -26 4 -40.5t12 -23.5q8 -8 21 -11t36 -3h53v-117h-102z" />
    <glyph glyph-name="bar" unicode="|" horiz-adv-x="350" 
d="M110 -74v860h130v-860h-130z" />
    <glyph glyph-name="braceright" unicode="}" horiz-adv-x="457" 
d="M368 298q-18 0 -31 -5.5t-21 -13.5q-17 -17 -17 -60v-145q0 -69 -42 -111q-18 -18 -45.5 -27.5t-66.5 -9.5h-102v117h53q23 0 36 3t21 11q8 9 12 23.5t4 40.5v135q0 27 7 44.5t17.5 28.5t22.5 17t22 10q-10 4 -22 10t-22.5 17t-17.5 28.5t-7 44.5v135q0 26 -4 40.5
t-12 23.5q-8 8 -21 11t-36 3h-53v117h102q39 0 66.5 -9.5t45.5 -27.5q42 -42 42 -111v-145q0 -43 17 -60q8 -8 21 -13.5t31 -5.5h46v-116h-46z" />
    <glyph glyph-name="asciitilde" unicode="~" horiz-adv-x="606" 
d="M569 281q-23 -23 -43 -39.5t-39.5 -27t-39.5 -15t-43 -4.5q-31 0 -58 8.5t-59 25.5q-22 11 -41 17.5t-41 6.5q-20 0 -39 -7t-47 -35l-82 82q23 23 43 39.5t39.5 27t39 15t42.5 4.5q31 0 58 -8.5t59 -25.5q22 -11 40.5 -17.5t40.5 -6.5q20 0 39.5 7t47.5 35z" />
    <glyph glyph-name="uni00A0" unicode="&#xa0;" horiz-adv-x="232" 
 />
    <glyph glyph-name="exclamdown" unicode="&#xa1;" horiz-adv-x="347" 
d="M75 -191l32 489h97l32 -489h-161zM87 388v133h137v-133h-137z" />
    <glyph glyph-name="cent" unicode="&#xa2;" horiz-adv-x="499" 
d="M469 180q-29 -30 -61.5 -48.5t-74.5 -26.5v-105h-101v105q-39 8 -73 28t-59 52.5t-39 77.5t-14 103t14 103t39 77.5t59 52.5t73 28v85h101v-85q42 -8 74.5 -26.5t61.5 -48.5l-86 -84q-15 16 -29.5 26t-34.5 15v-286q20 5 34.5 15t29.5 26zM246 507q-21 -6 -38 -26
q-15 -19 -23 -46t-8 -69t8 -69t23 -46q15 -20 38 -26v282z" />
    <glyph glyph-name="sterling" unicode="&#xa3;" horiz-adv-x="579" 
d="M101 0v297h-61v100h61v81q0 59 20.5 104t55.5 75t80 45.5t95 15.5q58 0 100 -16.5t82 -56.5l-91 -91q-17 17 -36.5 28.5t-54.5 11.5q-51 0 -82 -30t-31 -92v-75h113v-100h-113v-173h295v-124h-433z" />
    <glyph glyph-name="currency" unicode="&#xa4;" horiz-adv-x="669" 
d="M525 10l-74 73q-26 -15 -55.5 -23.5t-61.5 -8.5t-61 8.5t-55 23.5l-74 -73l-86 86l74 73q-15 26 -24 55.5t-9 61.5t9 61.5t24 55.5l-74 73l86 86l74 -73q26 15 55 23.5t61 8.5t61.5 -8.5t55.5 -23.5l74 73l85 -86l-73 -73q15 -26 23.5 -55.5t8.5 -61.5t-8.5 -61.5
t-23.5 -55.5l73 -73zM452 286q0 24 -9.5 45.5t-25.5 37.5t-37.5 25t-45.5 9t-45.5 -9t-37.5 -25t-25 -37.5t-9 -45.5t9 -45.5t25 -37.5t37.5 -25t45.5 -9t45.5 9t37.5 25t25.5 37.5t9.5 45.5z" />
    <glyph glyph-name="yen" unicode="&#xa5;" horiz-adv-x="571" 
d="M432 442h74v-100h-125l-26 -50v-51h151v-100h-151v-141h-138v141h-152v100h152v51l-26 50h-126v100h75l-137 270h151l132 -288l132 288h150z" />
    <glyph glyph-name="brokenbar" unicode="&#xa6;" horiz-adv-x="353" 
d="M110 436v350h130v-350h-130zM110 -74v350h130v-350h-130z" />
    <glyph glyph-name="section" unicode="&#xa7;" horiz-adv-x="531" 
d="M473 274q0 -28 -9 -51.5t-22.5 -42.5t-29 -33t-29.5 -22q33 -17 57 -49t24 -90q0 -46 -17 -80.5t-45 -57t-63.5 -34t-72.5 -11.5q-36 0 -71.5 10t-63.5 31.5t-45.5 55t-18.5 81.5h125q2 -28 21 -45.5t53 -17.5q35 0 54 17.5t19 46.5q0 20 -14.5 40t-55.5 34l-62 21
q-36 12 -63.5 28t-45.5 38.5t-27.5 52t-9.5 69.5q0 28 8.5 51.5t22 42.5t29.5 33t31 22q-32 17 -54 46.5t-22 84.5q0 34 11.5 65t35.5 55t60 38.5t85 14.5t85 -13.5t59.5 -36.5t35.5 -54.5t12 -67.5h-122q-2 33 -21.5 47t-48.5 14q-35 0 -52.5 -16.5t-17.5 -42.5
q0 -44 67 -66l62 -20q72 -23 109 -66t37 -122zM348 269q0 26 -7 41.5t-18 26.5q-10 9 -23.5 15t-32.5 6t-33.5 -6t-23.5 -15q-11 -11 -17.5 -26.5t-6.5 -41.5q0 -27 7.5 -42.5t16.5 -24.5t23.5 -15t33.5 -6t33 6t23 15t17 24.5t8 42.5z" />
    <glyph glyph-name="dieresis" unicode="&#xa8;" horiz-adv-x="500" 
d="M305 606v125h111v-125h-111zM84 606v125h111v-125h-111z" />
    <glyph glyph-name="copyright" unicode="&#xa9;" horiz-adv-x="844" 
d="M784 356q0 -75 -28.5 -141t-77.5 -115t-115 -77.5t-141 -28.5t-141 28.5t-115 77.5t-77.5 115t-28.5 141t28.5 141t77.5 115t115 77.5t141 28.5t141 -28.5t115 -77.5t77.5 -115t28.5 -141zM697 356q0 60 -21 111.5t-58 89t-87.5 59t-108.5 21.5t-108.5 -21.5t-87.5 -59
t-58.5 -89t-21.5 -111.5t21.5 -111.5t58.5 -89t87.5 -59t108.5 -21.5t108.5 21.5t87.5 59t58 89t21 111.5zM561 212q-28 -25 -59 -38.5t-73 -13.5q-38 0 -70.5 12.5t-56.5 37.5t-38 61.5t-14 84.5t14 85t38 61.5t56.5 37.5t70.5 13q42 0 72.5 -14t59.5 -39l-56 -56
q-20 17 -36.5 24.5t-39.5 7.5q-48 0 -71 -32.5t-23 -87.5t23 -87.5t71 -32.5q23 0 39.5 7.5t36.5 24.5z" />
    <glyph glyph-name="ordfeminine" unicode="&#xaa;" horiz-adv-x="454" 
d="M289 296v36q-21 -21 -43 -30.5t-58 -9.5q-69 0 -105 38q-35 35 -35 92q0 25 8.5 47t26 38.5t44.5 26t63 9.5h97v20q0 34 -17.5 49.5t-59.5 15.5q-29 0 -45.5 -7.5t-33.5 -26.5l-67 65q31 34 65 46t86 12q88 0 132.5 -37t44.5 -110v-274h-103zM287 472h-81q-28 0 -42 -13
t-14 -34t14 -33.5t43 -12.5q22 0 37 3.5t28 15.5q15 14 15 51v23z" />
    <glyph glyph-name="guillemotleft" unicode="&#xab;" horiz-adv-x="628" 
d="M312 275l250 248v-155l-96 -93l96 -93v-155zM34 275l249 248v-155l-94 -93l94 -93v-155z" />
    <glyph glyph-name="logicalnot" unicode="&#xac;" 
d="M376 94v145h-330v121h451v-266h-121z" />
    <glyph glyph-name="uni00AD" unicode="&#xad;" horiz-adv-x="426" 
d="M59 225v121h308v-121h-308z" />
    <glyph glyph-name="registered" unicode="&#xae;" horiz-adv-x="844" 
d="M784 356q0 -75 -28.5 -141t-77.5 -115t-115 -77.5t-141 -28.5t-141 28.5t-115 77.5t-77.5 115t-28.5 141t28.5 141t77.5 115t115 77.5t141 28.5t141 -28.5t115 -77.5t77.5 -115t28.5 -141zM698 356q0 60 -21 111.5t-58.5 89t-88 59t-108.5 21.5q-59 0 -109 -21.5
t-87.5 -59t-58.5 -89t-21 -111.5t21 -111.5t58.5 -89t87.5 -59t109 -21.5q58 0 108.5 21.5t88 59t58.5 89t21 111.5zM487 164l-70 149h-41v-149h-86v385h157q29 0 53 -10t40.5 -26.5t25.5 -38.5t9 -46q0 -40 -21.5 -65.5t-49.5 -36.5l81 -162h-98zM489 428q0 20 -14.5 35
t-38.5 15h-60v-100h60q24 0 38.5 15t14.5 35z" />
    <glyph glyph-name="macron" unicode="&#xaf;" horiz-adv-x="500" 
d="M91 623v88h317v-88h-317z" />
    <glyph glyph-name="degree" unicode="&#xb0;" horiz-adv-x="478" 
d="M423 542q0 -38 -14.5 -71.5t-39.5 -58.5t-58.5 -39.5t-71.5 -14.5t-71.5 14.5t-58.5 39.5t-39.5 58.5t-14.5 71.5t14.5 72t39.5 59t58.5 39.5t71.5 14.5t71.5 -14.5t58.5 -39.5t39.5 -59t14.5 -72zM318 542q0 34 -23.5 57t-56.5 23t-55.5 -23t-22.5 -57t23 -57t56 -23
t56 23t23 57z" />
    <glyph glyph-name="plusminus" unicode="&#xb1;" 
d="M333 341v-161h-122v161h-161v121h161v161h122v-161h160v-121h-160zM50 0v122h443v-122h-443z" />
    <glyph glyph-name="twosuperior" unicode="&#xb2;" horiz-adv-x="332" 
d="M34 285v85l156 171q12 13 17 23t5 24q0 20 -11 31.5t-31 11.5q-15 0 -28.5 -9t-13.5 -35h-94q0 31 10.5 55t29 40.5t43.5 25t53 8.5q59 0 97.5 -34t38.5 -94q0 -33 -13.5 -55t-38.5 -49l-105 -114h157v-85h-272z" />
    <glyph glyph-name="threesuperior" unicode="&#xb3;" horiz-adv-x="332" 
d="M310 412q0 -33 -11.5 -58t-31 -41t-45 -24t-53.5 -8q-27 0 -52 7.5t-45 23.5t-32 41t-12 60h94q0 -24 13.5 -36t33.5 -12q21 0 34 13t13 37q0 21 -13 34.5t-36 13.5h-13v81h13q23 0 33.5 13.5t10.5 29.5q0 22 -12.5 33t-29.5 11t-29.5 -11t-12.5 -31h-94q0 30 10.5 53.5
t29 40t43.5 25t53 8.5q29 0 54 -9.5t43 -26t28.5 -39.5t10.5 -51q0 -35 -14 -54t-31 -30q19 -12 34.5 -34t15.5 -60z" />
    <glyph glyph-name="acute" unicode="&#xb4;" horiz-adv-x="500" 
d="M282 604h-87l64 170h137z" />
    <glyph glyph-name="mu" unicode="&#xb5;" horiz-adv-x="576" 
d="M376 0v48q-26 -27 -60 -40.5t-70 -13.5q-27 0 -46 14v-199h-130v712h130v-315q0 -27 7.5 -45t20 -29t28 -16t30.5 -5t30.5 5t28 16t20.5 29t8 45v315h130v-521h-127z" />
    <glyph glyph-name="paragraph" unicode="&#xb6;" horiz-adv-x="668" 
d="M455 -191v779h-100v-779h-130v499q-38 0 -72 16t-60.5 43t-42 63.5t-15.5 78.5q0 49 16.5 87t47 63.5t73 39t94.5 13.5h319v-903h-130z" />
    <glyph glyph-name="periodcentered" unicode="&#xb7;" horiz-adv-x="285" 
d="M68 212v148h149v-148h-149z" />
    <glyph glyph-name="cedilla" unicode="&#xb8;" horiz-adv-x="500" 
d="M281 -206h-121l69 146h96z" />
    <glyph glyph-name="onesuperior" unicode="&#xb9;" horiz-adv-x="332" 
d="M144 285v321l-90 -78v106l90 78h95v-427h-95z" />
    <glyph glyph-name="ordmasculine" unicode="&#xba;" horiz-adv-x="462" 
d="M407 504q0 -57 -9.5 -94t-38.5 -67q-20 -20 -51 -35.5t-77 -15.5t-77 15.5t-51 35.5q-29 30 -38.5 67t-9.5 94t9.5 94.5t38.5 67.5q20 20 51 35.5t77 15.5t77 -15.5t51 -35.5q29 -30 38.5 -67.5t9.5 -94.5zM302 504q0 32 -3.5 58.5t-19.5 42.5q-18 18 -48 18t-48 -18
q-16 -16 -19.5 -42.5t-3.5 -58.5t3.5 -58t19.5 -42q18 -18 48 -18t48 18q16 16 19.5 42t3.5 58z" />
    <glyph glyph-name="guillemotright" unicode="&#xbb;" horiz-adv-x="628" 
d="M345 27v155l94 93l-94 93v155l250 -248zM67 27v155l95 93l-95 93v155l249 -248z" />
    <glyph glyph-name="onequarter" unicode="&#xbc;" horiz-adv-x="872" 
d="M144 285v321l-90 -78v106l90 78h95v-427h-95zM318 0h-101l337 712h101zM824 57v-57h-90v57h-176v89l143 281h103l-144 -281h74v62h90v-62h33v-89h-33z" />
    <glyph glyph-name="onehalf" unicode="&#xbd;" horiz-adv-x="872" 
d="M144 285v321l-90 -78v106l90 78h95v-427h-95zM318 0h-101l337 712h101zM574 0v85l156 171q12 13 17 23t5 24q0 20 -11 31.5t-31 11.5q-15 0 -28.5 -9t-13.5 -35h-94q0 31 10.5 55t29 40.5t43.5 25t53 8.5q59 0 97.5 -34t38.5 -94q0 -33 -13.5 -55t-38.5 -49l-105 -114
h157v-85h-272z" />
    <glyph glyph-name="threequarters" unicode="&#xbe;" horiz-adv-x="872" 
d="M310 412q0 -33 -11.5 -58t-31 -41t-45 -24t-53.5 -8q-27 0 -52 7.5t-45 23.5t-32 41t-12 60h94q0 -24 13.5 -36t33.5 -12q21 0 34 13t13 37q0 21 -13 34.5t-36 13.5h-13v81h13q23 0 33.5 13.5t10.5 29.5q0 22 -12.5 33t-29.5 11t-29.5 -11t-12.5 -31h-94q0 30 10.5 53.5
t29 40t43.5 25t53 8.5q29 0 54 -9.5t43 -26t28.5 -39.5t10.5 -51q0 -35 -14 -54t-31 -30q19 -12 34.5 -34t15.5 -60zM318 0h-101l337 712h101zM824 57v-57h-90v57h-176v89l143 281h103l-144 -281h74v62h90v-62h33v-89h-33z" />
    <glyph glyph-name="questiondown" unicode="&#xbf;" horiz-adv-x="523" 
d="M457 4q0 -47 -16.5 -84t-45.5 -63t-67.5 -40t-81.5 -14q-42 0 -80.5 13.5t-67 39t-45.5 62.5t-17 85q0 38 14 67.5t35 57.5l74 99q8 10 13 24t5 27v20h130v-30q0 -32 -9 -55t-29 -49l-74 -95q-12 -16 -20.5 -33t-8.5 -34q0 -35 21 -58.5t59 -23.5q40 0 60.5 24.5
t20.5 59.5h130zM173 388v133h138v-133h-138z" />
    <glyph glyph-name="Agrave" unicode="&#xc0;" horiz-adv-x="638" 
d="M488 0l-42 126h-253l-43 -126h-145l259 712h109l260 -712h-145zM322 502l-90 -259h177zM286 781l-114 170h137l64 -170h-87z" />
    <glyph glyph-name="Aacute" unicode="&#xc1;" horiz-adv-x="638" 
d="M488 0l-42 126h-253l-43 -126h-145l259 712h109l260 -712h-145zM322 502l-90 -259h177zM350 781h-87l64 170h137z" />
    <glyph glyph-name="Acircumflex" unicode="&#xc2;" horiz-adv-x="638" 
d="M488 0l-42 126h-253l-43 -126h-145l259 712h109l260 -712h-145zM322 502l-90 -259h177zM401 781l-83 91l-83 -91h-101l132 169h104l132 -169h-101z" />
    <glyph glyph-name="Atilde" unicode="&#xc3;" horiz-adv-x="638" 
d="M488 0l-42 126h-253l-43 -126h-145l259 712h109l260 -712h-145zM322 502l-90 -259h177zM498 849q-33 -33 -58.5 -46t-54.5 -13q-23 0 -40 5t-38 18q-14 8 -27.5 13t-28.5 5q-13 0 -25.5 -4.5t-32.5 -24.5l-56 57q32 33 57.5 46t54.5 13q22 0 39 -5t38 -18
q15 -9 27.5 -13.5t27.5 -4.5q13 0 26 4.5t33 24.5z" />
    <glyph glyph-name="Adieresis" unicode="&#xc4;" horiz-adv-x="638" 
d="M488 0l-42 126h-253l-43 -126h-145l259 712h109l260 -712h-145zM322 502l-90 -259h177zM375 783v125h111v-125h-111zM154 783v125h111v-125h-111z" />
    <glyph glyph-name="Aring" unicode="&#xc5;" horiz-adv-x="638" 
d="M488 0l-42 126h-253l-43 -126h-145l259 712h109l260 -712h-145zM322 502l-90 -259h177zM448 884q0 -27 -10.5 -51t-28 -41.5t-41.5 -28t-51 -10.5t-51 10.5t-41.5 28t-28 41.5t-10.5 51t10.5 51t28 41.5t41.5 28t51 10.5t51 -10t41.5 -28t28 -42t10.5 -51zM375 884
q0 24 -17 41t-41 17t-41 -17t-17 -41t17 -41.5t41 -17.5t41 17.5t17 41.5z" />
    <glyph glyph-name="AE" unicode="&#xc6;" horiz-adv-x="979" 
d="M458 0v156h-225l-81 -156h-149l372 712h551v-124h-330v-168h282v-124h-282v-172h330v-124h-468zM458 588l-165 -315h165v315z" />
    <glyph glyph-name="Ccedilla" unicode="&#xc7;" horiz-adv-x="620" 
d="M583 219q-20 -112 -90.5 -168.5t-170.5 -56.5q-62 0 -108 19.5t-83 55.5q-27 27 -41.5 56t-21 63.5t-8 75.5t-1.5 92t1.5 92t8 75.5t21 63.5t41.5 56q37 36 83 55.5t108 19.5q100 0 170.5 -56.5t90.5 -168.5h-142q-11 44 -39 72.5t-80 28.5q-29 0 -51.5 -10t-37.5 -27
q-10 -11 -16.5 -25t-10.5 -36t-6 -55.5t-2 -84.5t2 -84.5t6 -55.5t10.5 -36t16.5 -25q15 -17 37.5 -27t51.5 -10q52 0 80.5 28.5t39.5 72.5h141zM335 -206h-121l69 146h96z" />
    <glyph glyph-name="Egrave" unicode="&#xc8;" horiz-adv-x="605" 
d="M83 0v712h469v-124h-330v-167h281v-124h-281v-173h330v-124h-469zM279 781l-114 170h137l64 -170h-87z" />
    <glyph glyph-name="Eacute" unicode="&#xc9;" horiz-adv-x="605" 
d="M83 0v712h469v-124h-330v-167h281v-124h-281v-173h330v-124h-469zM342 781h-87l64 170h137z" />
    <glyph glyph-name="Ecircumflex" unicode="&#xca;" horiz-adv-x="605" 
d="M83 0v712h469v-124h-330v-167h281v-124h-281v-173h330v-124h-469zM394 781l-83 91l-83 -91h-101l132 169h104l132 -169h-101z" />
    <glyph glyph-name="Edieresis" unicode="&#xcb;" horiz-adv-x="605" 
d="M83 0v712h469v-124h-330v-167h281v-124h-281v-173h330v-124h-469zM366 783v125h111v-125h-111zM145 783v125h111v-125h-111z" />
    <glyph glyph-name="Igrave" unicode="&#xcc;" horiz-adv-x="305" 
d="M83 0v712h139v-712h-139zM136 781l-114 170h137l64 -170h-87z" />
    <glyph glyph-name="Iacute" unicode="&#xcd;" horiz-adv-x="305" 
d="M83 0v712h139v-712h-139zM171 781h-87l64 170h137z" />
    <glyph glyph-name="Icircumflex" unicode="&#xce;" horiz-adv-x="305" 
d="M83 0v712h139v-712h-139zM236 781l-83 91l-83 -91h-101l132 169h104l132 -169h-101z" />
    <glyph glyph-name="Idieresis" unicode="&#xcf;" horiz-adv-x="305" 
d="M83 0v712h139v-712h-139zM209 783v125h111v-125h-111zM-12 783v125h111v-125h-111z" />
    <glyph glyph-name="Eth" unicode="&#xd0;" horiz-adv-x="682" 
d="M623 356q0 -44 -1 -80.5t-5 -67t-13.5 -56t-25.5 -48.5q-38 -54 -90 -79t-125 -25h-257v306h-69v106h69v300h257q73 0 125 -25t90 -79q16 -23 25.5 -48.5t13.5 -56t5 -67t1 -80.5zM484 356q0 42 -1 72.5t-4 52t-8.5 36.5t-15.5 27q-35 44 -104 44h-106v-176h116v-106
h-116v-182h106q69 0 104 44q10 12 15.5 27t8.5 36.5t4 52t1 72.5z" />
    <glyph glyph-name="Ntilde" unicode="&#xd1;" horiz-adv-x="711" 
d="M504 0l-282 437v-437h-139v712h124l282 -436v436h139v-712h-124zM536 849q-33 -33 -58.5 -46t-54.5 -13q-23 0 -40 5t-38 18q-14 8 -27.5 13t-28.5 5q-13 0 -25.5 -4.5t-32.5 -24.5l-56 57q32 33 57.5 46t54.5 13q22 0 39 -5t38 -18q15 -9 27.5 -13.5t27.5 -4.5
q13 0 26 4.5t33 24.5z" />
    <glyph glyph-name="Ograve" unicode="&#xd2;" horiz-adv-x="644" 
d="M585 356q0 -51 -1.5 -92t-8.5 -75.5t-21.5 -63.5t-41.5 -56q-36 -36 -82 -55.5t-108 -19.5t-108.5 19.5t-82.5 55.5q-27 27 -41.5 56t-21 63.5t-8 75.5t-1.5 92t1.5 92t8 75.5t21 63.5t41.5 56q36 36 82.5 55.5t108.5 19.5t108 -19.5t82 -55.5q27 -27 41.5 -56
t21.5 -63.5t8.5 -75.5t1.5 -92zM446 356q0 51 -2 84.5t-6 55.5t-10.5 35.5t-16.5 24.5q-15 17 -37.5 27.5t-51.5 10.5t-51.5 -10.5t-38.5 -27.5q-10 -11 -16.5 -24.5t-10.5 -35.5t-5.5 -55.5t-1.5 -84.5t1.5 -84.5t5.5 -55t10.5 -35t16.5 -24.5q16 -17 38.5 -28t51.5 -11
t51.5 11t37.5 28q10 11 16.5 24.5t10.5 35t6 55t2 84.5zM290 781l-114 170h137l64 -170h-87z" />
    <glyph glyph-name="Oacute" unicode="&#xd3;" horiz-adv-x="644" 
d="M585 356q0 -51 -1.5 -92t-8.5 -75.5t-21.5 -63.5t-41.5 -56q-36 -36 -82 -55.5t-108 -19.5t-108.5 19.5t-82.5 55.5q-27 27 -41.5 56t-21 63.5t-8 75.5t-1.5 92t1.5 92t8 75.5t21 63.5t41.5 56q36 36 82.5 55.5t108.5 19.5t108 -19.5t82 -55.5q27 -27 41.5 -56
t21.5 -63.5t8.5 -75.5t1.5 -92zM446 356q0 51 -2 84.5t-6 55.5t-10.5 35.5t-16.5 24.5q-15 17 -37.5 27.5t-51.5 10.5t-51.5 -10.5t-38.5 -27.5q-10 -11 -16.5 -24.5t-10.5 -35.5t-5.5 -55.5t-1.5 -84.5t1.5 -84.5t5.5 -55t10.5 -35t16.5 -24.5q16 -17 38.5 -28t51.5 -11
t51.5 11t37.5 28q10 11 16.5 24.5t10.5 35t6 55t2 84.5zM354 781h-87l64 170h137z" />
    <glyph glyph-name="Ocircumflex" unicode="&#xd4;" horiz-adv-x="644" 
d="M585 356q0 -51 -1.5 -92t-8.5 -75.5t-21.5 -63.5t-41.5 -56q-36 -36 -82 -55.5t-108 -19.5t-108.5 19.5t-82.5 55.5q-27 27 -41.5 56t-21 63.5t-8 75.5t-1.5 92t1.5 92t8 75.5t21 63.5t41.5 56q36 36 82.5 55.5t108.5 19.5t108 -19.5t82 -55.5q27 -27 41.5 -56
t21.5 -63.5t8.5 -75.5t1.5 -92zM446 356q0 51 -2 84.5t-6 55.5t-10.5 35.5t-16.5 24.5q-15 17 -37.5 27.5t-51.5 10.5t-51.5 -10.5t-38.5 -27.5q-10 -11 -16.5 -24.5t-10.5 -35.5t-5.5 -55.5t-1.5 -84.5t1.5 -84.5t5.5 -55t10.5 -35t16.5 -24.5q16 -17 38.5 -28t51.5 -11
t51.5 11t37.5 28q10 11 16.5 24.5t10.5 35t6 55t2 84.5zM405 781l-83 91l-83 -91h-101l132 169h104l132 -169h-101z" />
    <glyph glyph-name="Otilde" unicode="&#xd5;" horiz-adv-x="644" 
d="M585 356q0 -51 -1.5 -92t-8.5 -75.5t-21.5 -63.5t-41.5 -56q-36 -36 -82 -55.5t-108 -19.5t-108.5 19.5t-82.5 55.5q-27 27 -41.5 56t-21 63.5t-8 75.5t-1.5 92t1.5 92t8 75.5t21 63.5t41.5 56q36 36 82.5 55.5t108.5 19.5t108 -19.5t82 -55.5q27 -27 41.5 -56
t21.5 -63.5t8.5 -75.5t1.5 -92zM446 356q0 51 -2 84.5t-6 55.5t-10.5 35.5t-16.5 24.5q-15 17 -37.5 27.5t-51.5 10.5t-51.5 -10.5t-38.5 -27.5q-10 -11 -16.5 -24.5t-10.5 -35.5t-5.5 -55.5t-1.5 -84.5t1.5 -84.5t5.5 -55t10.5 -35t16.5 -24.5q16 -17 38.5 -28t51.5 -11
t51.5 11t37.5 28q10 11 16.5 24.5t10.5 35t6 55t2 84.5zM502 849q-33 -33 -58.5 -46t-54.5 -13q-23 0 -40 5t-38 18q-14 8 -27.5 13t-28.5 5q-13 0 -25.5 -4.5t-32.5 -24.5l-56 57q32 33 57.5 46t54.5 13q22 0 39 -5t38 -18q15 -9 27.5 -13.5t27.5 -4.5q13 0 26 4.5t33 24.5
z" />
    <glyph glyph-name="Odieresis" unicode="&#xd6;" horiz-adv-x="644" 
d="M585 356q0 -51 -1.5 -92t-8.5 -75.5t-21.5 -63.5t-41.5 -56q-36 -36 -82 -55.5t-108 -19.5t-108.5 19.5t-82.5 55.5q-27 27 -41.5 56t-21 63.5t-8 75.5t-1.5 92t1.5 92t8 75.5t21 63.5t41.5 56q36 36 82.5 55.5t108.5 19.5t108 -19.5t82 -55.5q27 -27 41.5 -56
t21.5 -63.5t8.5 -75.5t1.5 -92zM446 356q0 51 -2 84.5t-6 55.5t-10.5 35.5t-16.5 24.5q-15 17 -37.5 27.5t-51.5 10.5t-51.5 -10.5t-38.5 -27.5q-10 -11 -16.5 -24.5t-10.5 -35.5t-5.5 -55.5t-1.5 -84.5t1.5 -84.5t5.5 -55t10.5 -35t16.5 -24.5q16 -17 38.5 -28t51.5 -11
t51.5 11t37.5 28q10 11 16.5 24.5t10.5 35t6 55t2 84.5zM377 783v125h111v-125h-111zM156 783v125h111v-125h-111z" />
    <glyph glyph-name="multiply" unicode="&#xd7;" 
d="M412 63l-141 141l-140 -141l-82 82l141 141l-141 141l82 82l140 -141l141 141l82 -82l-141 -141l141 -141z" />
    <glyph glyph-name="Oslash" unicode="&#xd8;" horiz-adv-x="644" 
d="M585 356q0 -51 -1.5 -92t-8.5 -75.5t-21.5 -63.5t-41.5 -56q-36 -36 -82 -55.5t-108 -19.5q-65 0 -113 21l-29 -59h-99l53 110l-3 3q-27 27 -41.5 56t-21 63.5t-8 75.5t-1.5 92t1.5 92t8 75.5t21 63.5t41.5 56q36 36 82.5 55.5t108.5 19.5q32 0 60 -5.5t53 -16.5l29 60
h98l-53 -110l3 -3q27 -27 41.5 -56t21.5 -63.5t8.5 -75.5t1.5 -92zM446 356q0 58 -2.5 93t-7.5 57l-178 -371q28 -17 64 -17q29 0 51.5 11t37.5 28q10 11 16.5 24.5t10.5 35t6 55t2 84.5zM198 356q0 -58 2 -93t7 -57l178 371q-28 17 -63 17q-29 0 -51.5 -10.5t-38.5 -27.5
q-10 -11 -16.5 -24.5t-10.5 -35.5t-5.5 -55.5t-1.5 -84.5z" />
    <glyph glyph-name="Ugrave" unicode="&#xd9;" horiz-adv-x="668" 
d="M596 244q0 -57 -20.5 -103t-56 -78.5t-83 -50.5t-102.5 -18t-102.5 18t-83 50.5t-56 78.5t-20.5 103v468h139v-463q0 -62 33 -96.5t90 -34.5t90.5 34.5t33.5 96.5v463h138v-468zM302 781l-114 170h137l64 -170h-87z" />
    <glyph glyph-name="Uacute" unicode="&#xda;" horiz-adv-x="668" 
d="M596 244q0 -57 -20.5 -103t-56 -78.5t-83 -50.5t-102.5 -18t-102.5 18t-83 50.5t-56 78.5t-20.5 103v468h139v-463q0 -62 33 -96.5t90 -34.5t90.5 34.5t33.5 96.5v463h138v-468zM366 781h-87l64 170h137z" />
    <glyph glyph-name="Ucircumflex" unicode="&#xdb;" horiz-adv-x="668" 
d="M596 244q0 -57 -20.5 -103t-56 -78.5t-83 -50.5t-102.5 -18t-102.5 18t-83 50.5t-56 78.5t-20.5 103v468h139v-463q0 -62 33 -96.5t90 -34.5t90.5 34.5t33.5 96.5v463h138v-468zM417 781l-83 91l-83 -91h-101l132 169h104l132 -169h-101z" />
    <glyph glyph-name="Udieresis" unicode="&#xdc;" horiz-adv-x="668" 
d="M596 244q0 -57 -20.5 -103t-56 -78.5t-83 -50.5t-102.5 -18t-102.5 18t-83 50.5t-56 78.5t-20.5 103v468h139v-463q0 -62 33 -96.5t90 -34.5t90.5 34.5t33.5 96.5v463h138v-468zM389 783v125h111v-125h-111zM168 783v125h111v-125h-111z" />
    <glyph glyph-name="Yacute" unicode="&#xdd;" horiz-adv-x="572" 
d="M355 292v-292h-138v292l-214 420h151l133 -287l131 287h151zM318 781h-87l64 170h137z" />
    <glyph glyph-name="Thorn" unicode="&#xde;" horiz-adv-x="633" 
d="M594 360q0 -45 -16 -85.5t-46.5 -71t-74 -48t-98.5 -17.5h-137v-138h-139v712h139v-131h137q55 0 98.5 -17.5t74 -47.5t46.5 -70.5t16 -85.5zM455 360q0 44 -27.5 70.5t-75.5 26.5h-130v-195h130q48 0 75.5 27t27.5 71z" />
    <glyph glyph-name="germandbls" unicode="&#xdf;" horiz-adv-x="574" 
d="M516 161q0 -76 -41 -119q-19 -20 -49.5 -31t-76.5 -11h-52v110h26q16 0 26 3.5t18 11.5q18 15 18 47v144q0 30 -15 45q-15 16 -45 16h-28v102h28q24 0 42 14t18 46q0 28 -19 46q-23 20 -70 20q-53 0 -73 -24.5t-20 -69.5v-511h-130v521q0 52 17 89.5t47 61.5t71.5 35
t89.5 11q47 0 87 -10.5t69 -32t45 -54.5t16 -78q0 -46 -19 -72.5t-42 -40.5q28 -14 45 -37.5t17 -71.5v-160z" />
    <glyph glyph-name="agrave" unicode="&#xe0;" horiz-adv-x="534" 
d="M340 0v45q-26 -26 -54.5 -38t-73.5 -12q-87 0 -133 46q-21 22 -32 52t-11 65q0 31 11 58.5t33 48t56 32.5t80 12h121v26q0 43 -22.5 62.5t-74.5 19.5q-35 0 -57 -10.5t-43 -34.5l-82 81q38 42 80 58t107 16q222 0 222 -184v-343h-127zM337 220h-99q-77 0 -77 -60
q0 -27 19 -43t60 -16q24 0 42 4.5t35 20.5q11 10 15.5 25.5t4.5 40.5v28zM230 604l-114 170h137l64 -170h-87z" />
    <glyph glyph-name="aacute" unicode="&#xe1;" horiz-adv-x="534" 
d="M340 0v45q-26 -26 -54.5 -38t-73.5 -12q-87 0 -133 46q-21 22 -32 52t-11 65q0 31 11 58.5t33 48t56 32.5t80 12h121v26q0 43 -22.5 62.5t-74.5 19.5q-35 0 -57 -10.5t-43 -34.5l-82 81q38 42 80 58t107 16q222 0 222 -184v-343h-127zM337 220h-99q-77 0 -77 -60
q0 -27 19 -43t60 -16q24 0 42 4.5t35 20.5q11 10 15.5 25.5t4.5 40.5v28zM294 604h-87l64 170h137z" />
    <glyph glyph-name="acircumflex" unicode="&#xe2;" horiz-adv-x="534" 
d="M340 0v45q-26 -26 -54.5 -38t-73.5 -12q-87 0 -133 46q-21 22 -32 52t-11 65q0 31 11 58.5t33 48t56 32.5t80 12h121v26q0 43 -22.5 62.5t-74.5 19.5q-35 0 -57 -10.5t-43 -34.5l-82 81q38 42 80 58t107 16q222 0 222 -184v-343h-127zM337 220h-99q-77 0 -77 -60
q0 -27 19 -43t60 -16q24 0 42 4.5t35 20.5q11 10 15.5 25.5t4.5 40.5v28zM345 604l-83 91l-83 -91h-101l132 169h104l132 -169h-101z" />
    <glyph glyph-name="atilde" unicode="&#xe3;" horiz-adv-x="534" 
d="M340 0v45q-26 -26 -54.5 -38t-73.5 -12q-87 0 -133 46q-21 22 -32 52t-11 65q0 31 11 58.5t33 48t56 32.5t80 12h121v26q0 43 -22.5 62.5t-74.5 19.5q-35 0 -57 -10.5t-43 -34.5l-82 81q38 42 80 58t107 16q222 0 222 -184v-343h-127zM337 220h-99q-77 0 -77 -60
q0 -27 19 -43t60 -16q24 0 42 4.5t35 20.5q11 10 15.5 25.5t4.5 40.5v28zM437 671q-33 -33 -58.5 -45.5t-54.5 -12.5q-22 0 -39 5t-38 17q-14 8 -27.5 13t-28.5 5q-13 0 -25.5 -4t-32.5 -24l-57 57q33 33 58 45.5t54 12.5q23 0 39.5 -4.5t38.5 -17.5q14 -9 27 -14t28 -5
q13 0 25.5 4.5t32.5 24.5z" />
    <glyph glyph-name="adieresis" unicode="&#xe4;" horiz-adv-x="534" 
d="M340 0v45q-26 -26 -54.5 -38t-73.5 -12q-87 0 -133 46q-21 22 -32 52t-11 65q0 31 11 58.5t33 48t56 32.5t80 12h121v26q0 43 -22.5 62.5t-74.5 19.5q-35 0 -57 -10.5t-43 -34.5l-82 81q38 42 80 58t107 16q222 0 222 -184v-343h-127zM337 220h-99q-77 0 -77 -60
q0 -27 19 -43t60 -16q24 0 42 4.5t35 20.5q11 10 15.5 25.5t4.5 40.5v28zM318 606v125h111v-125h-111zM97 606v125h111v-125h-111z" />
    <glyph glyph-name="aring" unicode="&#xe5;" horiz-adv-x="534" 
d="M340 0v45q-26 -26 -54.5 -38t-73.5 -12q-87 0 -133 46q-21 22 -32 52t-11 65q0 31 11 58.5t33 48t56 32.5t80 12h121v26q0 43 -22.5 62.5t-74.5 19.5q-35 0 -57 -10.5t-43 -34.5l-82 81q38 42 80 58t107 16q222 0 222 -184v-343h-127zM337 220h-99q-77 0 -77 -60
q0 -27 19 -43t60 -16q24 0 42 4.5t35 20.5q11 10 15.5 25.5t4.5 40.5v28zM392 715q0 -27 -10.5 -51t-28 -41.5t-41.5 -28t-51 -10.5t-51 10.5t-41.5 28t-28 41.5t-10.5 51t10.5 51t28 41.5t41.5 28t51 10.5t51 -10t41.5 -28t28 -42t10.5 -51zM319 715q0 24 -17 41t-41 17
t-41 -17t-17 -41t17 -41.5t41 -17.5t41 17.5t17 41.5z" />
    <glyph glyph-name="ae" unicode="&#xe6;" horiz-adv-x="838" 
d="M337 220h-99q-77 0 -77 -60q0 -27 19 -43t60 -16q24 0 42 4.5t35 20.5q11 10 15.5 25.5t4.5 40.5v28zM663 309q-1 17 -3 29.5t-9 26.5q-10 23 -32 38.5t-55 15.5t-55 -15.5t-32 -38.5q-7 -14 -9 -26.5t-3 -29.5h198zM395 67q-20 -21 -38.5 -35t-40 -22.5t-46.5 -12
t-58 -3.5q-86 0 -133 47q-21 22 -32 52t-11 65q0 31 11 58.5t33 48t56 32.5t80 12h121v26q0 43 -22.5 62.5t-74.5 19.5q-35 0 -57 -10.5t-43 -34.5l-82 81q38 42 80 58t107 16q118 0 171 -57q26 28 64.5 42.5t83.5 14.5q54 0 96.5 -18.5t71.5 -52t44 -80t15 -101.5v-55h-326
q0 -51 29 -83.5t85 -32.5q43 0 68 12.5t50 36.5l79 -77q-20 -20 -40 -35.5t-43.5 -26t-51.5 -15.5t-63 -5q-53 0 -100.5 16.5t-82.5 56.5z" />
    <glyph glyph-name="ccedilla" unicode="&#xe7;" horiz-adv-x="480" 
d="M452 65q-35 -36 -76.5 -53.5t-95.5 -17.5q-39 0 -80.5 12t-75 42.5t-55.5 82t-22 130.5t22 130.5t55.5 81.5t75 42t80.5 12q54 0 95.5 -17t76.5 -53l-88 -88q-20 22 -39 31.5t-45 9.5q-46 0 -74 -34q-15 -19 -22 -46t-7 -69q0 -80 29 -116q28 -34 74 -34q26 0 45 9.5
t39 31.5zM281 -206h-121l69 146h96z" />
    <glyph glyph-name="egrave" unicode="&#xe8;" horiz-adv-x="548" 
d="M175 220q0 -51 29 -83.5t85 -32.5q43 0 68 12.5t50 36.5l79 -77q-20 -20 -40 -35.5t-43.5 -26t-51.5 -15.5t-63 -5q-46 0 -89.5 12t-77 42.5t-54 82t-20.5 130.5q0 64 16.5 113.5t46.5 83.5t71.5 51.5t92.5 17.5q54 0 96.5 -18.5t71.5 -52t44 -80t15 -101.5v-55h-326z
M373 309q-1 17 -3 29.5t-9 26.5q-11 23 -32.5 38.5t-54.5 15.5t-54.5 -15.5t-32.5 -38.5q-7 -14 -9 -26.5t-3 -29.5h198zM245 604l-114 170h137l64 -170h-87z" />
    <glyph glyph-name="eacute" unicode="&#xe9;" horiz-adv-x="548" 
d="M175 220q0 -51 29 -83.5t85 -32.5q43 0 68 12.5t50 36.5l79 -77q-20 -20 -40 -35.5t-43.5 -26t-51.5 -15.5t-63 -5q-46 0 -89.5 12t-77 42.5t-54 82t-20.5 130.5q0 64 16.5 113.5t46.5 83.5t71.5 51.5t92.5 17.5q54 0 96.5 -18.5t71.5 -52t44 -80t15 -101.5v-55h-326z
M373 309q-1 17 -3 29.5t-9 26.5q-11 23 -32.5 38.5t-54.5 15.5t-54.5 -15.5t-32.5 -38.5q-7 -14 -9 -26.5t-3 -29.5h198zM309 604h-87l64 170h137z" />
    <glyph glyph-name="ecircumflex" unicode="&#xea;" horiz-adv-x="548" 
d="M175 220q0 -51 29 -83.5t85 -32.5q43 0 68 12.5t50 36.5l79 -77q-20 -20 -40 -35.5t-43.5 -26t-51.5 -15.5t-63 -5q-46 0 -89.5 12t-77 42.5t-54 82t-20.5 130.5q0 64 16.5 113.5t46.5 83.5t71.5 51.5t92.5 17.5q54 0 96.5 -18.5t71.5 -52t44 -80t15 -101.5v-55h-326z
M373 309q-1 17 -3 29.5t-9 26.5q-11 23 -32.5 38.5t-54.5 15.5t-54.5 -15.5t-32.5 -38.5q-7 -14 -9 -26.5t-3 -29.5h198zM360 604l-83 91l-83 -91h-101l132 169h104l132 -169h-101z" />
    <glyph glyph-name="edieresis" unicode="&#xeb;" horiz-adv-x="548" 
d="M175 220q0 -51 29 -83.5t85 -32.5q43 0 68 12.5t50 36.5l79 -77q-20 -20 -40 -35.5t-43.5 -26t-51.5 -15.5t-63 -5q-46 0 -89.5 12t-77 42.5t-54 82t-20.5 130.5q0 64 16.5 113.5t46.5 83.5t71.5 51.5t92.5 17.5q54 0 96.5 -18.5t71.5 -52t44 -80t15 -101.5v-55h-326z
M373 309q-1 17 -3 29.5t-9 26.5q-11 23 -32.5 38.5t-54.5 15.5t-54.5 -15.5t-32.5 -38.5q-7 -14 -9 -26.5t-3 -29.5h198zM332 606v125h111v-125h-111zM111 606v125h111v-125h-111z" />
    <glyph glyph-name="igrave" unicode="&#xec;" horiz-adv-x="275" 
d="M73 0v506h130v-506h-130zM116 604l-114 170h137l64 -170h-87z" />
    <glyph glyph-name="iacute" unicode="&#xed;" horiz-adv-x="275" 
d="M73 0v506h130v-506h-130zM160 604h-87l64 170h137z" />
    <glyph glyph-name="icircumflex" unicode="&#xee;" horiz-adv-x="275" 
d="M73 0v506h130v-506h-130zM221 604l-83 91l-83 -91h-101l132 169h104l132 -169h-101z" />
    <glyph glyph-name="idieresis" unicode="&#xef;" horiz-adv-x="275" 
d="M73 0v506h130v-506h-130zM194 606v125h111v-125h-111zM-27 606v125h111v-125h-111z" />
    <glyph glyph-name="eth" unicode="&#xf0;" 
d="M486 254q0 -69 -11.5 -115.5t-46.5 -82.5q-24 -25 -62 -43.5t-95 -18.5t-95 18.5t-62 43.5q-35 36 -46.5 82.5t-11.5 115.5t11.5 115t46.5 82q32 34 89 49q29 8 58 8h9q4 0 9 -1l-34 62h-114v91h68l-31 60h139l31 -60h92v-91h-46l40 -77q18 -36 30 -63.5t19 -54t10 -55
t3 -65.5zM356 254q0 38 -4 69t-23 51q-22 22 -58 22q-35 0 -57 -22q-19 -20 -23.5 -51t-4.5 -69t4.5 -69.5t23.5 -51.5q22 -22 57 -22q36 0 58 22q19 20 23 51.5t4 69.5z" />
    <glyph glyph-name="ntilde" unicode="&#xf1;" horiz-adv-x="573" 
d="M376 0v315q0 27 -7.5 45t-20 29t-28 16t-30.5 5t-30.5 -5t-28 -16t-20.5 -29t-8 -45v-315h-130v521h127v-48q26 27 60 40.5t70 13.5q39 0 70 -12t53 -34q32 -32 42.5 -68.5t10.5 -79.5v-333h-130zM465 671q-33 -33 -58.5 -45.5t-54.5 -12.5q-22 0 -39 5t-38 17
q-14 8 -27.5 13t-28.5 5q-13 0 -25.5 -4t-32.5 -24l-57 57q33 33 58 45.5t54 12.5q23 0 39.5 -4.5t38.5 -17.5q14 -9 27 -14t28 -5q13 0 25.5 4.5t32.5 24.5z" />
    <glyph glyph-name="ograve" unicode="&#xf2;" 
d="M492 261q0 -71 -11.5 -118.5t-47.5 -84.5q-25 -26 -64.5 -45t-97.5 -19t-97 19t-64 45q-35 38 -47 85t-12 118t12 117.5t47 84.5q25 26 64 45t97 19t97.5 -19t64.5 -45q35 -38 47 -84.5t12 -117.5zM362 261q0 40 -5 73t-25 53q-23 23 -61 23q-37 0 -60 -23
q-20 -20 -25 -53t-5 -73q0 -41 5 -74t25 -53q23 -23 60 -23q38 0 61 23q20 20 25 53t5 74zM236 604l-114 170h137l64 -170h-87z" />
    <glyph glyph-name="oacute" unicode="&#xf3;" 
d="M492 261q0 -71 -11.5 -118.5t-47.5 -84.5q-25 -26 -64.5 -45t-97.5 -19t-97 19t-64 45q-35 38 -47 85t-12 118t12 117.5t47 84.5q25 26 64 45t97 19t97.5 -19t64.5 -45q35 -38 47 -84.5t12 -117.5zM362 261q0 40 -5 73t-25 53q-23 23 -61 23q-37 0 -60 -23
q-20 -20 -25 -53t-5 -73q0 -41 5 -74t25 -53q23 -23 60 -23q38 0 61 23q20 20 25 53t5 74zM304 604h-87l64 170h137z" />
    <glyph glyph-name="ocircumflex" unicode="&#xf4;" 
d="M492 261q0 -71 -11.5 -118.5t-47.5 -84.5q-25 -26 -64.5 -45t-97.5 -19t-97 19t-64 45q-35 38 -47 85t-12 118t12 117.5t47 84.5q25 26 64 45t97 19t97.5 -19t64.5 -45q35 -38 47 -84.5t12 -117.5zM362 261q0 40 -5 73t-25 53q-23 23 -61 23q-37 0 -60 -23
q-20 -20 -25 -53t-5 -73q0 -41 5 -74t25 -53q23 -23 60 -23q38 0 61 23q20 20 25 53t5 74zM355 604l-83 91l-83 -91h-101l132 169h104l132 -169h-101z" />
    <glyph glyph-name="otilde" unicode="&#xf5;" 
d="M492 261q0 -71 -11.5 -118.5t-47.5 -84.5q-25 -26 -64.5 -45t-97.5 -19t-97 19t-64 45q-35 38 -47 85t-12 118t12 117.5t47 84.5q25 26 64 45t97 19t97.5 -19t64.5 -45q35 -38 47 -84.5t12 -117.5zM362 261q0 40 -5 73t-25 53q-23 23 -61 23q-37 0 -60 -23
q-20 -20 -25 -53t-5 -73q0 -41 5 -74t25 -53q23 -23 60 -23q38 0 61 23q20 20 25 53t5 74zM447 671q-33 -33 -58.5 -45.5t-54.5 -12.5q-22 0 -39 5t-38 17q-14 8 -27.5 13t-28.5 5q-13 0 -25.5 -4t-32.5 -24l-57 57q33 33 58 45.5t54 12.5q23 0 39.5 -4.5t38.5 -17.5
q14 -9 27 -14t28 -5q13 0 25.5 4.5t32.5 24.5z" />
    <glyph glyph-name="odieresis" unicode="&#xf6;" 
d="M492 261q0 -71 -11.5 -118.5t-47.5 -84.5q-25 -26 -64.5 -45t-97.5 -19t-97 19t-64 45q-35 38 -47 85t-12 118t12 117.5t47 84.5q25 26 64 45t97 19t97.5 -19t64.5 -45q35 -38 47 -84.5t12 -117.5zM362 261q0 40 -5 73t-25 53q-23 23 -61 23q-37 0 -60 -23
q-20 -20 -25 -53t-5 -73q0 -41 5 -74t25 -53q23 -23 60 -23q38 0 61 23q20 20 25 53t5 74zM327 606v125h111v-125h-111zM106 606v125h111v-125h-111z" />
    <glyph glyph-name="divide" unicode="&#xf7;" 
d="M46 225v121h451v-121h-451zM207 423v130h130v-130h-130zM207 18v130h130v-130h-130z" />
    <glyph glyph-name="oslash" unicode="&#xf8;" 
d="M492 261q0 -71 -12 -118.5t-47 -84.5q-24 -26 -64 -45t-98 -19q-32 0 -57.5 6t-46.5 17l-36 -61h-79l59 101q-37 38 -48.5 85.5t-11.5 118.5t12 118t47 84q24 26 63.5 45t97.5 19q61 0 105 -22l35 60h80l-59 -100q37 -41 48.5 -87.5t11.5 -116.5zM362 261q0 24 -1.5 45.5
t-6.5 39.5l-131 -222q21 -13 48 -13q38 0 61 23q20 20 25 53t5 74zM320 397q-21 13 -49 13q-37 0 -60 -23q-20 -20 -25 -52.5t-5 -73.5q0 -24 1 -46t6 -40z" />
    <glyph glyph-name="ugrave" unicode="&#xf9;" horiz-adv-x="573" 
d="M373 0v48q-26 -27 -60 -40.5t-70 -13.5q-39 0 -70 12t-53 34q-32 32 -42.5 68.5t-10.5 79.5v333h130v-315q0 -27 7.5 -45t20 -29t28 -16t30.5 -5t30.5 5t28 16t20.5 29t8 45v315h130v-521h-127zM251 604l-114 170h137l64 -170h-87z" />
    <glyph glyph-name="uacute" unicode="&#xfa;" horiz-adv-x="573" 
d="M373 0v48q-26 -27 -60 -40.5t-70 -13.5q-39 0 -70 12t-53 34q-32 32 -42.5 68.5t-10.5 79.5v333h130v-315q0 -27 7.5 -45t20 -29t28 -16t30.5 -5t30.5 5t28 16t20.5 29t8 45v315h130v-521h-127zM315 604h-87l64 170h137z" />
    <glyph glyph-name="ucircumflex" unicode="&#xfb;" horiz-adv-x="573" 
d="M373 0v48q-26 -27 -60 -40.5t-70 -13.5q-39 0 -70 12t-53 34q-32 32 -42.5 68.5t-10.5 79.5v333h130v-315q0 -27 7.5 -45t20 -29t28 -16t30.5 -5t30.5 5t28 16t20.5 29t8 45v315h130v-521h-127zM366 604l-83 91l-83 -91h-101l132 169h104l132 -169h-101z" />
    <glyph glyph-name="udieresis" unicode="&#xfc;" horiz-adv-x="573" 
d="M373 0v48q-26 -27 -60 -40.5t-70 -13.5q-39 0 -70 12t-53 34q-32 32 -42.5 68.5t-10.5 79.5v333h130v-315q0 -27 7.5 -45t20 -29t28 -16t30.5 -5t30.5 5t28 16t20.5 29t8 45v315h130v-521h-127zM339 606v125h111v-125h-111zM118 606v125h111v-125h-111z" />
    <glyph glyph-name="yacute" unicode="&#xfd;" horiz-adv-x="494" 
d="M267 -84q-17 -45 -39 -67q-23 -23 -51.5 -31.5t-60.5 -8.5h-51v117h30q28 0 41.5 9t23.5 38l22 64l-178 484h137l108 -322l104 322h137zM277 604h-87l64 170h137z" />
    <glyph glyph-name="thorn" unicode="&#xfe;" horiz-adv-x="562" 
d="M509 261q0 -33 -1.5 -64.5t-7 -59.5t-16 -52.5t-29.5 -43.5q-22 -23 -54.5 -35t-71.5 -12t-70 11.5t-56 40.5v-237h-130v903h130v-237q25 29 56 40.5t70 11.5t71.5 -12t54.5 -35q19 -19 29.5 -43.5t16 -52.5t7 -59t1.5 -64zM379 261q0 31 -3 58.5t-12 47.5t-26.5 31.5
t-46.5 11.5t-46.5 -11.5t-26.5 -31.5t-12 -47.5t-3 -58.5q0 -32 3 -59t12 -47.5t26.5 -32t46.5 -11.5t46.5 11.5t26.5 32t12 47.5t3 59z" />
    <glyph glyph-name="ydieresis" unicode="&#xff;" horiz-adv-x="494" 
d="M267 -84q-17 -45 -39 -67q-23 -23 -51.5 -31.5t-60.5 -8.5h-51v117h30q28 0 41.5 9t23.5 38l22 64l-178 484h137l108 -322l104 322h137zM305 606v125h111v-125h-111zM84 606v125h111v-125h-111z" />
    <glyph glyph-name="Amacron" unicode="&#x100;" horiz-adv-x="638" 
d="M488 0l-42 126h-253l-43 -126h-145l259 712h109l260 -712h-145zM322 502l-90 -259h177zM159 881h317v-88h-317v88z" />
    <glyph glyph-name="amacron" unicode="&#x101;" horiz-adv-x="534" 
d="M340 0v45q-26 -26 -54.5 -38t-73.5 -12q-87 0 -133 46q-21 22 -32 52t-11 65q0 31 11 58.5t33 48t56 32.5t80 12h121v26q0 43 -22.5 62.5t-74.5 19.5q-35 0 -57 -10.5t-43 -34.5l-82 81q38 42 80 58t107 16q222 0 222 -184v-343h-127zM337 220h-99q-77 0 -77 -60
q0 -27 19 -43t60 -16q24 0 42 4.5t35 20.5q11 10 15.5 25.5t4.5 40.5v28zM107 623v88h317v-88h-317z" />
    <glyph glyph-name="Abreve" unicode="&#x102;" horiz-adv-x="638" 
d="M488 0l-42 126h-253l-43 -126h-145l259 712h109l260 -712h-145zM322 502l-90 -259h177zM482 930q-2 -41 -15.5 -69.5t-36 -46.5t-51.5 -26.5t-61 -8.5t-61 8.5t-51.5 26.5t-36.5 46.5t-15 69.5h87q4 -32 26 -46t51 -14t51 14t26 46h87z" />
    <glyph glyph-name="abreve" unicode="&#x103;" horiz-adv-x="534" 
d="M340 0v45q-26 -26 -54.5 -38t-73.5 -12q-87 0 -133 46q-21 22 -32 52t-11 65q0 31 11 58.5t33 48t56 32.5t80 12h121v26q0 43 -22.5 62.5t-74.5 19.5q-35 0 -57 -10.5t-43 -34.5l-82 81q38 42 80 58t107 16q222 0 222 -184v-343h-127zM337 220h-99q-77 0 -77 -60
q0 -27 19 -43t60 -16q24 0 42 4.5t35 20.5q11 10 15.5 25.5t4.5 40.5v28zM419 748q-2 -41 -15.5 -69.5t-36 -46.5t-51.5 -26.5t-61 -8.5t-61 8.5t-51.5 26.5t-36.5 46.5t-15 69.5h87q4 -32 26 -46t51 -14t51 14t26 46h87z" />
    <glyph glyph-name="Aogonek" unicode="&#x104;" horiz-adv-x="638" 
d="M488 0l-42 126h-253l-43 -126h-145l259 712h109l260 -712h-145zM322 502l-90 -259h177zM540 -206h-121l69 146h96z" />
    <glyph glyph-name="aogonek" unicode="&#x105;" horiz-adv-x="534" 
d="M340 0v45q-26 -26 -54.5 -38t-73.5 -12q-87 0 -133 46q-21 22 -32 52t-11 65q0 31 11 58.5t33 48t56 32.5t80 12h121v26q0 43 -22.5 62.5t-74.5 19.5q-35 0 -57 -10.5t-43 -34.5l-82 81q38 42 80 58t107 16q222 0 222 -184v-343h-127zM337 220h-99q-77 0 -77 -60
q0 -27 19 -43t60 -16q24 0 42 4.5t35 20.5q11 10 15.5 25.5t4.5 40.5v28zM392 -206h-121l69 146h96z" />
    <glyph glyph-name="Cacute" unicode="&#x106;" horiz-adv-x="620" 
d="M583 219q-20 -112 -90.5 -168.5t-170.5 -56.5q-62 0 -108 19.5t-83 55.5q-27 27 -41.5 56t-21 63.5t-8 75.5t-1.5 92t1.5 92t8 75.5t21 63.5t41.5 56q37 36 83 55.5t108 19.5q100 0 170.5 -56.5t90.5 -168.5h-142q-11 44 -39 72.5t-80 28.5q-29 0 -51.5 -10t-37.5 -27
q-10 -11 -16.5 -25t-10.5 -36t-6 -55.5t-2 -84.5t2 -84.5t6 -55.5t10.5 -36t16.5 -25q15 -17 37.5 -27t51.5 -10q52 0 80.5 28.5t39.5 72.5h141zM343 781h-87l64 170h137z" />
    <glyph glyph-name="cacute" unicode="&#x107;" horiz-adv-x="480" 
d="M452 65q-35 -36 -76.5 -53.5t-95.5 -17.5q-39 0 -80.5 12t-75 42.5t-55.5 82t-22 130.5t22 130.5t55.5 81.5t75 42t80.5 12q54 0 95.5 -17t76.5 -53l-88 -88q-20 22 -39 31.5t-45 9.5q-46 0 -74 -34q-15 -19 -22 -46t-7 -69q0 -80 29 -116q28 -34 74 -34q26 0 45 9.5
t39 31.5zM298 604h-87l64 170h137z" />
    <glyph glyph-name="Ccircumflex" unicode="&#x108;" horiz-adv-x="620" 
d="M583 219q-20 -112 -90.5 -168.5t-170.5 -56.5q-62 0 -108 19.5t-83 55.5q-27 27 -41.5 56t-21 63.5t-8 75.5t-1.5 92t1.5 92t8 75.5t21 63.5t41.5 56q37 36 83 55.5t108 19.5q100 0 170.5 -56.5t90.5 -168.5h-142q-11 44 -39 72.5t-80 28.5q-29 0 -51.5 -10t-37.5 -27
q-10 -11 -16.5 -25t-10.5 -36t-6 -55.5t-2 -84.5t2 -84.5t6 -55.5t10.5 -36t16.5 -25q15 -17 37.5 -27t51.5 -10q52 0 80.5 28.5t39.5 72.5h141zM405 781l-83 91l-83 -91h-101l132 169h104l132 -169h-101z" />
    <glyph glyph-name="ccircumflex" unicode="&#x109;" horiz-adv-x="480" 
d="M452 65q-35 -36 -76.5 -53.5t-95.5 -17.5q-39 0 -80.5 12t-75 42.5t-55.5 82t-22 130.5t22 130.5t55.5 81.5t75 42t80.5 12q54 0 95.5 -17t76.5 -53l-88 -88q-20 22 -39 31.5t-45 9.5q-46 0 -74 -34q-15 -19 -22 -46t-7 -69q0 -80 29 -116q28 -34 74 -34q26 0 45 9.5
t39 31.5zM363 604l-83 91l-83 -91h-101l132 169h104l132 -169h-101z" />
    <glyph glyph-name="Cdotaccent" unicode="&#x10a;" horiz-adv-x="620" 
d="M583 219q-20 -112 -90.5 -168.5t-170.5 -56.5q-62 0 -108 19.5t-83 55.5q-27 27 -41.5 56t-21 63.5t-8 75.5t-1.5 92t1.5 92t8 75.5t21 63.5t41.5 56q37 36 83 55.5t108 19.5q100 0 170.5 -56.5t90.5 -168.5h-142q-11 44 -39 72.5t-80 28.5q-29 0 -51.5 -10t-37.5 -27
q-10 -11 -16.5 -25t-10.5 -36t-6 -55.5t-2 -84.5t2 -84.5t6 -55.5t10.5 -36t16.5 -25q15 -17 37.5 -27t51.5 -10q52 0 80.5 28.5t39.5 72.5h141zM261 905h115v-116h-115v116z" />
    <glyph glyph-name="cdotaccent" unicode="&#x10b;" horiz-adv-x="480" 
d="M452 65q-35 -36 -76.5 -53.5t-95.5 -17.5q-39 0 -80.5 12t-75 42.5t-55.5 82t-22 130.5t22 130.5t55.5 81.5t75 42t80.5 12q54 0 95.5 -17t76.5 -53l-88 -88q-20 22 -39 31.5t-45 9.5q-46 0 -74 -34q-15 -19 -22 -46t-7 -69q0 -80 29 -116q28 -34 74 -34q26 0 45 9.5
t39 31.5zM222 727h115v-115h-115v115z" />
    <glyph glyph-name="Ccaron" unicode="&#x10c;" horiz-adv-x="620" 
d="M583 219q-20 -112 -90.5 -168.5t-170.5 -56.5q-62 0 -108 19.5t-83 55.5q-27 27 -41.5 56t-21 63.5t-8 75.5t-1.5 92t1.5 92t8 75.5t21 63.5t41.5 56q37 36 83 55.5t108 19.5q100 0 170.5 -56.5t90.5 -168.5h-142q-11 44 -39 72.5t-80 28.5q-29 0 -51.5 -10t-37.5 -27
q-10 -11 -16.5 -25t-10.5 -36t-6 -55.5t-2 -84.5t2 -84.5t6 -55.5t10.5 -36t16.5 -25q15 -17 37.5 -27t51.5 -10q52 0 80.5 28.5t39.5 72.5h141zM374 781h-104l-132 169h101l83 -90l83 90h101z" />
    <glyph glyph-name="ccaron" unicode="&#x10d;" horiz-adv-x="480" 
d="M452 65q-35 -36 -76.5 -53.5t-95.5 -17.5q-39 0 -80.5 12t-75 42.5t-55.5 82t-22 130.5t22 130.5t55.5 81.5t75 42t80.5 12q54 0 95.5 -17t76.5 -53l-88 -88q-20 22 -39 31.5t-45 9.5q-46 0 -74 -34q-15 -19 -22 -46t-7 -69q0 -80 29 -116q28 -34 74 -34q26 0 45 9.5
t39 31.5zM332 604h-104l-132 169h101l83 -90l83 90h101z" />
    <glyph glyph-name="Dcaron" unicode="&#x10e;" horiz-adv-x="659" 
d="M600 356q0 -44 -1 -80.5t-5 -67t-13.5 -56t-25.5 -48.5q-38 -54 -90 -79t-125 -25h-257v712h257q73 0 125 -25t90 -79q16 -23 25.5 -48.5t13.5 -56t5 -67t1 -80.5zM461 356q0 42 -1 72.5t-4 52t-8.5 36.5t-15.5 27q-35 44 -104 44h-106v-464h106q69 0 104 44
q10 12 15.5 27t8.5 36.5t4 52t1 72.5zM381 781h-104l-132 169h101l83 -90l83 90h101z" />
    <glyph glyph-name="dcaron" unicode="&#x10f;" horiz-adv-x="561" 
d="M361 0v49q-27 -30 -57 -42.5t-72 -12.5q-39 0 -72 12t-55 35q-19 19 -29.5 43.5t-16 52.5t-7 59.5t-1.5 64.5t1.5 64t7 59t16 52.5t29.5 43.5q22 23 54.5 35t71.5 12q40 0 70.5 -11.5t56.5 -40.5v237h130v-712h-127zM358 261q0 31 -3 58.5t-12.5 47.5t-27 31.5
t-46.5 11.5t-46.5 -11.5t-26.5 -31.5t-12 -47.5t-3 -58.5q0 -32 3 -59t12 -47.5t26.5 -32t46.5 -11.5t46.5 11.5t27 32t12.5 47.5t3 59zM638 575h-91l36 166h115z" />
    <glyph glyph-name="Dcroat" unicode="&#x110;" horiz-adv-x="682" 
d="M623 356q0 -44 -1 -80.5t-5 -67t-13.5 -56t-25.5 -48.5q-38 -54 -90 -79t-125 -25h-257v306h-69v106h69v300h257q73 0 125 -25t90 -79q16 -23 25.5 -48.5t13.5 -56t5 -67t1 -80.5zM484 356q0 42 -1 72.5t-4 52t-8.5 36.5t-15.5 27q-35 44 -104 44h-106v-176h116v-106
h-116v-182h106q69 0 104 44q10 12 15.5 27t8.5 36.5t4 52t1 72.5z" />
    <glyph glyph-name="dcroat" unicode="&#x111;" horiz-adv-x="581" 
d="M361 0v49q-27 -30 -57 -42.5t-72 -12.5q-39 0 -72 12t-55 35q-19 19 -29.5 43.5t-16 52.5t-7 59.5t-1.5 64.5t1.5 64t7 59t16 52.5t29.5 43.5q22 23 54.5 35t71.5 12q40 0 70.5 -11.5t56.5 -40.5v92h-89v82h89v63h130v-63h60v-82h-60v-567h-127zM358 261q0 31 -3 58.5
t-12.5 47.5t-27 31.5t-46.5 11.5t-46.5 -11.5t-26.5 -31.5t-12 -47.5t-3 -58.5q0 -32 3 -59t12 -47.5t26.5 -32t46.5 -11.5t46.5 11.5t27 32t12.5 47.5t3 59z" />
    <glyph glyph-name="Emacron" unicode="&#x112;" horiz-adv-x="605" 
d="M83 0v712h469v-124h-330v-167h281v-124h-281v-173h330v-124h-469zM148 881h317v-88h-317v88z" />
    <glyph glyph-name="emacron" unicode="&#x113;" horiz-adv-x="548" 
d="M175 220q0 -51 29 -83.5t85 -32.5q43 0 68 12.5t50 36.5l79 -77q-20 -20 -40 -35.5t-43.5 -26t-51.5 -15.5t-63 -5q-46 0 -89.5 12t-77 42.5t-54 82t-20.5 130.5q0 64 16.5 113.5t46.5 83.5t71.5 51.5t92.5 17.5q54 0 96.5 -18.5t71.5 -52t44 -80t15 -101.5v-55h-326z
M373 309q-1 17 -3 29.5t-9 26.5q-11 23 -32.5 38.5t-54.5 15.5t-54.5 -15.5t-32.5 -38.5q-7 -14 -9 -26.5t-3 -29.5h198zM114 623v88h317v-88h-317z" />
    <glyph glyph-name="Ebreve" unicode="&#x114;" horiz-adv-x="605" 
d="M83 0v712h469v-124h-330v-167h281v-124h-281v-173h330v-124h-469zM474 930q-2 -41 -15.5 -69.5t-36 -46.5t-51.5 -26.5t-61 -8.5t-61 8.5t-51.5 26.5t-36.5 46.5t-15 69.5h87q4 -32 26 -46t51 -14t51 14t26 46h87z" />
    <glyph glyph-name="ebreve" unicode="&#x115;" horiz-adv-x="548" 
d="M175 220q0 -51 29 -83.5t85 -32.5q43 0 68 12.5t50 36.5l79 -77q-20 -20 -40 -35.5t-43.5 -26t-51.5 -15.5t-63 -5q-46 0 -89.5 12t-77 42.5t-54 82t-20.5 130.5q0 64 16.5 113.5t46.5 83.5t71.5 51.5t92.5 17.5q54 0 96.5 -18.5t71.5 -52t44 -80t15 -101.5v-55h-326z
M373 309q-1 17 -3 29.5t-9 26.5q-11 23 -32.5 38.5t-54.5 15.5t-54.5 -15.5t-32.5 -38.5q-7 -14 -9 -26.5t-3 -29.5h198zM441 748q-2 -41 -15.5 -69.5t-36 -46.5t-51.5 -26.5t-61 -8.5t-61 8.5t-51.5 26.5t-36.5 46.5t-15 69.5h87q4 -32 26 -46t51 -14t51 14t26 46h87z" />
    <glyph glyph-name="Edotaccent" unicode="&#x116;" horiz-adv-x="605" 
d="M83 0v712h469v-124h-330v-167h281v-124h-281v-173h330v-124h-469zM249 905h115v-116h-115v116z" />
    <glyph glyph-name="edotaccent" unicode="&#x117;" horiz-adv-x="548" 
d="M175 220q0 -51 29 -83.5t85 -32.5q43 0 68 12.5t50 36.5l79 -77q-20 -20 -40 -35.5t-43.5 -26t-51.5 -15.5t-63 -5q-46 0 -89.5 12t-77 42.5t-54 82t-20.5 130.5q0 64 16.5 113.5t46.5 83.5t71.5 51.5t92.5 17.5q54 0 96.5 -18.5t71.5 -52t44 -80t15 -101.5v-55h-326z
M373 309q-1 17 -3 29.5t-9 26.5q-11 23 -32.5 38.5t-54.5 15.5t-54.5 -15.5t-32.5 -38.5q-7 -14 -9 -26.5t-3 -29.5h198zM215 727h115v-115h-115v115z" />
    <glyph glyph-name="Eogonek" unicode="&#x118;" horiz-adv-x="605" 
d="M83 0v712h469v-124h-330v-167h281v-124h-281v-173h330v-124h-469zM508 -206h-121l69 146h96z" />
    <glyph glyph-name="eogonek" unicode="&#x119;" horiz-adv-x="548" 
d="M175 220q0 -51 29 -83.5t85 -32.5q43 0 68 12.5t50 36.5l79 -77q-20 -20 -40 -35.5t-43.5 -26t-51.5 -15.5t-63 -5q-46 0 -89.5 12t-77 42.5t-54 82t-20.5 130.5q0 64 16.5 113.5t46.5 83.5t71.5 51.5t92.5 17.5q54 0 96.5 -18.5t71.5 -52t44 -80t15 -101.5v-55h-326z
M373 309q-1 17 -3 29.5t-9 26.5q-11 23 -32.5 38.5t-54.5 15.5t-54.5 -15.5t-32.5 -38.5q-7 -14 -9 -26.5t-3 -29.5h198zM363 -206h-121l69 146h96z" />
    <glyph glyph-name="Ecaron" unicode="&#x11a;" horiz-adv-x="605" 
d="M83 0v712h469v-124h-330v-167h281v-124h-281v-173h330v-124h-469zM358 781h-104l-132 169h101l83 -90l83 90h101z" />
    <glyph glyph-name="ecaron" unicode="&#x11b;" horiz-adv-x="548" 
d="M175 220q0 -51 29 -83.5t85 -32.5q43 0 68 12.5t50 36.5l79 -77q-20 -20 -40 -35.5t-43.5 -26t-51.5 -15.5t-63 -5q-46 0 -89.5 12t-77 42.5t-54 82t-20.5 130.5q0 64 16.5 113.5t46.5 83.5t71.5 51.5t92.5 17.5q54 0 96.5 -18.5t71.5 -52t44 -80t15 -101.5v-55h-326z
M373 309q-1 17 -3 29.5t-9 26.5q-11 23 -32.5 38.5t-54.5 15.5t-54.5 -15.5t-32.5 -38.5q-7 -14 -9 -26.5t-3 -29.5h198zM326 604h-104l-132 169h101l83 -90l83 90h101z" />
    <glyph glyph-name="Gcircumflex" unicode="&#x11c;" horiz-adv-x="649" 
d="M590 292q0 -77 -14.5 -127t-53.5 -90q-45 -47 -94.5 -64t-106.5 -17q-61 0 -107 19.5t-83 55.5q-27 27 -41.5 56t-21 63.5t-8 75.5t-1.5 92t1.5 92t8 75.5t21 63.5t41.5 56q37 36 83 55.5t107 19.5q62 0 109 -19t80 -50.5t52.5 -72.5t26.5 -86h-140q-24 104 -128 104
q-29 0 -51 -10.5t-38 -27.5q-10 -11 -16.5 -24.5t-10.5 -35.5t-5.5 -55.5t-1.5 -84.5t1.5 -84.5t5.5 -55.5t10.5 -36t16.5 -25q16 -17 38 -27t51 -10q32 0 57 10.5t42 29.5q17 20 24.5 43.5t7.5 51.5v26h-131v117h269v-104zM405 781l-83 91l-83 -91h-101l132 169h104
l132 -169h-101z" />
    <glyph glyph-name="gcircumflex" unicode="&#x11d;" horiz-adv-x="555" 
d="M482 19q0 -47 -16 -86.5t-46 -68.5t-72.5 -45t-94.5 -16q-60 0 -104 14.5t-85 53.5l81 82q22 -21 45.5 -30.5t56.5 -9.5q29 0 49 9.5t32.5 24.5t18 34.5t5.5 39.5v53q-26 -29 -56 -40.5t-68 -11.5t-70 12t-54 34q-18 18 -29 40t-16 47.5t-6.5 55.5t-1.5 64t1.5 63.5
t6.5 55t16 47.5t29 40q22 22 54.5 34t70.5 12q42 0 71 -12.5t56 -42.5v49h126v-502zM352 275q0 26 -2.5 50.5t-11.5 43t-26 30t-46 11.5t-46 -11.5t-25.5 -30t-11 -43t-2.5 -50.5t2.5 -50.5t11 -43.5t25.5 -30.5t46 -11.5t46 11.5t26 30.5t11.5 43.5t2.5 50.5zM350 604
l-83 91l-83 -91h-101l132 169h104l132 -169h-101z" />
    <glyph glyph-name="Gbreve" unicode="&#x11e;" horiz-adv-x="649" 
d="M590 292q0 -77 -14.5 -127t-53.5 -90q-45 -47 -94.5 -64t-106.5 -17q-61 0 -107 19.5t-83 55.5q-27 27 -41.5 56t-21 63.5t-8 75.5t-1.5 92t1.5 92t8 75.5t21 63.5t41.5 56q37 36 83 55.5t107 19.5q62 0 109 -19t80 -50.5t52.5 -72.5t26.5 -86h-140q-24 104 -128 104
q-29 0 -51 -10.5t-38 -27.5q-10 -11 -16.5 -24.5t-10.5 -35.5t-5.5 -55.5t-1.5 -84.5t1.5 -84.5t5.5 -55.5t10.5 -36t16.5 -25q16 -17 38 -27t51 -10q32 0 57 10.5t42 29.5q17 20 24.5 43.5t7.5 51.5v26h-131v117h269v-104zM485 930q-2 -41 -15.5 -69.5t-36 -46.5
t-51.5 -26.5t-61 -8.5t-61 8.5t-51.5 26.5t-36.5 46.5t-15 69.5h87q4 -32 26 -46t51 -14t51 14t26 46h87z" />
    <glyph glyph-name="gbreve" unicode="&#x11f;" horiz-adv-x="555" 
d="M482 19q0 -47 -16 -86.5t-46 -68.5t-72.5 -45t-94.5 -16q-60 0 -104 14.5t-85 53.5l81 82q22 -21 45.5 -30.5t56.5 -9.5q29 0 49 9.5t32.5 24.5t18 34.5t5.5 39.5v53q-26 -29 -56 -40.5t-68 -11.5t-70 12t-54 34q-18 18 -29 40t-16 47.5t-6.5 55.5t-1.5 64t1.5 63.5
t6.5 55t16 47.5t29 40q22 22 54.5 34t70.5 12q42 0 71 -12.5t56 -42.5v49h126v-502zM352 275q0 26 -2.5 50.5t-11.5 43t-26 30t-46 11.5t-46 -11.5t-25.5 -30t-11 -43t-2.5 -50.5t2.5 -50.5t11 -43.5t25.5 -30.5t46 -11.5t46 11.5t26 30.5t11.5 43.5t2.5 50.5zM430 748
q-2 -41 -15.5 -69.5t-36 -46.5t-51.5 -26.5t-61 -8.5t-61 8.5t-51.5 26.5t-36.5 46.5t-15 69.5h87q4 -32 26 -46t51 -14t51 14t26 46h87z" />
    <glyph glyph-name="Gdotaccent" unicode="&#x120;" horiz-adv-x="649" 
d="M590 292q0 -77 -14.5 -127t-53.5 -90q-45 -47 -94.5 -64t-106.5 -17q-61 0 -107 19.5t-83 55.5q-27 27 -41.5 56t-21 63.5t-8 75.5t-1.5 92t1.5 92t8 75.5t21 63.5t41.5 56q37 36 83 55.5t107 19.5q62 0 109 -19t80 -50.5t52.5 -72.5t26.5 -86h-140q-24 104 -128 104
q-29 0 -51 -10.5t-38 -27.5q-10 -11 -16.5 -24.5t-10.5 -35.5t-5.5 -55.5t-1.5 -84.5t1.5 -84.5t5.5 -55.5t10.5 -36t16.5 -25q16 -17 38 -27t51 -10q32 0 57 10.5t42 29.5q17 20 24.5 43.5t7.5 51.5v26h-131v117h269v-104zM263 905h115v-116h-115v116z" />
    <glyph glyph-name="gdotaccent" unicode="&#x121;" horiz-adv-x="555" 
d="M482 19q0 -47 -16 -86.5t-46 -68.5t-72.5 -45t-94.5 -16q-60 0 -104 14.5t-85 53.5l81 82q22 -21 45.5 -30.5t56.5 -9.5q29 0 49 9.5t32.5 24.5t18 34.5t5.5 39.5v53q-26 -29 -56 -40.5t-68 -11.5t-70 12t-54 34q-18 18 -29 40t-16 47.5t-6.5 55.5t-1.5 64t1.5 63.5
t6.5 55t16 47.5t29 40q22 22 54.5 34t70.5 12q42 0 71 -12.5t56 -42.5v49h126v-502zM352 275q0 26 -2.5 50.5t-11.5 43t-26 30t-46 11.5t-46 -11.5t-25.5 -30t-11 -43t-2.5 -50.5t2.5 -50.5t11 -43.5t25.5 -30.5t46 -11.5t46 11.5t26 30.5t11.5 43.5t2.5 50.5zM208 727h115
v-115h-115v115z" />
    <glyph glyph-name="Gcommaaccent" unicode="&#x122;" horiz-adv-x="649" 
d="M590 292q0 -77 -14.5 -127t-53.5 -90q-45 -47 -94.5 -64t-106.5 -17q-61 0 -107 19.5t-83 55.5q-27 27 -41.5 56t-21 63.5t-8 75.5t-1.5 92t1.5 92t8 75.5t21 63.5t41.5 56q37 36 83 55.5t107 19.5q62 0 109 -19t80 -50.5t52.5 -72.5t26.5 -86h-140q-24 104 -128 104
q-29 0 -51 -10.5t-38 -27.5q-10 -11 -16.5 -24.5t-10.5 -35.5t-5.5 -55.5t-1.5 -84.5t1.5 -84.5t5.5 -55.5t10.5 -36t16.5 -25q16 -17 38 -27t51 -10q32 0 57 10.5t42 29.5q17 20 24.5 43.5t7.5 51.5v26h-131v117h269v-104zM355 -206h-121l69 146h96z" />
    <glyph glyph-name="gcommaaccent" unicode="&#x123;" horiz-adv-x="555" 
d="M482 19q0 -47 -16 -86.5t-46 -68.5t-72.5 -45t-94.5 -16q-60 0 -104 14.5t-85 53.5l81 82q22 -21 45.5 -30.5t56.5 -9.5q29 0 49 9.5t32.5 24.5t18 34.5t5.5 39.5v53q-26 -29 -56 -40.5t-68 -11.5t-70 12t-54 34q-18 18 -29 40t-16 47.5t-6.5 55.5t-1.5 64t1.5 63.5
t6.5 55t16 47.5t29 40q22 22 54.5 34t70.5 12q42 0 71 -12.5t56 -42.5v49h126v-502zM352 275q0 26 -2.5 50.5t-11.5 43t-26 30t-46 11.5t-46 -11.5t-25.5 -30t-11 -43t-2.5 -50.5t2.5 -50.5t11 -43.5t25.5 -30.5t46 -11.5t46 11.5t26 30.5t11.5 43.5t2.5 50.5zM309 604h-87
l64 170h137z" />
    <glyph glyph-name="Hcircumflex" unicode="&#x124;" horiz-adv-x="685" 
d="M463 0v298h-241v-298h-139v712h139v-291h241v291h139v-712h-139zM426 781l-83 91l-83 -91h-101l132 169h104l132 -169h-101z" />
    <glyph glyph-name="hcircumflex" unicode="&#x125;" horiz-adv-x="573" 
d="M376 0v315q0 27 -7.5 45t-20 29t-28 16t-30.5 5t-30.5 -5t-28 -16t-20.5 -29t-8 -45v-315h-130v712h130v-239q25 27 57 40.5t70 13.5q39 0 70 -12t53 -34q32 -32 42.5 -68.5t10.5 -79.5v-333h-130zM223 781l-83 91l-83 -91h-101l132 169h104l132 -169h-101z" />
    <glyph glyph-name="Hbar" unicode="&#x126;" horiz-adv-x="731" 
d="M625 508v-508h-139v298h-241v-298h-139v508h-69v106h69v98h139v-98h241v98h139v-98h69v-106h-69zM486 508h-241v-86h241v86z" />
    <glyph glyph-name="hbar" unicode="&#x127;" horiz-adv-x="588" 
d="M391 0v315q0 27 -7.5 45t-20 29t-28 16t-30.5 5t-30.5 -5t-28 -16t-20.5 -29t-8 -45v-315h-130v567h-51v82h51v63h130v-63h85v-82h-85v-94q25 27 57 40.5t70 13.5q39 0 70 -12t53 -34q32 -32 42.5 -68.5t10.5 -79.5v-333h-130z" />
    <glyph glyph-name="Itilde" unicode="&#x128;" horiz-adv-x="305" 
d="M83 0v712h139v-712h-139zM333 849q-33 -33 -58.5 -46t-54.5 -13q-23 0 -40 5t-38 18q-14 8 -27.5 13t-28.5 5q-13 0 -25.5 -4.5t-32.5 -24.5l-56 57q32 33 57.5 46t54.5 13q22 0 39 -5t38 -18q15 -9 27.5 -13.5t27.5 -4.5q13 0 26 4.5t33 24.5z" />
    <glyph glyph-name="itilde" unicode="&#x129;" horiz-adv-x="275" 
d="M73 0v506h130v-506h-130zM320 671q-33 -33 -58.5 -45.5t-54.5 -12.5q-22 0 -39 5t-38 17q-14 8 -27.5 13t-28.5 5q-13 0 -25.5 -4t-32.5 -24l-57 57q33 33 58 45.5t54 12.5q23 0 39.5 -4.5t38.5 -17.5q14 -9 27 -14t28 -5q13 0 25.5 4.5t32.5 24.5z" />
    <glyph glyph-name="Imacron" unicode="&#x12a;" horiz-adv-x="305" 
d="M83 0v712h139v-712h-139zM-4 881h317v-88h-317v88z" />
    <glyph glyph-name="imacron" unicode="&#x12b;" horiz-adv-x="275" 
d="M73 0v506h130v-506h-130zM-20 623v88h317v-88h-317z" />
    <glyph glyph-name="Ibreve" unicode="&#x12c;" horiz-adv-x="305" 
d="M83 0v712h139v-712h-139zM317 930q-2 -41 -15.5 -69.5t-36 -46.5t-51.5 -26.5t-61 -8.5t-61 8.5t-51.5 26.5t-36.5 46.5t-15 69.5h87q4 -32 26 -46t51 -14t51 14t26 46h87z" />
    <glyph glyph-name="ibreve" unicode="&#x12d;" horiz-adv-x="275" 
d="M73 0v506h130v-506h-130zM303 748q-2 -41 -15.5 -69.5t-36 -46.5t-51.5 -26.5t-61 -8.5t-61 8.5t-51.5 26.5t-36.5 46.5t-15 69.5h87q4 -32 26 -46t51 -14t51 14t26 46h87z" />
    <glyph glyph-name="Iogonek" unicode="&#x12e;" horiz-adv-x="305" 
d="M83 0v712h139v-712h-139zM136 -206h-121l69 146h96z" />
    <glyph glyph-name="iogonek" unicode="&#x12f;" horiz-adv-x="275" 
d="M73 0v506h130v-506h-130zM71 610v106h133v-106h-133zM126 -206h-121l69 146h96z" />
    <glyph glyph-name="Idotaccent" unicode="&#x130;" horiz-adv-x="305" 
d="M83 0v712h139v-712h-139zM95 905h115v-116h-115v116z" />
    <glyph glyph-name="dotlessi" unicode="&#x131;" horiz-adv-x="275" 
d="M73 0v506h130v-506h-130z" />
    <glyph glyph-name="IJ" unicode="&#x132;" horiz-adv-x="816" 
d="M83 0v712h139v-712h-139zM742 234q0 -59 -20.5 -104t-55.5 -75t-80.5 -45.5t-94.5 -15.5q-58 0 -100.5 16.5t-82.5 56.5l92 91q17 -17 36.5 -28.5t54.5 -11.5q51 0 81.5 30t30.5 92v472h139v-478z" />
    <glyph glyph-name="ij" unicode="&#x133;" horiz-adv-x="550" 
d="M73 0v506h130v-506h-130zM71 610v106h133v-106h-133zM478 -46q0 -28 -8.5 -54.5t-27 -47.5t-47.5 -34t-69 -13h-74v110h50q25 0 35.5 12t10.5 35v544h130v-552zM346 610v106h133v-106h-133z" />
    <glyph glyph-name="Jcircumflex" unicode="&#x134;" horiz-adv-x="511" 
d="M437 234q0 -59 -20.5 -104t-55.5 -75t-80.5 -45.5t-94.5 -15.5q-58 0 -100.5 16.5t-82.5 56.5l92 91q17 -17 36.5 -28.5t54.5 -11.5q51 0 81.5 30t30.5 92v472h139v-478zM450 781l-83 91l-83 -91h-101l132 169h104l132 -169h-101z" />
    <glyph glyph-name="jcircumflex" unicode="&#x135;" horiz-adv-x="275" 
d="M203 -46q0 -28 -8.5 -54.5t-27 -47.5t-47.5 -34t-69 -13h-74v110h50q25 0 35.5 12t10.5 35v544h130v-552zM222 604l-83 91l-83 -91h-101l132 169h104l132 -169h-101z" />
    <glyph glyph-name="Kcommaaccent" unicode="&#x136;" horiz-adv-x="665" 
d="M497 0l-183 324l-92 -110v-214h-139v712h139v-310l251 310h169l-236 -283l253 -429h-162zM387 -206h-121l69 146h96z" />
    <glyph glyph-name="kcommaaccent" unicode="&#x137;" horiz-adv-x="559" 
d="M386 0l-128 217l-55 -62v-155h-130v712h130v-404l173 213h157l-186 -210l200 -311h-161zM310 -206h-121l69 146h96z" />
    <glyph glyph-name="kgreenlandic" unicode="&#x138;" horiz-adv-x="559" 
d="M386 0l-128 217l-55 -62v-155h-130v521h130v-213l173 213h157l-186 -210l200 -311h-161z" />
    <glyph glyph-name="Lacute" unicode="&#x139;" horiz-adv-x="575" 
d="M83 0v712h139v-588h323v-124h-462zM171 781h-87l64 170h137z" />
    <glyph glyph-name="lacute" unicode="&#x13a;" horiz-adv-x="325" 
d="M220 0q-40 0 -69 13t-47.5 34t-27 47.5t-8.5 54.5v563h130v-555q0 -23 10.5 -35t35.5 -12h50v-110h-74zM155 781h-87l64 170h137z" />
    <glyph glyph-name="Lcommaaccent" unicode="&#x13b;" horiz-adv-x="575" 
d="M83 0v712h139v-588h323v-124h-462zM318 -206h-121l69 146h96z" />
    <glyph glyph-name="lcommaaccent" unicode="&#x13c;" horiz-adv-x="325" 
d="M220 0q-40 0 -69 13t-47.5 34t-27 47.5t-8.5 54.5v563h130v-555q0 -23 10.5 -35t35.5 -12h50v-110h-74zM194 -206h-121l69 146h96z" />
    <glyph glyph-name="Lcaron" unicode="&#x13d;" horiz-adv-x="575" 
d="M83 0v712h139v-588h323v-124h-462zM409 547h-91l36 166h115z" />
    <glyph glyph-name="lcaron" unicode="&#x13e;" horiz-adv-x="325" 
d="M220 0q-40 0 -69 13t-47.5 34t-27 47.5t-8.5 54.5v563h130v-555q0 -23 10.5 -35t35.5 -12h50v-110h-74zM350 575h-91l36 166h115z" />
    <glyph glyph-name="Ldot" unicode="&#x13f;" horiz-adv-x="575" 
d="M83 0v712h139v-588h323v-124h-462zM380 417h115v-116h-115v116z" />
    <glyph glyph-name="ldot" unicode="&#x140;" horiz-adv-x="414" 
d="M220 0q-40 0 -69 13t-47.5 34t-27 47.5t-8.5 54.5v563h130v-555q0 -23 10.5 -35t35.5 -12h50v-110h-74zM282 344h115v-115h-115v115z" />
    <glyph glyph-name="Lslash" unicode="&#x141;" horiz-adv-x="593" 
d="M101 0v244l-64 -41v116l64 41v352h139v-265l128 81v-115l-128 -81v-208h323v-124h-462z" />
    <glyph glyph-name="lslash" unicode="&#x142;" horiz-adv-x="336" 
d="M235 0q-40 0 -68.5 13t-47 34t-27 47.5t-8.5 54.5v153l-54 -33v109l54 34v300h130v-222l60 37v-109l-60 -38v-223q0 -23 10 -35t35 -12h50v-110h-74z" />
    <glyph glyph-name="Nacute" unicode="&#x143;" horiz-adv-x="711" 
d="M504 0l-282 437v-437h-139v712h124l282 -436v436h139v-712h-124zM387 781h-87l64 170h137z" />
    <glyph glyph-name="nacute" unicode="&#x144;" horiz-adv-x="573" 
d="M376 0v315q0 27 -7.5 45t-20 29t-28 16t-30.5 5t-30.5 -5t-28 -16t-20.5 -29t-8 -45v-315h-130v521h127v-48q26 27 60 40.5t70 13.5q39 0 70 -12t53 -34q32 -32 42.5 -68.5t10.5 -79.5v-333h-130zM315 604h-87l64 170h137z" />
    <glyph glyph-name="Ncommaaccent" unicode="&#x145;" horiz-adv-x="711" 
d="M504 0l-282 437v-437h-139v712h124l282 -436v436h139v-712h-124zM386 -206h-121l69 146h96z" />
    <glyph glyph-name="ncommaaccent" unicode="&#x146;" horiz-adv-x="573" 
d="M376 0v315q0 27 -7.5 45t-20 29t-28 16t-30.5 5t-30.5 -5t-28 -16t-20.5 -29t-8 -45v-315h-130v521h127v-48q26 27 60 40.5t70 13.5q39 0 70 -12t53 -34q32 -32 42.5 -68.5t10.5 -79.5v-333h-130zM317 -206h-121l69 146h96z" />
    <glyph glyph-name="Ncaron" unicode="&#x147;" horiz-adv-x="711" 
d="M504 0l-282 437v-437h-139v712h124l282 -436v436h139v-712h-124zM407 781h-104l-132 169h101l83 -90l83 90h101z" />
    <glyph glyph-name="ncaron" unicode="&#x148;" horiz-adv-x="573" 
d="M376 0v315q0 27 -7.5 45t-20 29t-28 16t-30.5 5t-30.5 -5t-28 -16t-20.5 -29t-8 -45v-315h-130v521h127v-48q26 27 60 40.5t70 13.5q39 0 70 -12t53 -34q32 -32 42.5 -68.5t10.5 -79.5v-333h-130zM338 604h-104l-132 169h101l83 -90l83 90h101z" />
    <glyph glyph-name="napostrophe" unicode="&#x149;" horiz-adv-x="573" 
d="M376 0v315q0 27 -7.5 45t-20 29t-28 16t-30.5 5t-30.5 -5t-28 -16t-20.5 -29t-8 -45v-315h-130v521h127v-48q26 27 60 40.5t70 13.5q39 0 70 -12t53 -34q32 -32 42.5 -68.5t10.5 -79.5v-333h-130zM-37 536v206h113v-118z" />
    <glyph glyph-name="Eng" unicode="&#x14a;" horiz-adv-x="711" 
d="M222 437v-437h-139v712h124l282 -436v436h139v-769q0 -28 -8.5 -54.5t-27 -47.5t-47.5 -34t-69 -13h-74v110h41q25 0 35.5 12t10.5 35v72z" />
    <glyph glyph-name="eng" unicode="&#x14b;" horiz-adv-x="573" 
d="M376 315q0 27 -7.5 45t-20 29t-28 16t-30.5 5t-30.5 -5t-28 -16t-20.5 -29t-8 -45v-315h-130v521h127v-48q26 27 60 40.5t70 13.5q39 0 70 -12t53 -34q32 -32 42.5 -68.5t10.5 -79.5v-390q0 -28 -8.5 -54.5t-27 -47.5t-47.5 -34t-69 -13h-74v110h50q25 0 35.5 12t10.5 35
v364z" />
    <glyph glyph-name="Omacron" unicode="&#x14c;" horiz-adv-x="644" 
d="M585 356q0 -51 -1.5 -92t-8.5 -75.5t-21.5 -63.5t-41.5 -56q-36 -36 -82 -55.5t-108 -19.5t-108.5 19.5t-82.5 55.5q-27 27 -41.5 56t-21 63.5t-8 75.5t-1.5 92t1.5 92t8 75.5t21 63.5t41.5 56q36 36 82.5 55.5t108.5 19.5t108 -19.5t82 -55.5q27 -27 41.5 -56
t21.5 -63.5t8.5 -75.5t1.5 -92zM446 356q0 51 -2 84.5t-6 55.5t-10.5 35.5t-16.5 24.5q-15 17 -37.5 27.5t-51.5 10.5t-51.5 -10.5t-38.5 -27.5q-10 -11 -16.5 -24.5t-10.5 -35.5t-5.5 -55.5t-1.5 -84.5t1.5 -84.5t5.5 -55t10.5 -35t16.5 -24.5q16 -17 38.5 -28t51.5 -11
t51.5 11t37.5 28q10 11 16.5 24.5t10.5 35t6 55t2 84.5zM162 881h317v-88h-317v88z" />
    <glyph glyph-name="omacron" unicode="&#x14d;" 
d="M492 261q0 -71 -11.5 -118.5t-47.5 -84.5q-25 -26 -64.5 -45t-97.5 -19t-97 19t-64 45q-35 38 -47 85t-12 118t12 117.5t47 84.5q25 26 64 45t97 19t97.5 -19t64.5 -45q35 -38 47 -84.5t12 -117.5zM362 261q0 40 -5 73t-25 53q-23 23 -61 23q-37 0 -60 -23
q-20 -20 -25 -53t-5 -73q0 -41 5 -74t25 -53q23 -23 60 -23q38 0 61 23q20 20 25 53t5 74zM112 623v88h317v-88h-317z" />
    <glyph glyph-name="Obreve" unicode="&#x14e;" horiz-adv-x="644" 
d="M585 356q0 -51 -1.5 -92t-8.5 -75.5t-21.5 -63.5t-41.5 -56q-36 -36 -82 -55.5t-108 -19.5t-108.5 19.5t-82.5 55.5q-27 27 -41.5 56t-21 63.5t-8 75.5t-1.5 92t1.5 92t8 75.5t21 63.5t41.5 56q36 36 82.5 55.5t108.5 19.5t108 -19.5t82 -55.5q27 -27 41.5 -56
t21.5 -63.5t8.5 -75.5t1.5 -92zM446 356q0 51 -2 84.5t-6 55.5t-10.5 35.5t-16.5 24.5q-15 17 -37.5 27.5t-51.5 10.5t-51.5 -10.5t-38.5 -27.5q-10 -11 -16.5 -24.5t-10.5 -35.5t-5.5 -55.5t-1.5 -84.5t1.5 -84.5t5.5 -55t10.5 -35t16.5 -24.5q16 -17 38.5 -28t51.5 -11
t51.5 11t37.5 28q10 11 16.5 24.5t10.5 35t6 55t2 84.5zM486 932q-2 -41 -15.5 -69.5t-36 -46.5t-51.5 -26.5t-61 -8.5t-61 8.5t-51.5 26.5t-36.5 46.5t-15 69.5h87q4 -32 26 -46t51 -14t51 14t26 46h87z" />
    <glyph glyph-name="obreve" unicode="&#x14f;" 
d="M492 261q0 -71 -11.5 -118.5t-47.5 -84.5q-25 -26 -64.5 -45t-97.5 -19t-97 19t-64 45q-35 38 -47 85t-12 118t12 117.5t47 84.5q25 26 64 45t97 19t97.5 -19t64.5 -45q35 -38 47 -84.5t12 -117.5zM362 261q0 40 -5 73t-25 53q-23 23 -61 23q-37 0 -60 -23
q-20 -20 -25 -53t-5 -73q0 -41 5 -74t25 -53q23 -23 60 -23q38 0 61 23q20 20 25 53t5 74zM436 748q-2 -41 -15.5 -69.5t-36 -46.5t-51.5 -26.5t-61 -8.5t-61 8.5t-51.5 26.5t-36.5 46.5t-15 69.5h87q4 -32 26 -46t51 -14t51 14t26 46h87z" />
    <glyph glyph-name="Ohungarumlaut" unicode="&#x150;" horiz-adv-x="644" 
d="M585 356q0 -51 -1.5 -92t-8.5 -75.5t-21.5 -63.5t-41.5 -56q-36 -36 -82 -55.5t-108 -19.5t-108.5 19.5t-82.5 55.5q-27 27 -41.5 56t-21 63.5t-8 75.5t-1.5 92t1.5 92t8 75.5t21 63.5t41.5 56q36 36 82.5 55.5t108.5 19.5t108 -19.5t82 -55.5q27 -27 41.5 -56
t21.5 -63.5t8.5 -75.5t1.5 -92zM446 356q0 51 -2 84.5t-6 55.5t-10.5 35.5t-16.5 24.5q-15 17 -37.5 27.5t-51.5 10.5t-51.5 -10.5t-38.5 -27.5q-10 -11 -16.5 -24.5t-10.5 -35.5t-5.5 -55.5t-1.5 -84.5t1.5 -84.5t5.5 -55t10.5 -35t16.5 -24.5q16 -17 38.5 -28t51.5 -11
t51.5 11t37.5 28q10 11 16.5 24.5t10.5 35t6 55t2 84.5zM246 781h-88l64 170h137zM446 781h-86l63 170h138z" />
    <glyph glyph-name="ohungarumlaut" unicode="&#x151;" 
d="M492 261q0 -71 -11.5 -118.5t-47.5 -84.5q-25 -26 -64.5 -45t-97.5 -19t-97 19t-64 45q-35 38 -47 85t-12 118t12 117.5t47 84.5q25 26 64 45t97 19t97.5 -19t64.5 -45q35 -38 47 -84.5t12 -117.5zM362 261q0 40 -5 73t-25 53q-23 23 -61 23q-37 0 -60 -23
q-20 -20 -25 -53t-5 -73q0 -41 5 -74t25 -53q23 -23 60 -23q38 0 61 23q20 20 25 53t5 74zM196 604h-88l64 170h137zM396 604h-86l63 170h138z" />
    <glyph glyph-name="OE" unicode="&#x152;" horiz-adv-x="966" 
d="M446 0v44q-19 -22 -54.5 -36t-69.5 -14q-62 0 -108 19.5t-83 55.5q-27 27 -41.5 56t-21 63.5t-8 75.5t-1.5 92t1.5 92t8 75.5t21 63.5t41.5 56q37 36 83 55.5t108 19.5q35 0 68.5 -13.5t55.5 -36.5v44h465v-124h-326v-167h278v-124h-278v-173h327v-124h-466zM446 356
q0 51 -1.5 84.5t-5.5 55.5t-11 35.5t-17 24.5q-15 17 -37.5 27.5t-51.5 10.5t-51.5 -10.5t-38.5 -27.5q-10 -11 -16.5 -24.5t-10.5 -35.5t-5.5 -55.5t-1.5 -84.5t1.5 -84.5t5.5 -55t10.5 -35t16.5 -24.5q16 -17 38.5 -28t51.5 -11t51.5 11t37.5 28q10 11 17 24.5t11 35
t5.5 55t1.5 84.5z" />
    <glyph glyph-name="oe" unicode="&#x153;" horiz-adv-x="863" 
d="M490 220q0 -51 29 -83.5t85 -32.5q43 0 68 12.5t49 36.5l80 -77q-20 -20 -40 -35.5t-43.5 -26t-51.5 -15.5t-63 -5q-51 0 -96 15t-77 52q-25 -30 -64.5 -48.5t-94.5 -18.5q-58 0 -97 19t-64 45q-35 37 -47 84.5t-12 118.5t12 117.5t47 84.5q25 26 64 45t97 19
q56 0 96 -19t65 -49q57 68 157 68q54 0 96.5 -19t71.5 -52t44 -78.5t15 -99.5v-58h-326zM688 309q-1 17 -3 29.5t-9 26.5q-11 23 -32.5 38.5t-54.5 15.5t-54.5 -15.5t-32.5 -38.5q-7 -14 -9 -26.5t-3 -29.5h198zM362 261q0 40 -5 73t-25 53q-23 23 -61 23q-37 0 -60 -23
q-20 -20 -25 -53t-5 -73q0 -41 5 -74t25 -53q23 -23 60 -23q38 0 61 23q20 20 25 53t5 74z" />
    <glyph glyph-name="Racute" unicode="&#x154;" horiz-adv-x="654" 
d="M461 0l-139 284h-100v-284h-139v712h279q54 0 97 -17.5t73 -47t45.5 -69t15.5 -84.5q0 -38 -10.5 -68t-28.5 -53.5t-41.5 -40t-49.5 -25.5l159 -307h-161zM454 494q0 42 -27.5 68t-73.5 26h-131v-188h131q46 0 73.5 26t27.5 68zM359 781h-87l64 170h137z" />
    <glyph glyph-name="racute" unicode="&#x155;" horiz-adv-x="455" 
d="M356 379q-15 15 -30 23t-39 8q-15 0 -30 -5.5t-27 -17.5t-19.5 -30t-7.5 -43v-314h-130v521h127v-50q19 23 54 39.5t77 16.5q38 0 67 -11t56 -38zM259 604h-87l64 170h137z" />
    <glyph glyph-name="Rcommaaccent" unicode="&#x156;" horiz-adv-x="654" 
d="M461 0l-139 284h-100v-284h-139v712h279q54 0 97 -17.5t73 -47t45.5 -69t15.5 -84.5q0 -38 -10.5 -68t-28.5 -53.5t-41.5 -40t-49.5 -25.5l159 -307h-161zM454 494q0 42 -27.5 68t-73.5 26h-131v-188h131q46 0 73.5 26t27.5 68zM358 -206h-121l69 146h96z" />
    <glyph glyph-name="rcommaaccent" unicode="&#x157;" horiz-adv-x="455" 
d="M356 379q-15 15 -30 23t-39 8q-15 0 -30 -5.5t-27 -17.5t-19.5 -30t-7.5 -43v-314h-130v521h127v-50q19 23 54 39.5t77 16.5q38 0 67 -11t56 -38zM145 -206h-121l69 146h96z" />
    <glyph glyph-name="Rcaron" unicode="&#x158;" horiz-adv-x="654" 
d="M461 0l-139 284h-100v-284h-139v712h279q54 0 97 -17.5t73 -47t45.5 -69t15.5 -84.5q0 -38 -10.5 -68t-28.5 -53.5t-41.5 -40t-49.5 -25.5l159 -307h-161zM454 494q0 42 -27.5 68t-73.5 26h-131v-188h131q46 0 73.5 26t27.5 68zM379 781h-104l-132 169h101l83 -90l83 90
h101z" />
    <glyph glyph-name="rcaron" unicode="&#x159;" horiz-adv-x="455" 
d="M356 379q-15 15 -30 23t-39 8q-15 0 -30 -5.5t-27 -17.5t-19.5 -30t-7.5 -43v-314h-130v521h127v-50q19 23 54 39.5t77 16.5q38 0 67 -11t56 -38zM281 604h-104l-132 169h101l83 -90l83 90h101z" />
    <glyph glyph-name="Sacute" unicode="&#x15a;" horiz-adv-x="591" 
d="M543 210q0 -52 -20 -92t-55.5 -67.5t-84 -42t-104.5 -14.5q-81 0 -144.5 20.5t-115.5 73.5l90 90q34 -34 78 -47t93 -13q63 0 95 23t32 66q0 37 -22 59q-11 10 -24 15t-40 9l-85 13q-48 7 -81 21.5t-57 37.5q-51 49 -51 140q0 48 17 87.5t49 68t78 44.5t104 16
q74 0 129 -19t101 -64l-88 -87q-33 32 -72 40.5t-74 8.5q-56 0 -82.5 -26.5t-26.5 -63.5q0 -14 4.5 -27t15.5 -24q11 -10 26.5 -17t38.5 -10l85 -13q49 -7 81 -20t55 -36q29 -26 42 -64t13 -86zM335 781h-87l64 170h137z" />
    <glyph glyph-name="sacute" unicode="&#x15b;" horiz-adv-x="501" 
d="M465 164q0 -43 -17 -75t-47 -53t-70.5 -31.5t-86.5 -10.5q-31 0 -60 2.5t-56.5 10.5t-54 22.5t-51.5 39.5l85 85q16 -16 34 -25.5t36.5 -15t36 -7t32.5 -1.5q17 0 33.5 3t29.5 9.5t21 16.5t8 25q0 20 -11.5 32.5t-43.5 15.5l-84 8q-69 7 -109.5 40.5t-40.5 105.5
q0 41 16.5 72t44 52t64 31.5t76.5 10.5q62 0 111.5 -13t87.5 -48l-80 -81q-23 20 -54.5 27.5t-66.5 7.5q-39 0 -56.5 -15t-17.5 -35t12.5 -31t41.5 -14l82 -8q78 -8 116.5 -47t38.5 -106zM280 604h-87l64 170h137z" />
    <glyph glyph-name="Scircumflex" unicode="&#x15c;" horiz-adv-x="591" 
d="M543 210q0 -52 -20 -92t-55.5 -67.5t-84 -42t-104.5 -14.5q-81 0 -144.5 20.5t-115.5 73.5l90 90q34 -34 78 -47t93 -13q63 0 95 23t32 66q0 37 -22 59q-11 10 -24 15t-40 9l-85 13q-48 7 -81 21.5t-57 37.5q-51 49 -51 140q0 48 17 87.5t49 68t78 44.5t104 16
q74 0 129 -19t101 -64l-88 -87q-33 32 -72 40.5t-74 8.5q-56 0 -82.5 -26.5t-26.5 -63.5q0 -14 4.5 -27t15.5 -24q11 -10 26.5 -17t38.5 -10l85 -13q49 -7 81 -20t55 -36q29 -26 42 -64t13 -86zM380 781l-83 91l-83 -91h-101l132 169h104l132 -169h-101z" />
    <glyph glyph-name="scircumflex" unicode="&#x15d;" horiz-adv-x="501" 
d="M465 164q0 -43 -17 -75t-47 -53t-70.5 -31.5t-86.5 -10.5q-31 0 -60 2.5t-56.5 10.5t-54 22.5t-51.5 39.5l85 85q16 -16 34 -25.5t36.5 -15t36 -7t32.5 -1.5q17 0 33.5 3t29.5 9.5t21 16.5t8 25q0 20 -11.5 32.5t-43.5 15.5l-84 8q-69 7 -109.5 40.5t-40.5 105.5
q0 41 16.5 72t44 52t64 31.5t76.5 10.5q62 0 111.5 -13t87.5 -48l-80 -81q-23 20 -54.5 27.5t-66.5 7.5q-39 0 -56.5 -15t-17.5 -35t12.5 -31t41.5 -14l82 -8q78 -8 116.5 -47t38.5 -106zM346 604l-83 91l-83 -91h-101l132 169h104l132 -169h-101z" />
    <glyph glyph-name="Scedilla" unicode="&#x15e;" horiz-adv-x="591" 
d="M543 210q0 -52 -20 -92t-55.5 -67.5t-84 -42t-104.5 -14.5q-81 0 -144.5 20.5t-115.5 73.5l90 90q34 -34 78 -47t93 -13q63 0 95 23t32 66q0 37 -22 59q-11 10 -24 15t-40 9l-85 13q-48 7 -81 21.5t-57 37.5q-51 49 -51 140q0 48 17 87.5t49 68t78 44.5t104 16
q74 0 129 -19t101 -64l-88 -87q-33 32 -72 40.5t-74 8.5q-56 0 -82.5 -26.5t-26.5 -63.5q0 -14 4.5 -27t15.5 -24q11 -10 26.5 -17t38.5 -10l85 -13q49 -7 81 -20t55 -36q29 -26 42 -64t13 -86zM326 -206h-121l69 146h96z" />
    <glyph glyph-name="scedilla" unicode="&#x15f;" horiz-adv-x="501" 
d="M465 164q0 -43 -17 -75t-47 -53t-70.5 -31.5t-86.5 -10.5q-31 0 -60 2.5t-56.5 10.5t-54 22.5t-51.5 39.5l85 85q16 -16 34 -25.5t36.5 -15t36 -7t32.5 -1.5q17 0 33.5 3t29.5 9.5t21 16.5t8 25q0 20 -11.5 32.5t-43.5 15.5l-84 8q-69 7 -109.5 40.5t-40.5 105.5
q0 41 16.5 72t44 52t64 31.5t76.5 10.5q62 0 111.5 -13t87.5 -48l-80 -81q-23 20 -54.5 27.5t-66.5 7.5q-39 0 -56.5 -15t-17.5 -35t12.5 -31t41.5 -14l82 -8q78 -8 116.5 -47t38.5 -106zM281 -206h-121l69 146h96z" />
    <glyph glyph-name="Scaron" unicode="&#x160;" horiz-adv-x="591" 
d="M543 210q0 -52 -20 -92t-55.5 -67.5t-84 -42t-104.5 -14.5q-81 0 -144.5 20.5t-115.5 73.5l90 90q34 -34 78 -47t93 -13q63 0 95 23t32 66q0 37 -22 59q-11 10 -24 15t-40 9l-85 13q-48 7 -81 21.5t-57 37.5q-51 49 -51 140q0 48 17 87.5t49 68t78 44.5t104 16
q74 0 129 -19t101 -64l-88 -87q-33 32 -72 40.5t-74 8.5q-56 0 -82.5 -26.5t-26.5 -63.5q0 -14 4.5 -27t15.5 -24q11 -10 26.5 -17t38.5 -10l85 -13q49 -7 81 -20t55 -36q29 -26 42 -64t13 -86zM346 781h-104l-132 169h101l83 -90l83 90h101z" />
    <glyph glyph-name="scaron" unicode="&#x161;" horiz-adv-x="501" 
d="M465 164q0 -43 -17 -75t-47 -53t-70.5 -31.5t-86.5 -10.5q-31 0 -60 2.5t-56.5 10.5t-54 22.5t-51.5 39.5l85 85q16 -16 34 -25.5t36.5 -15t36 -7t32.5 -1.5q17 0 33.5 3t29.5 9.5t21 16.5t8 25q0 20 -11.5 32.5t-43.5 15.5l-84 8q-69 7 -109.5 40.5t-40.5 105.5
q0 41 16.5 72t44 52t64 31.5t76.5 10.5q62 0 111.5 -13t87.5 -48l-80 -81q-23 20 -54.5 27.5t-66.5 7.5q-39 0 -56.5 -15t-17.5 -35t12.5 -31t41.5 -14l82 -8q78 -8 116.5 -47t38.5 -106zM302 604h-104l-132 169h101l83 -90l83 90h101z" />
    <glyph glyph-name="Tcommaaccent" unicode="&#x162;" horiz-adv-x="571" 
d="M355 588v-588h-139v588h-186v124h511v-124h-186zM289 -206h-121l69 146h96z" />
    <glyph glyph-name="tcommaaccent" unicode="&#x163;" horiz-adv-x="352" 
d="M236 0q-40 0 -68.5 13t-47 34t-27 47.5t-8.5 54.5v258h-55v99h55v154h130v-154h92v-99h-92v-250q0 -47 45 -47h47v-110h-71zM208 -206h-121l69 146h96z" />
    <glyph glyph-name="Tcaron" unicode="&#x164;" horiz-adv-x="571" 
d="M355 588v-588h-139v588h-186v124h511v-124h-186zM329 781h-104l-132 169h101l83 -90l83 90h101z" />
    <glyph glyph-name="tcaron" unicode="&#x165;" horiz-adv-x="352" 
d="M236 0q-40 0 -68.5 13t-47 34t-27 47.5t-8.5 54.5v258h-55v99h55v154h130v-154h92v-99h-92v-250q0 -47 45 -47h47v-110h-71zM366 575h-91l36 166h115z" />
    <glyph glyph-name="Tbar" unicode="&#x166;" horiz-adv-x="571" 
d="M355 588v-176h92v-106h-92v-306h-139v306h-93v106h93v176h-186v124h511v-124h-186z" />
    <glyph glyph-name="tbar" unicode="&#x167;" horiz-adv-x="352" 
d="M236 0q-40 0 -68.5 13t-47 34t-27 47.5t-8.5 54.5v88h-55v99h55v71h-55v99h55v154h130v-154h92v-99h-92v-71h92v-99h-92v-80q0 -47 45 -47h47v-110h-71z" />
    <glyph glyph-name="Utilde" unicode="&#x168;" horiz-adv-x="668" 
d="M596 244q0 -57 -20.5 -103t-56 -78.5t-83 -50.5t-102.5 -18t-102.5 18t-83 50.5t-56 78.5t-20.5 103v468h139v-463q0 -62 33 -96.5t90 -34.5t90.5 34.5t33.5 96.5v463h138v-468zM514 849q-33 -33 -58.5 -46t-54.5 -13q-23 0 -40 5t-38 18q-14 8 -27.5 13t-28.5 5
q-13 0 -25.5 -4.5t-32.5 -24.5l-56 57q32 33 57.5 46t54.5 13q22 0 39 -5t38 -18q15 -9 27.5 -13.5t27.5 -4.5q13 0 26 4.5t33 24.5z" />
    <glyph glyph-name="utilde" unicode="&#x169;" horiz-adv-x="573" 
d="M373 0v48q-26 -27 -60 -40.5t-70 -13.5q-39 0 -70 12t-53 34q-32 32 -42.5 68.5t-10.5 79.5v333h130v-315q0 -27 7.5 -45t20 -29t28 -16t30.5 -5t30.5 5t28 16t20.5 29t8 45v315h130v-521h-127zM465 671q-33 -33 -58.5 -45.5t-54.5 -12.5q-22 0 -39 5t-38 17
q-14 8 -27.5 13t-28.5 5q-13 0 -25.5 -4t-32.5 -24l-57 57q33 33 58 45.5t54 12.5q23 0 39.5 -4.5t38.5 -17.5q14 -9 27 -14t28 -5q13 0 25.5 4.5t32.5 24.5z" />
    <glyph glyph-name="Umacron" unicode="&#x16a;" horiz-adv-x="668" 
d="M596 244q0 -57 -20.5 -103t-56 -78.5t-83 -50.5t-102.5 -18t-102.5 18t-83 50.5t-56 78.5t-20.5 103v468h139v-463q0 -62 33 -96.5t90 -34.5t90.5 34.5t33.5 96.5v463h138v-468zM175 881h317v-88h-317v88z" />
    <glyph glyph-name="umacron" unicode="&#x16b;" horiz-adv-x="573" 
d="M373 0v48q-26 -27 -60 -40.5t-70 -13.5q-39 0 -70 12t-53 34q-32 32 -42.5 68.5t-10.5 79.5v333h130v-315q0 -27 7.5 -45t20 -29t28 -16t30.5 -5t30.5 5t28 16t20.5 29t8 45v315h130v-521h-127zM127 623v88h317v-88h-317z" />
    <glyph glyph-name="Ubreve" unicode="&#x16c;" horiz-adv-x="668" 
d="M596 244q0 -57 -20.5 -103t-56 -78.5t-83 -50.5t-102.5 -18t-102.5 18t-83 50.5t-56 78.5t-20.5 103v468h139v-463q0 -62 33 -96.5t90 -34.5t90.5 34.5t33.5 96.5v463h138v-468zM498 930q-2 -41 -15.5 -69.5t-36 -46.5t-51.5 -26.5t-61 -8.5t-61 8.5t-51.5 26.5
t-36.5 46.5t-15 69.5h87q4 -32 26 -46t51 -14t51 14t26 46h87z" />
    <glyph glyph-name="ubreve" unicode="&#x16d;" horiz-adv-x="573" 
d="M373 0v48q-26 -27 -60 -40.5t-70 -13.5q-39 0 -70 12t-53 34q-32 32 -42.5 68.5t-10.5 79.5v333h130v-315q0 -27 7.5 -45t20 -29t28 -16t30.5 -5t30.5 5t28 16t20.5 29t8 45v315h130v-521h-127zM447 748q-2 -41 -15.5 -69.5t-36 -46.5t-51.5 -26.5t-61 -8.5t-61 8.5
t-51.5 26.5t-36.5 46.5t-15 69.5h87q4 -32 26 -46t51 -14t51 14t26 46h87z" />
    <glyph glyph-name="Uring" unicode="&#x16e;" horiz-adv-x="668" 
d="M596 244q0 -57 -20.5 -103t-56 -78.5t-83 -50.5t-102.5 -18t-102.5 18t-83 50.5t-56 78.5t-20.5 103v468h139v-463q0 -62 33 -96.5t90 -34.5t90.5 34.5t33.5 96.5v463h138v-468zM465 892q0 -27 -10.5 -51t-28 -41.5t-41.5 -28t-51 -10.5t-51 10.5t-41.5 28t-28 41.5
t-10.5 51t10.5 51t28 41.5t41.5 28t51 10.5t51 -10t41.5 -28t28 -42t10.5 -51zM392 892q0 24 -17 41t-41 17t-41 -17t-17 -41t17 -41.5t41 -17.5t41 17.5t17 41.5z" />
    <glyph glyph-name="uring" unicode="&#x16f;" horiz-adv-x="573" 
d="M373 0v48q-26 -27 -60 -40.5t-70 -13.5q-39 0 -70 12t-53 34q-32 32 -42.5 68.5t-10.5 79.5v333h130v-315q0 -27 7.5 -45t20 -29t28 -16t30.5 -5t30.5 5t28 16t20.5 29t8 45v315h130v-521h-127zM417 715q0 -27 -10.5 -51t-28 -41.5t-41.5 -28t-51 -10.5t-51 10.5
t-41.5 28t-28 41.5t-10.5 51t10.5 51t28 41.5t41.5 28t51 10.5t51 -10t41.5 -28t28 -42t10.5 -51zM344 715q0 24 -17 41t-41 17t-41 -17t-17 -41t17 -41.5t41 -17.5t41 17.5t17 41.5z" />
    <glyph glyph-name="Uhungarumlaut" unicode="&#x170;" horiz-adv-x="668" 
d="M596 244q0 -57 -20.5 -103t-56 -78.5t-83 -50.5t-102.5 -18t-102.5 18t-83 50.5t-56 78.5t-20.5 103v468h139v-463q0 -62 33 -96.5t90 -34.5t90.5 34.5t33.5 96.5v463h138v-468zM251 781h-88l64 170h137zM451 781h-86l63 170h138z" />
    <glyph glyph-name="uhungarumlaut" unicode="&#x171;" horiz-adv-x="573" 
d="M373 0v48q-26 -27 -60 -40.5t-70 -13.5q-39 0 -70 12t-53 34q-32 32 -42.5 68.5t-10.5 79.5v333h130v-315q0 -27 7.5 -45t20 -29t28 -16t30.5 -5t30.5 5t28 16t20.5 29t8 45v315h130v-521h-127zM203 604h-88l64 170h137zM403 604h-86l63 170h138z" />
    <glyph glyph-name="Uogonek" unicode="&#x172;" horiz-adv-x="668" 
d="M596 244q0 -57 -20.5 -103t-56 -78.5t-83 -50.5t-102.5 -18t-102.5 18t-83 50.5t-56 78.5t-20.5 103v468h139v-463q0 -62 33 -96.5t90 -34.5t90.5 34.5t33.5 96.5v463h138v-468zM456 -206h-121l69 146h96z" />
    <glyph glyph-name="uogonek" unicode="&#x173;" horiz-adv-x="573" 
d="M373 0v48q-26 -27 -60 -40.5t-70 -13.5q-39 0 -70 12t-53 34q-32 32 -42.5 68.5t-10.5 79.5v333h130v-315q0 -27 7.5 -45t20 -29t28 -16t30.5 -5t30.5 5t28 16t20.5 29t8 45v315h130v-521h-127zM425 -206h-121l69 146h96z" />
    <glyph glyph-name="Wcircumflex" unicode="&#x174;" horiz-adv-x="887" 
d="M690 0h-116l-131 432l-131 -432h-116l-190 712h145l110 -449l130 449h104l130 -449l111 449h145zM526 781l-83 91l-83 -91h-101l132 169h104l132 -169h-101z" />
    <glyph glyph-name="wcircumflex" unicode="&#x175;" horiz-adv-x="759" 
d="M596 0h-107l-109 327l-109 -327h-107l-160 521h138l84 -322l106 322h95l107 -322l84 322h137zM463 604l-83 91l-83 -91h-101l132 169h104l132 -169h-101z" />
    <glyph glyph-name="Ycircumflex" unicode="&#x176;" horiz-adv-x="572" 
d="M355 292v-292h-138v292l-214 420h151l133 -287l131 287h151zM370 781l-83 91l-83 -91h-101l132 169h104l132 -169h-101z" />
    <glyph glyph-name="ycircumflex" unicode="&#x177;" horiz-adv-x="494" 
d="M267 -84q-17 -45 -39 -67q-23 -23 -51.5 -31.5t-60.5 -8.5h-51v117h30q28 0 41.5 9t23.5 38l22 64l-178 484h137l108 -322l104 322h137zM333 604l-83 91l-83 -91h-101l132 169h104l132 -169h-101z" />
    <glyph glyph-name="Ydieresis" unicode="&#x178;" horiz-adv-x="572" 
d="M355 292v-292h-138v292l-214 420h151l133 -287l131 287h151zM342 783v125h111v-125h-111zM121 783v125h111v-125h-111z" />
    <glyph glyph-name="Zacute" unicode="&#x179;" horiz-adv-x="548" 
d="M40 0v112l304 476h-291v124h455v-110l-305 -478h305v-124h-468zM315 781h-87l64 170h137z" />
    <glyph glyph-name="zacute" unicode="&#x17a;" horiz-adv-x="478" 
d="M37 0v99l231 305h-218v117h384v-99l-234 -305h234v-117h-397zM268 604h-87l64 170h137z" />
    <glyph glyph-name="Zdotaccent" unicode="&#x17b;" horiz-adv-x="548" 
d="M40 0v112l304 476h-291v124h455v-110l-305 -478h305v-124h-468zM215 905h115v-116h-115v116z" />
    <glyph glyph-name="zdotaccent" unicode="&#x17c;" horiz-adv-x="478" 
d="M37 0v99l231 305h-218v117h384v-99l-234 -305h234v-117h-397zM183 727h115v-115h-115v115z" />
    <glyph glyph-name="Zcaron" unicode="&#x17d;" horiz-adv-x="548" 
d="M40 0v112l304 476h-291v124h455v-110l-305 -478h305v-124h-468zM329 781h-104l-132 169h101l83 -90l83 90h101z" />
    <glyph glyph-name="zcaron" unicode="&#x17e;" horiz-adv-x="478" 
d="M37 0v99l231 305h-218v117h384v-99l-234 -305h234v-117h-397zM294 604h-104l-132 169h101l83 -90l83 90h101z" />
    <glyph glyph-name="longs" unicode="&#x17f;" horiz-adv-x="275" 
d="M203 0h-130v571q0 28 9 54.5t27.5 47.5t47 34t68.5 13h74v-110h-51q-45 0 -45 -47v-563z" />
    <glyph glyph-name="uni018F" unicode="&#x18f;" horiz-adv-x="649" 
d="M590 356q0 -51 -1.5 -92.5t-8 -76t-21 -63.5t-41.5 -55q-37 -36 -83 -55.5t-107 -19.5q-58 0 -107.5 17.5t-93.5 63.5q-39 41 -53.5 90.5t-14.5 126.5v104h391q0 38 -2 63.5t-6 43.5t-10.5 30t-15.5 23q-15 17 -37 27.5t-51 10.5q-104 0 -128 -104h-140q7 45 26 86
t52 72.5t80.5 50.5t109.5 19q61 0 107 -19.5t83 -55.5q26 -26 40.5 -54.5t21.5 -63.5t8.5 -76.5t1.5 -92.5zM197 279v-26q0 -28 7.5 -51.5t24.5 -43.5q17 -19 42 -29.5t57 -10.5q29 0 51 10t37 27q8 9 14 19t9.5 24.5t6 34t3.5 46.5h-252z" />
    <glyph glyph-name="florin" unicode="&#x192;" horiz-adv-x="427" 
d="M328 610q-46 0 -54 -47l-29 -166h96v-100h-113l-87 -488h-130l87 488h-67v100h84l31 174q6 33 21 60t37.5 46.5t52 30.5t63.5 11h77v-109h-69z" />
    <glyph glyph-name="uni01B5" unicode="&#x1b5;" horiz-adv-x="548" 
d="M40 0v112l124 195h-50v106h118l112 175h-291v124h455v-110l-121 -189h51v-106h-118l-117 -183h305v-124h-468z" />
    <glyph glyph-name="uni01B6" unicode="&#x1b6;" horiz-adv-x="478" 
d="M37 0v99l90 119h-23v82h85l79 104h-218v117h384v-99l-94 -122h43v-82h-106l-77 -101h234v-117h-397z" />
    <glyph glyph-name="uni01C4" unicode="&#x1c4;" horiz-adv-x="1207" 
d="M600 356q0 -44 -1 -80.5t-5 -67t-13.5 -56t-25.5 -48.5q-38 -54 -90 -79t-125 -25h-257v712h257q73 0 125 -25t90 -79q16 -23 25.5 -48.5t13.5 -56t5 -67t1 -80.5zM461 356q0 42 -1 72.5t-4 52t-8.5 36.5t-15.5 27q-35 44 -104 44h-106v-464h106q69 0 104 44
q10 12 15.5 27t8.5 36.5t4 52t1 72.5zM699 0v112l304 476h-291v124h455v-110l-305 -478h305v-124h-468zM988 781h-104l-132 169h101l83 -90l83 90h101z" />
    <glyph glyph-name="uni01C5" unicode="&#x1c5;" horiz-adv-x="1137" 
d="M600 356q0 -44 -1 -80.5t-5 -67t-13.5 -56t-25.5 -48.5q-38 -54 -90 -79t-125 -25h-257v712h257q73 0 125 -25t90 -79q16 -23 25.5 -48.5t13.5 -56t5 -67t1 -80.5zM461 356q0 42 -1 72.5t-4 52t-8.5 36.5t-15.5 27q-35 44 -104 44h-106v-464h106q69 0 104 44
q10 12 15.5 27t8.5 36.5t4 52t1 72.5zM696 0v99l231 305h-218v117h384v-99l-234 -305h234v-117h-397zM953 604h-104l-132 169h101l83 -90l83 90h101z" />
    <glyph glyph-name="uni01C6" unicode="&#x1c6;" horiz-adv-x="1039" 
d="M361 0v49q-27 -30 -57 -42.5t-72 -12.5q-39 0 -72 12t-55 35q-19 19 -29.5 43.5t-16 52.5t-7 59.5t-1.5 64.5t1.5 64t7 59t16 52.5t29.5 43.5q22 23 54.5 35t71.5 12q40 0 70.5 -11.5t56.5 -40.5v237h130v-712h-127zM358 261q0 31 -3 58.5t-12.5 47.5t-27 31.5
t-46.5 11.5t-46.5 -11.5t-26.5 -31.5t-12 -47.5t-3 -58.5q0 -32 3 -59t12 -47.5t26.5 -32t46.5 -11.5t46.5 11.5t27 32t12.5 47.5t3 59zM598 0v99l231 305h-218v117h384v-99l-234 -305h234v-117h-397zM855 604h-104l-132 169h101l83 -90l83 90h101z" />
    <glyph glyph-name="uni01C7" unicode="&#x1c7;" horiz-adv-x="1086" 
d="M83 0v712h139v-588h323v-124h-462zM1012 234q0 -59 -20.5 -104t-55.5 -75t-80.5 -45.5t-94.5 -15.5q-58 0 -100.5 16.5t-82.5 56.5l92 91q17 -17 36.5 -28.5t54.5 -11.5q51 0 81.5 30t30.5 92v472h139v-478z" />
    <glyph glyph-name="uni01C8" unicode="&#x1c8;" horiz-adv-x="850" 
d="M83 0v712h139v-588h323v-124h-462zM778 -46q0 -28 -8.5 -54.5t-27 -47.5t-47.5 -34t-69 -13h-74v110h50q25 0 35.5 12t10.5 35v544h130v-552zM646 610v106h133v-106h-133z" />
    <glyph glyph-name="uni01C9" unicode="&#x1c9;" horiz-adv-x="600" 
d="M220 0q-40 0 -69 13t-47.5 34t-27 47.5t-8.5 54.5v563h130v-555q0 -23 10.5 -35t35.5 -12h50v-110h-74zM528 -46q0 -28 -8.5 -54.5t-27 -47.5t-47.5 -34t-69 -13h-74v110h50q25 0 35.5 12t10.5 35v544h130v-552zM396 610v106h133v-106h-133z" />
    <glyph glyph-name="uni01CA" unicode="&#x1ca;" horiz-adv-x="1222" 
d="M504 0l-282 437v-437h-139v712h124l282 -436v436h139v-712h-124zM1148 234q0 -59 -20.5 -104t-55.5 -75t-80.5 -45.5t-94.5 -15.5q-58 0 -100.5 16.5t-82.5 56.5l92 91q17 -17 36.5 -28.5t54.5 -11.5q51 0 81.5 30t30.5 92v472h139v-478z" />
    <glyph glyph-name="uni01CB" unicode="&#x1cb;" horiz-adv-x="986" 
d="M504 0l-282 437v-437h-139v712h124l282 -436v436h139v-712h-124zM914 -46q0 -28 -8.5 -54.5t-27 -47.5t-47.5 -34t-69 -13h-74v110h50q25 0 35.5 12t10.5 35v544h130v-552zM782 610v106h133v-106h-133z" />
    <glyph glyph-name="uni01CC" unicode="&#x1cc;" horiz-adv-x="848" 
d="M376 0v315q0 27 -7.5 45t-20 29t-28 16t-30.5 5t-30.5 -5t-28 -16t-20.5 -29t-8 -45v-315h-130v521h127v-48q26 27 60 40.5t70 13.5q39 0 70 -12t53 -34q32 -32 42.5 -68.5t10.5 -79.5v-333h-130zM776 -46q0 -28 -8.5 -54.5t-27 -47.5t-47.5 -34t-69 -13h-74v110h50
q25 0 35.5 12t10.5 35v544h130v-552zM644 610v106h133v-106h-133z" />
    <glyph glyph-name="uni01F1" unicode="&#x1f1;" horiz-adv-x="1207" 
d="M600 356q0 -44 -1 -80.5t-5 -67t-13.5 -56t-25.5 -48.5q-38 -54 -90 -79t-125 -25h-257v712h257q73 0 125 -25t90 -79q16 -23 25.5 -48.5t13.5 -56t5 -67t1 -80.5zM461 356q0 42 -1 72.5t-4 52t-8.5 36.5t-15.5 27q-35 44 -104 44h-106v-464h106q69 0 104 44
q10 12 15.5 27t8.5 36.5t4 52t1 72.5zM699 0v112l304 476h-291v124h455v-110l-305 -478h305v-124h-468z" />
    <glyph glyph-name="uni01F2" unicode="&#x1f2;" horiz-adv-x="1137" 
d="M600 356q0 -44 -1 -80.5t-5 -67t-13.5 -56t-25.5 -48.5q-38 -54 -90 -79t-125 -25h-257v712h257q73 0 125 -25t90 -79q16 -23 25.5 -48.5t13.5 -56t5 -67t1 -80.5zM461 356q0 42 -1 72.5t-4 52t-8.5 36.5t-15.5 27q-35 44 -104 44h-106v-464h106q69 0 104 44
q10 12 15.5 27t8.5 36.5t4 52t1 72.5zM696 0v99l231 305h-218v117h384v-99l-234 -305h234v-117h-397z" />
    <glyph glyph-name="uni01F3" unicode="&#x1f3;" horiz-adv-x="1039" 
d="M361 0v49q-27 -30 -57 -42.5t-72 -12.5q-39 0 -72 12t-55 35q-19 19 -29.5 43.5t-16 52.5t-7 59.5t-1.5 64.5t1.5 64t7 59t16 52.5t29.5 43.5q22 23 54.5 35t71.5 12q40 0 70.5 -11.5t56.5 -40.5v237h130v-712h-127zM358 261q0 31 -3 58.5t-12.5 47.5t-27 31.5
t-46.5 11.5t-46.5 -11.5t-26.5 -31.5t-12 -47.5t-3 -58.5q0 -32 3 -59t12 -47.5t26.5 -32t46.5 -11.5t46.5 11.5t27 32t12.5 47.5t3 59zM598 0v99l231 305h-218v117h384v-99l-234 -305h234v-117h-397z" />
    <glyph glyph-name="Aringacute" unicode="&#x1fa;" horiz-adv-x="638" 
d="M488 0l-42 126h-253l-43 -126h-145l259 712h109l260 -712h-145zM322 502l-90 -259h177zM448 884q0 -27 -10.5 -51t-28 -41.5t-41.5 -28t-51 -10.5t-51 10.5t-41.5 28t-28 41.5t-10.5 51t10.5 51t28 41.5t41.5 28t51 10.5t51 -10t41.5 -28t28 -42t10.5 -51zM375 884
q0 24 -17 41t-41 17t-41 -17t-17 -41t17 -41.5t41 -17.5t41 17.5t17 41.5zM350 1025h-87l64 170h137z" />
    <glyph glyph-name="aringacute" unicode="&#x1fb;" horiz-adv-x="534" 
d="M340 0v45q-26 -26 -54.5 -38t-73.5 -12q-87 0 -133 46q-21 22 -32 52t-11 65q0 31 11 58.5t33 48t56 32.5t80 12h121v26q0 43 -22.5 62.5t-74.5 19.5q-35 0 -57 -10.5t-43 -34.5l-82 81q38 42 80 58t107 16q222 0 222 -184v-343h-127zM337 220h-99q-77 0 -77 -60
q0 -27 19 -43t60 -16q24 0 42 4.5t35 20.5q11 10 15.5 25.5t4.5 40.5v28zM392 715q0 -27 -10.5 -51t-28 -41.5t-41.5 -28t-51 -10.5t-51 10.5t-41.5 28t-28 41.5t-10.5 51t10.5 51t28 41.5t41.5 28t51 10.5t51 -10t41.5 -28t28 -42t10.5 -51zM319 715q0 24 -17 41t-41 17
t-41 -17t-17 -41t17 -41.5t41 -17.5t41 17.5t17 41.5zM294 856h-87l64 170h137z" />
    <glyph glyph-name="AEacute" unicode="&#x1fc;" horiz-adv-x="979" 
d="M458 0v156h-225l-81 -156h-149l372 712h551v-124h-330v-168h282v-124h-282v-172h330v-124h-468zM458 588l-165 -315h165v315zM545 781h-87l64 170h137z" />
    <glyph glyph-name="aeacute" unicode="&#x1fd;" horiz-adv-x="838" 
d="M337 220h-99q-77 0 -77 -60q0 -27 19 -43t60 -16q24 0 42 4.5t35 20.5q11 10 15.5 25.5t4.5 40.5v28zM663 309q-1 17 -3 29.5t-9 26.5q-10 23 -32 38.5t-55 15.5t-55 -15.5t-32 -38.5q-7 -14 -9 -26.5t-3 -29.5h198zM395 67q-20 -21 -38.5 -35t-40 -22.5t-46.5 -12
t-58 -3.5q-86 0 -133 47q-21 22 -32 52t-11 65q0 31 11 58.5t33 48t56 32.5t80 12h121v26q0 43 -22.5 62.5t-74.5 19.5q-35 0 -57 -10.5t-43 -34.5l-82 81q38 42 80 58t107 16q118 0 171 -57q26 28 64.5 42.5t83.5 14.5q54 0 96.5 -18.5t71.5 -52t44 -80t15 -101.5v-55h-326
q0 -51 29 -83.5t85 -32.5q43 0 68 12.5t50 36.5l79 -77q-20 -20 -40 -35.5t-43.5 -26t-51.5 -15.5t-63 -5q-53 0 -100.5 16.5t-82.5 56.5zM422 604h-87l64 170h137z" />
    <glyph glyph-name="Oslashacute" unicode="&#x1fe;" horiz-adv-x="644" 
d="M585 356q0 -51 -1.5 -92t-8.5 -75.5t-21.5 -63.5t-41.5 -56q-36 -36 -82 -55.5t-108 -19.5q-65 0 -113 21l-29 -59h-99l53 110l-3 3q-27 27 -41.5 56t-21 63.5t-8 75.5t-1.5 92t1.5 92t8 75.5t21 63.5t41.5 56q36 36 82.5 55.5t108.5 19.5q32 0 60 -5.5t53 -16.5l29 60
h98l-53 -110l3 -3q27 -27 41.5 -56t21.5 -63.5t8.5 -75.5t1.5 -92zM446 356q0 58 -2.5 93t-7.5 57l-178 -371q28 -17 64 -17q29 0 51.5 11t37.5 28q10 11 16.5 24.5t10.5 35t6 55t2 84.5zM198 356q0 -58 2 -93t7 -57l178 371q-28 17 -63 17q-29 0 -51.5 -10.5t-38.5 -27.5
q-10 -11 -16.5 -24.5t-10.5 -35.5t-5.5 -55.5t-1.5 -84.5zM354 781h-87l64 170h137z" />
    <glyph glyph-name="oslashacute" unicode="&#x1ff;" 
d="M492 261q0 -71 -12 -118.5t-47 -84.5q-24 -26 -64 -45t-98 -19q-32 0 -57.5 6t-46.5 17l-36 -61h-79l59 101q-37 38 -48.5 85.5t-11.5 118.5t12 118t47 84q24 26 63.5 45t97.5 19q61 0 105 -22l35 60h80l-59 -100q37 -41 48.5 -87.5t11.5 -116.5zM362 261q0 24 -1.5 45.5
t-6.5 39.5l-131 -222q21 -13 48 -13q38 0 61 23q20 20 25 53t5 74zM320 397q-21 13 -49 13q-37 0 -60 -23q-20 -20 -25 -52.5t-5 -73.5q0 -24 1 -46t6 -40zM304 604h-87l64 170h137z" />
    <glyph glyph-name="Scommaaccent" unicode="&#x218;" horiz-adv-x="591" 
d="M543 210q0 -52 -20 -92t-55.5 -67.5t-84 -42t-104.5 -14.5q-81 0 -144.5 20.5t-115.5 73.5l90 90q34 -34 78 -47t93 -13q63 0 95 23t32 66q0 37 -22 59q-11 10 -24 15t-40 9l-85 13q-48 7 -81 21.5t-57 37.5q-51 49 -51 140q0 48 17 87.5t49 68t78 44.5t104 16
q74 0 129 -19t101 -64l-88 -87q-33 32 -72 40.5t-74 8.5q-56 0 -82.5 -26.5t-26.5 -63.5q0 -14 4.5 -27t15.5 -24q11 -10 26.5 -17t38.5 -10l85 -13q49 -7 81 -20t55 -36q29 -26 42 -64t13 -86zM326 -206h-121l69 146h96z" />
    <glyph glyph-name="scommaaccent" unicode="&#x219;" horiz-adv-x="501" 
d="M465 164q0 -43 -17 -75t-47 -53t-70.5 -31.5t-86.5 -10.5q-31 0 -60 2.5t-56.5 10.5t-54 22.5t-51.5 39.5l85 85q16 -16 34 -25.5t36.5 -15t36 -7t32.5 -1.5q17 0 33.5 3t29.5 9.5t21 16.5t8 25q0 20 -11.5 32.5t-43.5 15.5l-84 8q-69 7 -109.5 40.5t-40.5 105.5
q0 41 16.5 72t44 52t64 31.5t76.5 10.5q62 0 111.5 -13t87.5 -48l-80 -81q-23 20 -54.5 27.5t-66.5 7.5q-39 0 -56.5 -15t-17.5 -35t12.5 -31t41.5 -14l82 -8q78 -8 116.5 -47t38.5 -106zM281 -206h-121l69 146h96z" />
    <glyph glyph-name="uni021A" unicode="&#x21a;" horiz-adv-x="571" 
d="M355 588v-588h-139v588h-186v124h511v-124h-186zM289 -206h-121l69 146h96z" />
    <glyph glyph-name="uni021B" unicode="&#x21b;" horiz-adv-x="352" 
d="M236 0q-40 0 -68.5 13t-47 34t-27 47.5t-8.5 54.5v258h-55v99h55v154h130v-154h92v-99h-92v-250q0 -47 45 -47h47v-110h-71zM207 -206h-121l69 146h96z" />
    <glyph glyph-name="uni0237" unicode="&#x237;" horiz-adv-x="275" 
d="M203 -46q0 -28 -8.5 -54.5t-27 -47.5t-47.5 -34t-69 -13h-74v110h50q25 0 35.5 12t10.5 35v544h130v-552z" />
    <glyph glyph-name="uni0259" unicode="&#x259;" horiz-adv-x="548" 
d="M373 301q0 51 -29 83.5t-85 32.5q-43 0 -68 -12.5t-50 -36.5l-79 77q20 20 40 35.5t43.5 26t51.5 15.5t63 5q46 0 89.5 -12t77 -42.5t54 -82t20.5 -130.5q0 -64 -16.5 -113.5t-46.5 -83.5t-71.5 -51.5t-92.5 -17.5q-54 0 -96.5 18.5t-71.5 52t-44 79.5t-15 102v55h326z
M175 212q1 -17 3 -29.5t9 -26.5q11 -23 32.5 -38.5t54.5 -15.5t54.5 15.5t32.5 38.5q7 14 9 26.5t3 29.5h-198z" />
    <glyph glyph-name="uni02BB" unicode="&#x2bb;" horiz-adv-x="273" 
d="M68 589v123l136 105v-228h-136z" />
    <glyph glyph-name="afii57929" unicode="&#x2bc;" horiz-adv-x="273" 
d="M68 485v227h136v-124z" />
    <glyph glyph-name="circumflex" unicode="&#x2c6;" horiz-adv-x="500" 
d="M334 604l-83 91l-83 -91h-101l132 169h104l132 -169h-101z" />
    <glyph glyph-name="caron" unicode="&#x2c7;" horiz-adv-x="500" 
d="M302 604h-104l-132 169h101l83 -90l83 90h101z" />
    <glyph glyph-name="breve" unicode="&#x2d8;" horiz-adv-x="500" 
d="M414 748q-2 -41 -15.5 -69.5t-36 -46.5t-51.5 -26.5t-61 -8.5t-61 8.5t-51.5 26.5t-36.5 46.5t-15 69.5h87q4 -32 26 -46t51 -14t51 14t26 46h87z" />
    <glyph glyph-name="dotaccent" unicode="&#x2d9;" horiz-adv-x="500" 
d="M192 728h115v-115h-115v115z" />
    <glyph glyph-name="ring" unicode="&#x2da;" horiz-adv-x="500" 
d="M381 715q0 -27 -10.5 -51t-28 -41.5t-41.5 -28t-51 -10.5t-51 10.5t-41.5 28t-28 41.5t-10.5 51t10.5 51t28 41.5t41.5 28t51 10.5t51 -10t41.5 -28t28 -42t10.5 -51zM308 715q0 24 -17 41t-41 17t-41 -17t-17 -41t17 -41.5t41 -17.5t41 17.5t17 41.5z" />
    <glyph glyph-name="ogonek" unicode="&#x2db;" horiz-adv-x="500" 
d="M363 -206h-121l69 146h96z" />
    <glyph glyph-name="tilde" unicode="&#x2dc;" horiz-adv-x="500" 
d="M447 671q-33 -33 -58.5 -45.5t-54.5 -12.5q-22 0 -39 5t-38 17q-14 8 -27.5 13t-28.5 5q-13 0 -25.5 -4t-32.5 -24l-57 57q33 33 58 45.5t54 12.5q23 0 39.5 -4.5t38.5 -17.5q14 -9 27 -14t28 -5q13 0 25.5 4.5t32.5 24.5z" />
    <glyph glyph-name="hungarumlaut" unicode="&#x2dd;" horiz-adv-x="500" 
d="M147 604h-88l64 170h137zM347 604h-86l63 170h138z" />
    <glyph glyph-name="uni037E" unicode="&#x37e;" horiz-adv-x="309" 
d="M96 -165v307h142v-197zM93 271v148h148v-148h-148z" />
    <glyph glyph-name="tonos" unicode="&#x384;" horiz-adv-x="360" 
d="M126 573v158h116v-109z" />
    <glyph glyph-name="dieresistonos" unicode="&#x385;" horiz-adv-x="481" 
d="M343 590v125h111v-125h-111zM186 590v158h115v-109zM27 590v125h111v-125h-111z" />
    <glyph glyph-name="Alphatonos" unicode="&#x386;" horiz-adv-x="638" 
d="M488 0l-42 126h-253l-43 -126h-145l259 712h109l260 -712h-145zM322 502l-90 -259h177zM-25 555v158h116v-109z" />
    <glyph glyph-name="anoteleia" unicode="&#x387;" horiz-adv-x="285" 
d="M68 212v148h149v-148h-149z" />
    <glyph glyph-name="Epsilontonos" unicode="&#x388;" horiz-adv-x="605" 
d="M83 0v712h469v-124h-330v-167h281v-124h-281v-173h330v-124h-469zM-105 555v158h116v-109z" />
    <glyph glyph-name="Etatonos" unicode="&#x389;" horiz-adv-x="685" 
d="M463 0v298h-241v-298h-139v712h139v-291h241v291h139v-712h-139zM-105 555v158h116v-109z" />
    <glyph glyph-name="Iotatonos" unicode="&#x38a;" horiz-adv-x="305" 
d="M83 0v712h139v-712h-139zM-105 555v158h116v-109z" />
    <glyph glyph-name="Omicrontonos" unicode="&#x38c;" horiz-adv-x="644" 
d="M585 356q0 -51 -1.5 -92t-8.5 -75.5t-21.5 -63.5t-41.5 -56q-36 -36 -82 -55.5t-108 -19.5t-108.5 19.5t-82.5 55.5q-27 27 -41.5 56t-21 63.5t-8 75.5t-1.5 92t1.5 92t8 75.5t21 63.5t41.5 56q36 36 82.5 55.5t108.5 19.5t108 -19.5t82 -55.5q27 -27 41.5 -56
t21.5 -63.5t8.5 -75.5t1.5 -92zM446 356q0 51 -2 84.5t-6 55.5t-10.5 35.5t-16.5 24.5q-15 17 -37.5 27.5t-51.5 10.5t-51.5 -10.5t-38.5 -27.5q-10 -11 -16.5 -24.5t-10.5 -35.5t-5.5 -55.5t-1.5 -84.5t1.5 -84.5t5.5 -55t10.5 -35t16.5 -24.5q16 -17 38.5 -28t51.5 -11
t51.5 11t37.5 28q10 11 16.5 24.5t10.5 35t6 55t2 84.5zM-85 555v158h116v-109z" />
    <glyph glyph-name="Upsilontonos" unicode="&#x38e;" horiz-adv-x="572" 
d="M355 292v-292h-138v292l-214 420h151l133 -287l131 287h151zM-145 555v158h116v-109z" />
    <glyph glyph-name="Omegatonos" unicode="&#x38f;" horiz-adv-x="644" 
d="M585 356q0 -55 -4.5 -99t-18.5 -79q-6 -14 -14.5 -27.5t-21.5 -26.5h59v-124h-219v110q17 8 30.5 18.5t22.5 24.5q7 10 12 24.5t8.5 37.5t5 55.5t1.5 78.5q0 51 -1.5 85.5t-5.5 57.5t-11 37.5t-17 25.5q-15 17 -37.5 28t-51.5 11t-51.5 -11t-38.5 -28
q-10 -11 -16.5 -25.5t-10.5 -37.5t-5.5 -57.5t-1.5 -85.5q0 -46 1.5 -78.5t4.5 -55.5t8 -37.5t12 -24.5q18 -27 54 -43v-110h-219v124h59q-14 13 -22.5 26.5t-14.5 27.5q-14 35 -18 79t-4 99q0 51 1.5 92t8 75.5t21 63.5t41.5 56q37 36 83 55.5t108 19.5t108 -19.5t82 -55.5
q27 -27 41.5 -56t21.5 -63.5t8.5 -75.5t1.5 -92zM-85 555v158h116v-109z" />
    <glyph glyph-name="iotadieresistonos" unicode="&#x390;" horiz-adv-x="325" 
d="M220 0q-40 0 -69 13t-47.5 34t-27 47.5t-8.5 54.5v372h130v-364q0 -23 10.5 -35t35.5 -12h50v-110h-74zM244 590v125h111v-125h-111zM87 590v158h115v-109zM-72 590v125h111v-125h-111z" />
    <glyph glyph-name="Alpha" unicode="&#x391;" horiz-adv-x="638" 
d="M488 0l-42 126h-253l-43 -126h-145l259 712h109l260 -712h-145zM322 502l-90 -259h177z" />
    <glyph glyph-name="Beta" unicode="&#x392;" horiz-adv-x="658" 
d="M501 365q21 -11 32 -19t22 -19q23 -25 33.5 -55t10.5 -68q0 -47 -15 -84.5t-43.5 -64t-69 -41t-90.5 -14.5h-298v712h286q50 0 91 -14t69.5 -39.5t44 -61.5t15.5 -81q0 -102 -88 -151zM358 424q43 0 67.5 22t24.5 60t-24.5 60t-67.5 22h-136v-164h136zM367 124
q43 0 68 23.5t25 64.5t-25 64t-68 23h-145v-175h145z" />
    <glyph glyph-name="Gamma" unicode="&#x393;" horiz-adv-x="568" 
d="M222 588v-588h-139v712h456v-124h-317z" />
    <glyph glyph-name="uni0394" unicode="&#x394;" horiz-adv-x="634" 
d="M3 0l260 712h108l260 -712h-628zM320 502l-134 -385h264z" />
    <glyph glyph-name="Epsilon" unicode="&#x395;" horiz-adv-x="605" 
d="M83 0v712h469v-124h-330v-167h281v-124h-281v-173h330v-124h-469z" />
    <glyph glyph-name="Zeta" unicode="&#x396;" horiz-adv-x="548" 
d="M40 0v112l304 476h-291v124h455v-110l-305 -478h305v-124h-468z" />
    <glyph glyph-name="Eta" unicode="&#x397;" horiz-adv-x="685" 
d="M463 0v298h-241v-298h-139v712h139v-291h241v291h139v-712h-139z" />
    <glyph glyph-name="Theta" unicode="&#x398;" horiz-adv-x="644" 
d="M585 356q0 -51 -1.5 -92t-8.5 -75.5t-21.5 -63.5t-41.5 -56q-36 -36 -82 -55.5t-108 -19.5t-108 19.5t-83 55.5q-27 27 -41.5 56t-21 63.5t-8 75.5t-1.5 92t1.5 92t8 75.5t21 63.5t41.5 56q37 36 83 55.5t108 19.5t108 -19.5t82 -55.5q27 -27 41.5 -56t21.5 -63.5
t8.5 -75.5t1.5 -92zM411 157q9 9 15 20t10 27t6 39t3 57h-247q1 -34 3.5 -57t6.5 -39t10 -27t14 -20q16 -17 38.5 -28t51.5 -11t51.5 11t37.5 28zM232 556q-8 -9 -14 -20t-10 -26.5t-6 -37.5t-3 -53h246q-1 31 -3.5 53t-6.5 37.5t-10 26.5t-14 20q-15 17 -37.5 27.5
t-51.5 10.5t-51.5 -10.5t-38.5 -27.5z" />
    <glyph glyph-name="Iota" unicode="&#x399;" horiz-adv-x="305" 
d="M83 0v712h139v-712h-139z" />
    <glyph glyph-name="Kappa" unicode="&#x39a;" horiz-adv-x="665" 
d="M497 0l-183 324l-92 -110v-214h-139v712h139v-310l251 310h169l-236 -283l253 -429h-162z" />
    <glyph glyph-name="Lambda" unicode="&#x39b;" horiz-adv-x="611" 
d="M458 0l-149 498l-156 -498h-145l240 712h114l241 -712h-145z" />
    <glyph glyph-name="Mu" unicode="&#x39c;" horiz-adv-x="811" 
d="M589 0v415l-136 -270h-94l-137 270v-415h-139v712h137l186 -385l185 385h137v-712h-139z" />
    <glyph glyph-name="Nu" unicode="&#x39d;" horiz-adv-x="711" 
d="M504 0l-282 437v-437h-139v712h124l282 -436v436h139v-712h-124z" />
    <glyph glyph-name="Xi" unicode="&#x39e;" horiz-adv-x="597" 
d="M53 0v124h176v173h-128v124h128v167h-176v124h491v-124h-176v-167h128v-124h-128v-173h176v-124h-491z" />
    <glyph glyph-name="Omicron" unicode="&#x39f;" horiz-adv-x="644" 
d="M585 356q0 -51 -1.5 -92t-8.5 -75.5t-21.5 -63.5t-41.5 -56q-36 -36 -82 -55.5t-108 -19.5t-108.5 19.5t-82.5 55.5q-27 27 -41.5 56t-21 63.5t-8 75.5t-1.5 92t1.5 92t8 75.5t21 63.5t41.5 56q36 36 82.5 55.5t108.5 19.5t108 -19.5t82 -55.5q27 -27 41.5 -56
t21.5 -63.5t8.5 -75.5t1.5 -92zM446 356q0 51 -2 84.5t-6 55.5t-10.5 35.5t-16.5 24.5q-15 17 -37.5 27.5t-51.5 10.5t-51.5 -10.5t-38.5 -27.5q-10 -11 -16.5 -24.5t-10.5 -35.5t-5.5 -55.5t-1.5 -84.5t1.5 -84.5t5.5 -55t10.5 -35t16.5 -24.5q16 -17 38.5 -28t51.5 -11
t51.5 11t37.5 28q10 11 16.5 24.5t10.5 35t6 55t2 84.5z" />
    <glyph glyph-name="Pi" unicode="&#x3a0;" horiz-adv-x="682" 
d="M460 0v588h-238v-588h-139v712h516v-712h-139z" />
    <glyph glyph-name="Rho" unicode="&#x3a1;" horiz-adv-x="628" 
d="M594 490q0 -45 -16 -85.5t-46 -71t-74 -48t-99 -17.5h-137v-268h-139v712h276q55 0 99 -17.5t74 -48t46 -71t16 -85.5zM455 490q0 44 -27.5 71t-75.5 27h-130v-195h130q48 0 75.5 26.5t27.5 70.5z" />
    <glyph glyph-name="Sigma" unicode="&#x3a3;" horiz-adv-x="547" 
d="M224 588l131 -212l-152 -252h305v-124h-468v111l161 263l-145 232v106h455v-124h-287z" />
    <glyph glyph-name="Tau" unicode="&#x3a4;" horiz-adv-x="571" 
d="M355 588v-588h-139v588h-186v124h511v-124h-186z" />
    <glyph glyph-name="Upsilon" unicode="&#x3a5;" horiz-adv-x="572" 
d="M355 292v-292h-138v292l-214 420h151l133 -287l131 287h151z" />
    <glyph glyph-name="Phi" unicode="&#x3a6;" horiz-adv-x="777" 
d="M729 359q0 -31 -2.5 -61t-10 -58.5t-21.5 -55t-37 -49.5q-44 -44 -91.5 -61t-108.5 -17v-57h-139v57q-61 0 -108.5 17t-91.5 61q-23 23 -37 49.5t-21.5 55t-10 58.5t-2.5 61t2.5 61t10 58.5t21.5 55t37 49.5q44 44 91.5 61t108.5 17v51h139v-51q61 0 108.5 -17t91.5 -61
q23 -23 37 -49.5t21.5 -55t10 -58.5t2.5 -61zM590 359q0 39 -5 74t-28 63q-19 22 -43.5 31.5t-55.5 9.5v-356q31 0 55.5 9t43.5 31q23 28 28 63.5t5 74.5zM319 537q-31 0 -55.5 -9.5t-43.5 -31.5q-23 -28 -28 -63t-5 -74t5 -74.5t28 -63.5q19 -22 43.5 -31t55.5 -9v356z" />
    <glyph glyph-name="Chi" unicode="&#x3a7;" horiz-adv-x="603" 
d="M439 0l-138 248l-137 -248h-159l221 365l-207 347h158l124 -230l125 230h157l-207 -347l222 -365h-159z" />
    <glyph glyph-name="Psi" unicode="&#x3a8;" horiz-adv-x="745" 
d="M695 363q0 -50 -15 -89.5t-50 -74.5q-37 -37 -83 -57t-105 -21v-121h-139v121q-59 1 -105 21t-83 57q-35 35 -50 74.5t-15 89.5v349h138v-349q0 -29 8 -47t22 -33q16 -17 38.5 -27t46.5 -11v467h139v-467q24 1 46.5 11t38.5 27q14 15 22 33t8 47v349h138v-349z" />
    <glyph glyph-name="uni03A9" unicode="&#x3a9;" horiz-adv-x="644" 
d="M585 356q0 -55 -4.5 -99t-18.5 -79q-6 -14 -14.5 -27.5t-21.5 -26.5h59v-124h-219v110q17 8 30.5 18.5t22.5 24.5q7 10 12 24.5t8.5 37.5t5 55.5t1.5 78.5q0 51 -1.5 85.5t-5.5 57.5t-11 37.5t-17 25.5q-15 17 -37.5 28t-51.5 11t-51.5 -11t-38.5 -28
q-10 -11 -16.5 -25.5t-10.5 -37.5t-5.5 -57.5t-1.5 -85.5q0 -46 1.5 -78.5t4.5 -55.5t8 -37.5t12 -24.5q18 -27 54 -43v-110h-219v124h59q-14 13 -22.5 26.5t-14.5 27.5q-14 35 -18 79t-4 99q0 51 1.5 92t8 75.5t21 63.5t41.5 56q37 36 83 55.5t108 19.5t108 -19.5t82 -55.5
q27 -27 41.5 -56t21.5 -63.5t8.5 -75.5t1.5 -92z" />
    <glyph glyph-name="Iotadieresis" unicode="&#x3aa;" horiz-adv-x="305" 
d="M83 0v712h139v-712h-139zM206 783v125h111v-125h-111zM-15 783v125h111v-125h-111z" />
    <glyph glyph-name="Upsilondieresis" unicode="&#x3ab;" horiz-adv-x="572" 
d="M355 292v-292h-138v292l-214 420h151l133 -287l131 287h151zM341 783v125h111v-125h-111zM120 783v125h111v-125h-111z" />
    <glyph glyph-name="alphatonos" unicode="&#x3ac;" horiz-adv-x="561" 
d="M361 0v49q-27 -30 -57 -42.5t-72 -12.5q-38 0 -72 12.5t-56 34.5q-20 19 -30.5 45t-15.5 55t-6 60t-1 60t1 59.5t6 59.5t15.5 54.5t30.5 45.5q22 22 55.5 34.5t71.5 12.5q42 0 72.5 -12.5t56.5 -41.5v48h128v-521h-127zM358 261q0 31 -3 58.5t-12 47.5t-26.5 31.5
t-46.5 11.5t-46.5 -11.5t-27 -31.5t-12.5 -47.5t-3 -58.5q0 -32 3 -59t12.5 -47.5t27 -32t46.5 -11.5t46.5 11.5t26.5 32t12 47.5t3 59zM226 573v158h116v-109z" />
    <glyph glyph-name="epsilontonos" unicode="&#x3ad;" horiz-adv-x="510" 
d="M490 85q-28 -27 -54 -44t-53.5 -27.5t-57.5 -14.5t-67 -4q-39 0 -77.5 8.5t-68.5 27.5t-48.5 48.5t-18.5 71.5q0 26 7.5 46t19 34t25 23.5t25.5 15.5q-10 5 -21 14t-20.5 22.5t-15.5 31t-6 39.5q0 35 17 63t45 47.5t65 29.5t78 10q30 0 55 -3t48 -11.5t46.5 -22.5
t50.5 -35l-73 -88q-32 26 -58.5 39t-62.5 13t-59 -15t-23 -41q0 -21 18 -35t47 -14h98v-99h-99q-22 0 -36.5 -5t-23 -12.5t-12 -16.5t-3.5 -17q0 -26 26.5 -42.5t65.5 -16.5q42 0 73.5 14.5t63.5 43.5zM216 573v158h116v-109z" />
    <glyph glyph-name="etatonos" unicode="&#x3ae;" horiz-adv-x="573" 
d="M376 0v315q0 27 -7.5 45t-20 29t-28 16t-30.5 5t-30.5 -5t-28 -16t-20.5 -29t-8 -45v-315h-130v521h127v-48q26 27 60 40.5t70 13.5q39 0 70 -12t53 -34q32 -32 42.5 -68.5t10.5 -79.5v-333h-130zM236 573v158h116v-109z" />
    <glyph glyph-name="iotatonos" unicode="&#x3af;" horiz-adv-x="325" 
d="M220 0q-40 0 -69 13t-47.5 34t-27 47.5t-8.5 54.5v372h130v-364q0 -23 10.5 -35t35.5 -12h50v-110h-74zM79 573v158h116v-109z" />
    <glyph glyph-name="upsilondieresistonos" unicode="&#x3b0;" horiz-adv-x="545" 
d="M489 240q0 -68 -12 -109.5t-43 -74.5q-24 -25 -63.5 -43.5t-98.5 -18.5q-58 0 -97.5 18.5t-63.5 43.5q-31 33 -43 74.5t-12 109.5v281h130v-314q0 -27 7.5 -45.5t20 -30t28 -16t30.5 -4.5q16 0 31.5 4.5t28 16t20 30t7.5 45.5v314h130v-281zM375 590v125h111v-125h-111z
M218 590v158h115v-109zM59 590v125h111v-125h-111z" />
    <glyph glyph-name="alpha" unicode="&#x3b1;" horiz-adv-x="561" 
d="M361 0v49q-27 -30 -57 -42.5t-72 -12.5q-38 0 -72 12.5t-56 34.5q-20 19 -30.5 45t-15.5 55t-6 60t-1 60t1 59.5t6 59.5t15.5 54.5t30.5 45.5q22 22 55.5 34.5t71.5 12.5q42 0 72.5 -12.5t56.5 -41.5v48h128v-521h-127zM358 261q0 31 -3 58.5t-12 47.5t-26.5 31.5
t-46.5 11.5t-46.5 -11.5t-27 -31.5t-12.5 -47.5t-3 -58.5q0 -32 3 -59t12.5 -47.5t27 -32t46.5 -11.5t46.5 11.5t26.5 32t12 47.5t3 59z" />
    <glyph glyph-name="beta" unicode="&#x3b2;" horiz-adv-x="579" 
d="M531 218q0 -44 -13.5 -90.5t-44.5 -78.5q-24 -24 -59 -39.5t-81 -15.5q-50 0 -83 17.5t-51 37.5v-49h-126v520q0 47 17 83.5t46.5 61t70 37.5t87.5 13q46 0 85 -11.5t67.5 -34.5t44.5 -56.5t16 -77.5q0 -29 -7 -56t-22 -47q-23 -29 -52 -41q17 -6 33.5 -16t29.5 -24
q21 -24 31.5 -56t10.5 -77zM402 228q0 42 -13 61.5t-31 27.5q-15 7 -31.5 10t-40.5 3h-51v103h61q27 0 44 8.5t26.5 21.5t13 28.5t3.5 29.5q0 20 -6.5 35t-14.5 24q-23 25 -65 25q-51 0 -72 -27t-21 -72v-295q0 -45 26 -73t67 -28q44 0 69 21q20 17 28 44t8 53z" />
    <glyph glyph-name="gamma" unicode="&#x3b3;" horiz-adv-x="494" 
d="M311 15v-206h-129v206l-178 506h138l106 -340l104 340h138z" />
    <glyph glyph-name="delta" unicode="&#x3b4;" horiz-adv-x="537" 
d="M486 265q0 -69 -11.5 -117t-42.5 -85q-24 -29 -64 -49t-102 -20q-58 0 -97 19t-63 48q-30 35 -42.5 82t-12.5 113q0 67 14.5 116t50.5 83q20 19 47.5 31t58.5 12q8 0 17 -0.5t18 -3.5l-147 121v97h344v-101h-180l110 -92q60 -51 81 -114.5t21 -139.5zM354 256
q0 42 -6.5 75t-26.5 51q-19 16 -50 16q-17 0 -29 -4t-22 -11q-24 -17 -31.5 -51t-7.5 -76q0 -40 6.5 -74.5t29.5 -53.5q19 -16 51 -16q33 0 51 15q23 18 29 52.5t6 76.5z" />
    <glyph glyph-name="epsilon" unicode="&#x3b5;" horiz-adv-x="510" 
d="M490 85q-28 -27 -54 -44t-53.5 -27.5t-57.5 -14.5t-67 -4q-39 0 -77.5 8.5t-68.5 27.5t-48.5 48.5t-18.5 71.5q0 26 7.5 46t19 34t25 23.5t25.5 15.5q-10 5 -21 14t-20.5 22.5t-15.5 31t-6 39.5q0 35 17 63t45 47.5t65 29.5t78 10q30 0 55 -3t48 -11.5t46.5 -22.5
t50.5 -35l-73 -88q-32 26 -58.5 39t-62.5 13t-59 -15t-23 -41q0 -21 18 -35t47 -14h98v-99h-99q-22 0 -36.5 -5t-23 -12.5t-12 -16.5t-3.5 -17q0 -26 26.5 -42.5t65.5 -16.5q42 0 73.5 14.5t63.5 43.5z" />
    <glyph glyph-name="zeta" unicode="&#x3b6;" horiz-adv-x="500" 
d="M472 -19q0 -14 -5.5 -38.5t-24 -48.5t-54 -41.5t-95.5 -17.5v101q26 0 41.5 8t15.5 33q0 18 -16 22t-33 4h-44q-106 0 -160 38.5t-54 119.5q0 43 16 79t42.5 66t61 54t71.5 44h-158v117h384v-117h-19q-36 -16 -81.5 -40t-85 -53.5t-66.5 -64t-27 -71.5q0 -34 24.5 -46.5
t73.5 -12.5h29q35 0 65 -7t52 -23t34.5 -42t12.5 -63z" />
    <glyph glyph-name="eta" unicode="&#x3b7;" horiz-adv-x="573" 
d="M376 0v315q0 27 -7.5 45t-20 29t-28 16t-30.5 5t-30.5 -5t-28 -16t-20.5 -29t-8 -45v-315h-130v521h127v-48q26 27 60 40.5t70 13.5q39 0 70 -12t53 -34q32 -32 42.5 -68.5t10.5 -79.5v-333h-130z" />
    <glyph glyph-name="theta" unicode="&#x3b8;" horiz-adv-x="575" 
d="M513 356q0 -41 -1 -82t-7 -79t-18.5 -72t-36.5 -60q-32 -36 -71 -52.5t-91 -16.5q-53 0 -92 16.5t-71 52.5q-24 26 -36.5 60t-18.5 72t-7 79t-1 82t1 82t7 79t18.5 72t36.5 60q32 35 71 52t92 17q52 0 91 -17t71 -52q24 -26 36.5 -60t18.5 -72t7 -79t1 -82zM193 311
q0 -67 5.5 -107.5t21.5 -59.5q12 -15 28.5 -24t39.5 -9t39 9t28 24q16 19 21.5 59.5t5.5 107.5h-189zM382 420q0 52 -5.5 90.5t-21.5 57.5q-12 15 -28 24t-39 9t-39.5 -9t-28.5 -24q-16 -19 -21.5 -57.5t-5.5 -90.5h189z" />
    <glyph glyph-name="iota" unicode="&#x3b9;" horiz-adv-x="325" 
d="M220 0q-40 0 -69 13t-47.5 34t-27 47.5t-8.5 54.5v372h130v-364q0 -23 10.5 -35t35.5 -12h50v-110h-74z" />
    <glyph glyph-name="kappa" unicode="&#x3ba;" horiz-adv-x="560" 
d="M386 0l-128 217l-55 -62v-155h-131v521h131v-213l173 213h157l-186 -210l201 -311h-162z" />
    <glyph glyph-name="lambda" unicode="&#x3bb;" horiz-adv-x="514" 
d="M468 0q-66 0 -99.5 35.5t-50.5 91.5l-60 193l-113 -320h-137l188 486l-21 74q-7 24 -22 33t-35 9h-32v115h48q33 0 61.5 -9t51.5 -32t38 -66l152 -458q6 -19 18 -30.5t30 -11.5h37v-110h-54z" />
    <glyph glyph-name="uni03BC" unicode="&#x3bc;" horiz-adv-x="576" 
d="M376 0v48q-26 -27 -60 -40.5t-70 -13.5q-27 0 -46 14v-199h-130v712h130v-315q0 -27 7.5 -45t20 -29t28 -16t30.5 -5t30.5 5t28 16t20.5 29t8 45v315h130v-521h-127z" />
    <glyph glyph-name="nu" unicode="&#x3bd;" horiz-adv-x="494" 
d="M298 0h-102l-192 521h137l106 -322l105 322h137z" />
    <glyph glyph-name="xi" unicode="&#x3be;" horiz-adv-x="509" 
d="M425 544q-29 32 -62 49.5t-72 17.5q-44 0 -69.5 -25t-25.5 -70q0 -42 25 -64t68 -22h120v-109h-110q-11 0 -31 -3.5t-40 -14.5t-35 -32.5t-15 -58.5q0 -50 30 -73t73 -23h44q70 0 112.5 -32t42.5 -103q0 -14 -5.5 -38.5t-24 -48.5t-54 -41.5t-95.5 -17.5v101q26 0 41.5 8
t15.5 33q0 17 -13.5 21.5t-39.5 4.5h-44q-101 0 -159.5 49.5t-58.5 143.5q0 72 35 118t87 65q-42 14 -68.5 51.5t-26.5 88.5q0 47 16.5 84t46 63t69 40t85.5 14q60 0 113.5 -22t96.5 -70z" />
    <glyph glyph-name="omicron" unicode="&#x3bf;" 
d="M492 261q0 -71 -11.5 -118.5t-47.5 -84.5q-25 -26 -64.5 -45t-97.5 -19t-97 19t-64 45q-35 38 -47 85t-12 118t12 117.5t47 84.5q25 26 64 45t97 19t97.5 -19t64.5 -45q35 -38 47 -84.5t12 -117.5zM362 261q0 40 -5 73t-25 53q-23 23 -61 23q-37 0 -60 -23
q-20 -20 -25 -53t-5 -73q0 -41 5 -74t25 -53q23 -23 60 -23q38 0 61 23q20 20 25 53t5 74z" />
    <glyph glyph-name="pi" unicode="&#x3c0;" horiz-adv-x="578" 
d="M382 0v399h-180v-399h-130v521h439v-521h-129z" />
    <glyph glyph-name="rho" unicode="&#x3c1;" horiz-adv-x="536" 
d="M485 259q0 -57 -11 -110t-49 -94q-23 -25 -57.5 -43t-84.5 -18q-32 0 -57 14t-45 32v-231h-130v451q0 43 3.5 73.5t10 52.5t15.5 37.5t20 28.5q9 11 23.5 24t34.5 24.5t46 19t60 7.5q60 0 100 -19.5t63 -44.5q19 -20 30.5 -41t17.5 -45.5t8 -53t2 -64.5zM355 260
q0 45 -4 70.5t-15 44.5q-10 15 -28 24.5t-42 9.5t-39.5 -9t-25.5 -24q-12 -19 -16 -44t-4 -71q0 -32 2 -60t13 -48t26.5 -30t44.5 -10q28 0 45.5 12t27 32t12.5 47t3 56z" />
    <glyph glyph-name="sigma1" unicode="&#x3c2;" horiz-adv-x="480" 
d="M363 369q-20 22 -38 31.5t-44 9.5q-47 0 -75 -34t-28 -115q0 -127 116 -139q67 -8 106.5 -41t39.5 -100q0 -14 -5.5 -38.5t-24 -48.5t-54 -41.5t-95.5 -17.5v101q26 0 41.5 8t15.5 33q0 20 -19 26.5t-45 8.5q-43 3 -80.5 18.5t-65.5 45.5t-44.5 75.5t-16.5 109.5
q0 79 22 130.5t56 81.5t75.5 42t80.5 12q54 0 95 -17t76 -53z" />
    <glyph glyph-name="sigma" unicode="&#x3c3;" horiz-adv-x="567" 
d="M438 410q12 -10 22.5 -26.5t17.5 -36.5t11 -42.5t4 -43.5q0 -71 -12.5 -118.5t-47.5 -84.5q-25 -26 -64 -45t-97 -19t-97 19t-64 45q-35 37 -47.5 84.5t-12.5 118.5q0 70 12 116.5t47 83.5q25 26 63.5 43t96.5 17h251v-111h-83zM363 261q0 40 -5.5 75t-25.5 55
q-22 22 -61 22q-20 0 -34.5 -6.5t-25.5 -17.5q-20 -20 -25 -54t-5 -74t5 -73.5t25 -53.5q23 -23 61 -23t61 23q20 20 25 53.5t5 73.5z" />
    <glyph glyph-name="tau" unicode="&#x3c4;" horiz-adv-x="405" 
d="M268 404v-404h-131v404h-115v117h361v-117h-115z" />
    <glyph glyph-name="upsilon" unicode="&#x3c5;" horiz-adv-x="545" 
d="M489 240q0 -68 -12 -109.5t-43 -74.5q-24 -25 -63.5 -43.5t-98.5 -18.5q-58 0 -97.5 18.5t-63.5 43.5q-31 33 -43 74.5t-12 109.5v281h130v-314q0 -27 7.5 -45.5t20 -30t28 -16t30.5 -4.5q16 0 31.5 4.5t28 16t20 30t7.5 45.5v314h130v-281z" />
    <glyph glyph-name="phi" unicode="&#x3c6;" horiz-adv-x="699" 
d="M648 263q0 -58 -12.5 -107t-40 -84.5t-71.5 -56t-108 -21.5v-185h-130v185q-63 3 -108 24.5t-73 57.5t-41 83.5t-13 101.5q0 86 36 152.5t122 109.5l46 -96q-45 -29 -59 -73.5t-14 -96.5q0 -27 4 -53t15.5 -46.5t32 -34t52.5 -15.5v413h115q133 0 190 -63t57 -195z
M517 265q0 31 -3.5 57.5t-14 46t-30.5 30t-53 10.5v-301q33 1 53 13t30.5 32.5t14 49t3.5 62.5z" />
    <glyph glyph-name="chi" unicode="&#x3c7;" horiz-adv-x="527" 
d="M359 0l-96 156l-95 -156h-156l180 266l-173 255h156l88 -149l89 149h156l-173 -255l180 -266h-156z" />
    <glyph glyph-name="psi" unicode="&#x3c8;" horiz-adv-x="700" 
d="M642 261q0 -71 -12 -119t-44 -83q-25 -28 -66.5 -45t-103.5 -17v-188h-131v188q-62 0 -103.5 17t-66.5 45q-32 35 -44.5 83t-12.5 119v260h131v-284q0 -57 22.5 -91.5t73.5 -34.5v410h131v-410q52 0 73.5 33.5t21.5 92.5v284h131v-260z" />
    <glyph glyph-name="omega" unicode="&#x3c9;" horiz-adv-x="759" 
d="M708 261q0 -61 -8.5 -106.5t-34.5 -83.5q-23 -32 -60 -54.5t-91 -22.5q-55 0 -85 20.5t-50 50.5q-20 -30 -50 -50.5t-85 -20.5q-54 0 -90.5 22.5t-59.5 54.5q-26 38 -34.5 83.5t-8.5 106.5q0 63 12 113.5t44 85.5q22 24 60.5 45.5t100.5 21.5v-118q-21 0 -36.5 -8.5
t-25.5 -20.5q-15 -18 -20 -43.5t-5 -75.5q0 -32 3.5 -65t18.5 -56q8 -12 20 -20t29 -8q22 0 35.5 15t19.5 36q5 17 6 33.5t1 30.5v142h130v-142q0 -14 0.5 -31t5.5 -33q6 -22 19.5 -36.5t36.5 -14.5q17 0 29 8t20 20q15 23 18.5 56t3.5 65q0 50 -4.5 75.5t-19.5 43.5
q-10 12 -26 20.5t-37 8.5v118q31 0 56 -6t44.5 -15.5t34.5 -21.5t26 -24q32 -35 44.5 -85.5t12.5 -113.5z" />
    <glyph glyph-name="iotadieresis" unicode="&#x3ca;" horiz-adv-x="325" 
d="M220 0q-40 0 -69 13t-47.5 34t-27 47.5t-8.5 54.5v372h130v-364q0 -23 10.5 -35t35.5 -12h50v-110h-74zM194 606v125h111v-125h-111zM-27 606v125h111v-125h-111z" />
    <glyph glyph-name="upsilondieresis" unicode="&#x3cb;" horiz-adv-x="545" 
d="M489 240q0 -68 -12 -109.5t-43 -74.5q-24 -25 -63.5 -43.5t-98.5 -18.5q-58 0 -97.5 18.5t-63.5 43.5q-31 33 -43 74.5t-12 109.5v281h130v-314q0 -27 7.5 -45.5t20 -30t28 -16t30.5 -4.5q16 0 31.5 4.5t28 16t20 30t7.5 45.5v314h130v-281zM332 606v125h111v-125h-111z
M111 606v125h111v-125h-111z" />
    <glyph glyph-name="omicrontonos" unicode="&#x3cc;" 
d="M492 261q0 -71 -11.5 -118.5t-47.5 -84.5q-25 -26 -64.5 -45t-97.5 -19t-97 19t-64 45q-35 38 -47 85t-12 118t12 117.5t47 84.5q25 26 64 45t97 19t97.5 -19t64.5 -45q35 -38 47 -84.5t12 -117.5zM362 261q0 40 -5 73t-25 53q-23 23 -61 23q-37 0 -60 -23
q-20 -20 -25 -53t-5 -73q0 -41 5 -74t25 -53q23 -23 60 -23q38 0 61 23q20 20 25 53t5 74zM216 573v158h116v-109z" />
    <glyph glyph-name="upsilontonos" unicode="&#x3cd;" horiz-adv-x="545" 
d="M489 240q0 -68 -12 -109.5t-43 -74.5q-24 -25 -63.5 -43.5t-98.5 -18.5q-58 0 -97.5 18.5t-63.5 43.5q-31 33 -43 74.5t-12 109.5v281h130v-314q0 -27 7.5 -45.5t20 -30t28 -16t30.5 -4.5q16 0 31.5 4.5t28 16t20 30t7.5 45.5v314h130v-281zM216 573v158h116v-109z" />
    <glyph glyph-name="omegatonos" unicode="&#x3ce;" horiz-adv-x="759" 
d="M708 261q0 -61 -8.5 -106.5t-34.5 -83.5q-23 -32 -60 -54.5t-91 -22.5q-55 0 -85 20.5t-50 50.5q-20 -30 -50 -50.5t-85 -20.5q-54 0 -90.5 22.5t-59.5 54.5q-26 38 -34.5 83.5t-8.5 106.5q0 63 12 113.5t44 85.5q22 24 60.5 45.5t100.5 21.5v-118q-21 0 -36.5 -8.5
t-25.5 -20.5q-15 -18 -20 -43.5t-5 -75.5q0 -32 3.5 -65t18.5 -56q8 -12 20 -20t29 -8q22 0 35.5 15t19.5 36q5 17 6 33.5t1 30.5v142h130v-142q0 -14 0.5 -31t5.5 -33q6 -22 19.5 -36.5t36.5 -14.5q17 0 29 8t20 20q15 23 18.5 56t3.5 65q0 50 -4.5 75.5t-19.5 43.5
q-10 12 -26 20.5t-37 8.5v118q31 0 56 -6t44.5 -15.5t34.5 -21.5t26 -24q32 -35 44.5 -85.5t12.5 -113.5zM324 573v158h116v-109z" />
    <glyph glyph-name="uni03D0" unicode="&#x3d0;" horiz-adv-x="579" 
d="M531 218q0 -44 -13.5 -90.5t-44.5 -78.5q-24 -24 -59 -39.5t-81 -15.5q-50 0 -81 16t-49 36v-237h-130v712q0 47 17 83.5t46.5 61t70 37t87.5 12.5q46 0 85 -11.5t67.5 -34.5t44.5 -56.5t16 -77.5q0 -29 -7 -56t-22 -47q-23 -29 -52 -41q17 -6 33.5 -16t29.5 -24
q21 -24 31.5 -56t10.5 -77zM402 228q0 42 -13 61.5t-31 27.5q-15 7 -31.5 10t-40.5 3h-51v103h61q27 0 44 8.5t26.5 21.5t13 28.5t3.5 29.5q0 20 -6.5 35t-14.5 24q-23 25 -65 25q-51 0 -72.5 -27t-21.5 -72v-295q0 -45 26.5 -73t67.5 -28q44 0 69 21q20 17 28 44t8 53z" />
    <glyph glyph-name="uni0400" unicode="&#x400;" horiz-adv-x="605" 
d="M279 781l-114 170h137l64 -170h-87zM83 0v712h469v-124h-330v-167h281v-124h-281v-173h330v-124h-469z" />
    <glyph glyph-name="afii10023" unicode="&#x401;" horiz-adv-x="605" 
d="M83 0v712h469v-124h-330v-167h281v-124h-281v-173h330v-124h-469zM366 783v125h111v-125h-111zM145 783v125h111v-125h-111z" />
    <glyph glyph-name="afii10051" unicode="&#x402;" horiz-adv-x="748" 
d="M684 225q0 -53 -17 -94.5t-47.5 -70.5t-73 -44.5t-93.5 -15.5h-42v119h31q47 0 75 27t28 78t-28 77.5t-75 26.5h-119v-328h-138v588h-157v124h512v-124h-217v-140h130q52 0 94.5 -15t73 -44t47 -70.5t16.5 -93.5z" />
    <glyph glyph-name="afii10052" unicode="&#x403;" horiz-adv-x="561" 
d="M225 588v-588h-139v712h448v-124h-309zM327 781h-87l64 170h137z" />
    <glyph glyph-name="afii10053" unicode="&#x404;" horiz-adv-x="619" 
d="M582 216q-9 -55 -32.5 -96.5t-58 -69.5t-78 -42t-92.5 -14q-61 0 -107 19.5t-83 55.5q-27 27 -41.5 56t-21 63.5t-8 75.5t-1.5 92t1.5 92t8 75.5t21 63.5t41.5 56q37 36 83 55.5t107 19.5q100 0 171 -56t90 -166h-139q-11 44 -40 72.5t-81 28.5q-29 0 -52 -10.5
t-39 -28.5q-9 -10 -15 -21t-10 -27t-6.5 -38.5t-3.5 -53.5h218v-121h-218q1 -33 3.5 -55.5t6.5 -39t10 -27.5t15 -21q16 -18 39 -28.5t52 -10.5q52 0 81.5 28.5t40.5 72.5h138z" />
    <glyph glyph-name="afii10054" unicode="&#x405;" horiz-adv-x="591" 
d="M543 210q0 -52 -20 -92t-55.5 -67.5t-84 -42t-104.5 -14.5q-81 0 -144.5 20.5t-115.5 73.5l90 90q34 -34 78 -47t93 -13q63 0 95 23t32 66q0 37 -22 59q-11 10 -24 15t-40 9l-85 13q-48 7 -81 21.5t-57 37.5q-51 49 -51 140q0 48 17 87.5t49 68t78 44.5t104 16
q74 0 129 -19t101 -64l-88 -87q-33 32 -72 40.5t-74 8.5q-56 0 -82.5 -26.5t-26.5 -63.5q0 -14 4.5 -27t15.5 -24q11 -10 26.5 -17t38.5 -10l85 -13q49 -7 81 -20t55 -36q29 -26 42 -64t13 -86z" />
    <glyph glyph-name="afii10055" unicode="&#x406;" horiz-adv-x="305" 
d="M83 0v712h139v-712h-139z" />
    <glyph glyph-name="afii10056" unicode="&#x407;" horiz-adv-x="305" 
d="M83 0v712h139v-712h-139zM209 783v125h111v-125h-111zM-12 783v125h111v-125h-111z" />
    <glyph glyph-name="afii10057" unicode="&#x408;" horiz-adv-x="511" 
d="M437 234q0 -59 -20.5 -104t-55.5 -75t-80.5 -45.5t-94.5 -15.5q-58 0 -100.5 16.5t-82.5 56.5l92 91q17 -17 36.5 -28.5t54.5 -11.5q51 0 81.5 30t30.5 92v472h139v-478z" />
    <glyph glyph-name="afii10058" unicode="&#x409;" horiz-adv-x="1008" 
d="M602 319v-195h130q48 0 75.5 26.5t27.5 71.5q0 44 -27.5 70.5t-75.5 26.5h-130zM602 712v-268h141q52 0 94.5 -16.5t73 -46t47 -70t16.5 -89.5t-16.5 -89.5t-47 -70t-73 -46t-94.5 -16.5h-280v588h-170v-207q0 -112 -13.5 -185.5t-41.5 -117t-69.5 -61t-96.5 -17.5h-55
v124h20q27 0 49 10t38.5 39t25.5 80.5t9 135.5v323h443z" />
    <glyph glyph-name="afii10059" unicode="&#x40a;" horiz-adv-x="1008" 
d="M974 222q0 -49 -16.5 -89.5t-47 -70t-73 -46t-94.5 -16.5h-280v320h-241v-320h-139v712h139v-268h241v268h139v-268h141q52 0 94.5 -16.5t73 -46t47 -70t16.5 -89.5zM602 319v-195h130q48 0 75.5 26.5t27.5 71.5q0 44 -27.5 70.5t-75.5 26.5h-130z" />
    <glyph glyph-name="afii10060" unicode="&#x40b;" horiz-adv-x="748" 
d="M545 0v231q0 44 -28 70.5t-75 26.5h-119v-328h-138v588h-156v124h511v-124h-217v-140h130q52 0 94.5 -15.5t73 -44t47 -68.5t16.5 -89v-231h-139z" />
    <glyph glyph-name="afii10061" unicode="&#x40c;" horiz-adv-x="641" 
d="M85 0v712h139v-712h-139zM475 0l-250 373l230 339h166l-239 -334l263 -378h-170zM373 781h-87l64 170h137z" />
    <glyph glyph-name="uni040D" unicode="&#x40d;" horiz-adv-x="706" 
d="M484 0v457l-277 -457h-124v712h139v-456l277 456h124v-712h-139zM314 781l-114 170h137l64 -170h-87z" />
    <glyph glyph-name="afii10062" unicode="&#x40e;" horiz-adv-x="581" 
d="M460 893q-2 -41 -16 -68t-36.5 -44t-51 -24t-58.5 -7t-58.5 7t-51 24t-37 44t-15.5 68h98q2 -33 19.5 -47.5t44.5 -14.5t44.5 14.5t19.5 47.5h98zM325 120q-10 -24 -24.5 -46t-34 -38.5t-44.5 -26t-56 -9.5h-85v124h56q29 0 46.5 11.5t27.5 33.5l21 49l-228 494h145
l149 -343l135 343h144z" />
    <glyph glyph-name="afii10145" unicode="&#x40f;" horiz-adv-x="686" 
d="M410 0v-158h-134v158h-193v712h139v-588h241v588h139v-712h-192z" />
    <glyph glyph-name="afii10017" unicode="&#x410;" horiz-adv-x="638" 
d="M488 0l-42 126h-253l-43 -126h-145l259 712h109l260 -712h-145zM322 502l-90 -259h177z" />
    <glyph glyph-name="afii10018" unicode="&#x411;" horiz-adv-x="654" 
d="M599 222q0 -49 -16 -89.5t-45.5 -70t-72.5 -46t-97 -16.5h-285v712h471v-124h-332v-144h146q54 0 96.5 -16.5t72.5 -46t46 -70t16 -89.5zM460 222q0 44 -26 71t-73 27h-139v-196h139q47 0 73 26.5t26 71.5z" />
    <glyph glyph-name="afii10019" unicode="&#x412;" horiz-adv-x="658" 
d="M501 365q21 -11 32 -19t22 -19q23 -25 33.5 -55t10.5 -68q0 -47 -15 -84.5t-43.5 -64t-69 -41t-90.5 -14.5h-298v712h286q50 0 91 -14t69.5 -39.5t44 -61.5t15.5 -81q0 -102 -88 -151zM358 424q43 0 67.5 22t24.5 60t-24.5 60t-67.5 22h-136v-164h136zM367 124
q43 0 68 23.5t25 64.5t-25 64t-68 23h-145v-175h145z" />
    <glyph glyph-name="afii10020" unicode="&#x413;" horiz-adv-x="561" 
d="M225 588v-588h-139v712h448v-124h-309z" />
    <glyph glyph-name="afii10021" unicode="&#x414;" horiz-adv-x="705" 
d="M543 -158v158h-395v-158h-134v282h67q45 69 65 175.5t20 230.5v182h429v-588h82v-282h-134zM456 588h-157v-103q0 -106 -13 -196t-50 -165h220v464z" />
    <glyph glyph-name="afii10022" unicode="&#x415;" horiz-adv-x="605" 
d="M83 0v712h469v-124h-330v-167h281v-124h-281v-173h330v-124h-469z" />
    <glyph glyph-name="afii10024" unicode="&#x416;" horiz-adv-x="941" 
d="M779 0l-238 373l218 339h164l-233 -334l257 -378h-168zM-6 0l257 378l-233 334h164l218 -339l-238 -373h-168zM401 0v712h139v-712h-139z" />
    <glyph glyph-name="afii10025" unicode="&#x417;" horiz-adv-x="606" 
d="M293 -6q-49 0 -92 14t-77 42t-57.5 69.5t-32.5 96.5h138q11 -43 40.5 -72t81.5 -29q53 0 83.5 26.5t30.5 69.5q0 45 -27 70.5t-81 25.5h-92v114h93q46 0 71.5 23.5t25.5 66.5q0 42 -27.5 65t-75.5 23q-52 0 -81 -30t-40 -73h-139q9 55 32.5 96.5t58 69.5t77.5 42t93 14
q52 0 96 -14t76.5 -39.5t50.5 -62t18 -81.5q0 -52 -25.5 -91t-67.5 -62q48 -21 75.5 -62t27.5 -100q0 -48 -19 -87.5t-53 -67t-80.5 -42.5t-101.5 -15z" />
    <glyph glyph-name="afii10026" unicode="&#x418;" horiz-adv-x="706" 
d="M484 0v457l-277 -457h-124v712h139v-456l277 456h124v-712h-139z" />
    <glyph glyph-name="afii10027" unicode="&#x419;" horiz-adv-x="706" 
d="M516 893q-2 -41 -16 -68t-36.5 -44t-51 -24t-58.5 -7t-58.5 7t-51 24t-37 44t-15.5 68h98q2 -33 19.5 -47.5t44.5 -14.5t44.5 14.5t19.5 47.5h98zM484 0v457l-277 -457h-124v712h139v-456l277 456h124v-712h-139z" />
    <glyph glyph-name="afii10028" unicode="&#x41a;" horiz-adv-x="641" 
d="M85 0v712h139v-712h-139zM475 0l-250 373l230 339h166l-239 -334l263 -378h-170z" />
    <glyph glyph-name="afii10029" unicode="&#x41b;" horiz-adv-x="686" 
d="M463 0v588h-170v-207q0 -112 -13.5 -185.5t-41.5 -117t-69.5 -61t-96.5 -17.5h-55v124h20q27 0 49 10t38.5 39t25.5 80.5t9 135.5v323h443v-712h-139z" />
    <glyph glyph-name="afii10030" unicode="&#x41c;" horiz-adv-x="811" 
d="M589 0v415l-136 -270h-94l-137 270v-415h-139v712h137l186 -385l185 385h137v-712h-139z" />
    <glyph glyph-name="afii10031" unicode="&#x41d;" horiz-adv-x="685" 
d="M463 0v298h-241v-298h-139v712h139v-291h241v291h139v-712h-139z" />
    <glyph glyph-name="afii10032" unicode="&#x41e;" horiz-adv-x="644" 
d="M585 356q0 -51 -1.5 -92t-8.5 -75.5t-21.5 -63.5t-41.5 -56q-36 -36 -82 -55.5t-108 -19.5t-108.5 19.5t-82.5 55.5q-27 27 -41.5 56t-21 63.5t-8 75.5t-1.5 92t1.5 92t8 75.5t21 63.5t41.5 56q36 36 82.5 55.5t108.5 19.5t108 -19.5t82 -55.5q27 -27 41.5 -56
t21.5 -63.5t8.5 -75.5t1.5 -92zM446 356q0 51 -2 84.5t-6 55.5t-10.5 35.5t-16.5 24.5q-15 17 -37.5 27.5t-51.5 10.5t-51.5 -10.5t-38.5 -27.5q-10 -11 -16.5 -24.5t-10.5 -35.5t-5.5 -55.5t-1.5 -84.5t1.5 -84.5t5.5 -55t10.5 -35t16.5 -24.5q16 -17 38.5 -28t51.5 -11
t51.5 11t37.5 28q10 11 16.5 24.5t10.5 35t6 55t2 84.5z" />
    <glyph glyph-name="afii10033" unicode="&#x41f;" horiz-adv-x="685" 
d="M463 0v588h-241v-588h-139v712h519v-712h-139z" />
    <glyph glyph-name="afii10034" unicode="&#x420;" horiz-adv-x="628" 
d="M594 490q0 -45 -16 -85.5t-46 -71t-74 -48t-99 -17.5h-137v-268h-139v712h276q55 0 99 -17.5t74 -48t46 -71t16 -85.5zM455 490q0 44 -27.5 71t-75.5 27h-130v-195h130q48 0 75.5 26.5t27.5 70.5z" />
    <glyph glyph-name="afii10035" unicode="&#x421;" horiz-adv-x="620" 
d="M583 219q-20 -112 -90.5 -168.5t-170.5 -56.5q-62 0 -108 19.5t-83 55.5q-27 27 -41.5 56t-21 63.5t-8 75.5t-1.5 92t1.5 92t8 75.5t21 63.5t41.5 56q37 36 83 55.5t108 19.5q100 0 170.5 -56.5t90.5 -168.5h-142q-11 44 -39 72.5t-80 28.5q-29 0 -51.5 -10t-37.5 -27
q-10 -11 -16.5 -25t-10.5 -36t-6 -55.5t-2 -84.5t2 -84.5t6 -55.5t10.5 -36t16.5 -25q15 -17 37.5 -27t51.5 -10q52 0 80.5 28.5t39.5 72.5h141z" />
    <glyph glyph-name="afii10036" unicode="&#x422;" horiz-adv-x="571" 
d="M355 588v-588h-139v588h-186v124h511v-124h-186z" />
    <glyph glyph-name="afii10037" unicode="&#x423;" horiz-adv-x="581" 
d="M325 120q-10 -24 -24.5 -46t-34 -38.5t-44.5 -26t-56 -9.5h-85v124h56q29 0 46.5 11.5t27.5 33.5l21 49l-228 494h145l149 -343l135 343h144z" />
    <glyph glyph-name="afii10038" unicode="&#x424;" horiz-adv-x="814" 
d="M778 378q0 -136 -71 -213t-230 -83v-87h-139v87q-159 6 -229.5 83t-70.5 213t70.5 212.5t229.5 83.5v70h139v-70q159 -7 230 -83.5t71 -212.5zM340 556q-89 -5 -126 -48t-37 -130t37 -130.5t126 -47.5v356zM639 378q0 87 -37 130t-127 48v-356q90 4 127 47.5t37 130.5z
" />
    <glyph glyph-name="afii10039" unicode="&#x425;" horiz-adv-x="603" 
d="M439 0l-138 248l-137 -248h-159l221 365l-207 347h158l124 -230l125 230h157l-207 -347l222 -365h-159z" />
    <glyph glyph-name="afii10040" unicode="&#x426;" horiz-adv-x="712" 
d="M551 -158v158h-468v712h139v-588h241v588h139v-588h83v-282h-134z" />
    <glyph glyph-name="afii10041" unicode="&#x427;" horiz-adv-x="648" 
d="M427 0v267q-28 -5 -76 -12t-105 -7q-34 0 -67 10.5t-58.5 32t-41 54t-15.5 76.5v291h139v-255q0 -47 25.5 -66t63.5 -19q16 0 35 1.5t37.5 3.5t34.5 5l28 5v325h138v-712h-138z" />
    <glyph glyph-name="afii10042" unicode="&#x428;" horiz-adv-x="988" 
d="M83 0v712h139v-588h203v588h139v-588h202v588h139v-712h-822z" />
    <glyph glyph-name="afii10043" unicode="&#x429;" horiz-adv-x="1014" 
d="M853 -158v158h-770v712h139v-588h203v588h139v-588h202v588h139v-588h82v-282h-134z" />
    <glyph glyph-name="afii10044" unicode="&#x42a;" horiz-adv-x="727" 
d="M693 222q0 -49 -17 -89.5t-47.5 -70t-73 -46t-93.5 -16.5h-280v588h-152v124h291v-268h141q52 0 94.5 -16.5t73 -46t47 -70t16.5 -89.5zM554 222q0 44 -28 71t-75 27h-130v-196h130q47 0 75 26.5t28 71.5z" />
    <glyph glyph-name="afii10045" unicode="&#x42b;" horiz-adv-x="893" 
d="M594 222q0 -49 -16.5 -89.5t-47 -70t-73 -46t-94.5 -16.5h-280v712h139v-268h141q52 0 94.5 -16.5t73 -46t47 -70t16.5 -89.5zM455 222q0 44 -27.5 71t-75.5 27h-130v-196h130q48 0 75.5 26.5t27.5 71.5zM671 0v712h139v-712h-139z" />
    <glyph glyph-name="afii10046" unicode="&#x42c;" horiz-adv-x="628" 
d="M594 222q0 -49 -16.5 -89.5t-47 -70t-73 -46t-94.5 -16.5h-280v712h139v-268h141q52 0 94.5 -16.5t73 -46t47 -70t16.5 -89.5zM455 222q0 44 -27.5 71t-75.5 27h-130v-196h130q48 0 75.5 26.5t27.5 71.5z" />
    <glyph glyph-name="afii10047" unicode="&#x42d;" horiz-adv-x="619" 
d="M175 216q11 -44 40.5 -72.5t81.5 -28.5q29 0 52 10.5t39 28.5q9 10 15 21t10 27.5t6.5 39t3.5 55.5h-221v121h221q-1 31 -3.5 53.5t-6.5 38.5t-10 27t-15 21q-16 18 -39 28.5t-52 10.5q-52 0 -81 -28.5t-40 -72.5h-139q19 110 90 166t171 56q61 0 107 -19.5t83 -55.5
q27 -27 41.5 -56t21 -63.5t8 -75.5t1.5 -92t-1.5 -92t-8 -75.5t-21 -63.5t-41.5 -56q-37 -36 -83 -55.5t-107 -19.5q-50 0 -93 14t-77.5 42t-58 69.5t-32.5 96.5h138z" />
    <glyph glyph-name="afii10048" unicode="&#x42e;" horiz-adv-x="914" 
d="M855 356q0 -51 -1.5 -92t-8.5 -75.5t-21.5 -63.5t-41.5 -56q-36 -36 -82 -55.5t-108 -19.5t-108.5 19.5t-82.5 55.5q-23 22 -37 46.5t-21.5 52t-10.5 60t-3 70.5h-107v-298h-139v712h139v-290h107q1 73 14.5 125t57.5 96q36 36 82.5 55.5t108.5 19.5t108 -19.5t82 -55.5
q27 -27 41.5 -56t21.5 -63.5t8.5 -75.5t1.5 -92zM716 356q0 51 -2 84.5t-6 55.5t-10.5 35.5t-16.5 24.5q-15 17 -37.5 27.5t-51.5 10.5t-51.5 -10.5t-38.5 -27.5q-10 -11 -16.5 -24.5t-10.5 -35.5t-5.5 -55.5t-1.5 -84.5t1.5 -84.5t5.5 -55t10.5 -35t16.5 -24.5
q16 -17 38.5 -28t51.5 -11t51.5 11t37.5 28q10 11 16.5 24.5t10.5 35t6 55t2 84.5z" />
    <glyph glyph-name="afii10049" unicode="&#x42f;" horiz-adv-x="650" 
d="M197 0h-165l147 296q-57 26 -89.5 76t-32.5 118q0 51 17.5 92t48.5 70t74 44.5t94 15.5h276v-712h-139v268h-114zM428 590h-130q-47 0 -75 -26.5t-28 -71.5q0 -44 28 -72.5t75 -28.5h130v199z" />
    <glyph glyph-name="afii10065" unicode="&#x430;" horiz-adv-x="534" 
d="M340 0v45q-26 -26 -54.5 -38t-73.5 -12q-87 0 -133 46q-21 22 -32 52t-11 65q0 31 11 58.5t33 48t56 32.5t80 12h121v26q0 43 -22.5 62.5t-74.5 19.5q-35 0 -57 -10.5t-43 -34.5l-82 81q38 42 80 58t107 16q222 0 222 -184v-343h-127zM337 220h-99q-77 0 -77 -60
q0 -27 19 -43t60 -16q24 0 42 4.5t35 20.5q11 10 15.5 25.5t4.5 40.5v28z" />
    <glyph glyph-name="afii10066" unicode="&#x431;" horiz-adv-x="548" 
d="M280 111q19 0 35 6t28 20q27 33 27 123q0 86 -26 118q-11 15 -27.5 21.5t-36.5 6.5t-36.5 -6t-28.5 -21q-12 -16 -19 -45.5t-7 -72.5q0 -48 7.5 -78.5t21.5 -46.5q11 -14 27 -19.5t35 -5.5zM282 -6q-58 0 -106.5 19.5t-74.5 61.5q-23 37 -32.5 96.5t-9.5 132.5
q0 91 3.5 151t13 99t25.5 62.5t41 43.5q24 19 54.5 30t68.5 17t85 8.5t105 2.5v-112q-25 -2 -53 -2.5t-56 -3t-55 -7.5t-49 -17q-36 -19 -51 -45.5t-15 -74.5q15 26 51 43t79 17q49 0 77.5 -11t50.5 -31q35 -32 50.5 -88t15.5 -123q0 -78 -15 -126t-49 -83
q-28 -29 -67.5 -44.5t-86.5 -15.5z" />
    <glyph glyph-name="afii10067" unicode="&#x432;" horiz-adv-x="550" 
d="M498 150q0 -69 -43 -109.5t-117 -40.5h-266v521h257q74 0 117.5 -38.5t43.5 -104.5q0 -72 -66 -110q38 -20 56 -48t18 -70zM201 425v-112h97q31 0 47 15t16 42q0 55 -63 55h-97zM369 157q0 29 -17 45t-48 16h-103v-122h103q31 0 48 16.5t17 44.5z" />
    <glyph glyph-name="afii10068" unicode="&#x433;" horiz-adv-x="434" 
d="M206 406v-406h-130v521h345v-115h-215z" />
    <glyph glyph-name="afii10069" unicode="&#x434;" horiz-adv-x="580" 
d="M434 -128v128h-298v-128h-123v243h53q10 18 19.5 39.5t16.5 51t11 67.5t4 89v159h374v-406h66v-243h-123zM361 406h-119v-68q0 -79 -10 -131t-30 -92h159v291z" />
    <glyph glyph-name="afii10070" unicode="&#x435;" horiz-adv-x="548" 
d="M175 220q0 -51 29 -83.5t85 -32.5q43 0 68 12.5t50 36.5l79 -77q-20 -20 -40 -35.5t-43.5 -26t-51.5 -15.5t-63 -5q-46 0 -89.5 12t-77 42.5t-54 82t-20.5 130.5q0 64 16.5 113.5t46.5 83.5t71.5 51.5t92.5 17.5q54 0 96.5 -18.5t71.5 -52t44 -80t15 -101.5v-55h-326z
M373 309q-1 17 -3 29.5t-9 26.5q-11 23 -32.5 38.5t-54.5 15.5t-54.5 -15.5t-32.5 -38.5q-7 -14 -9 -26.5t-3 -29.5h198z" />
    <glyph glyph-name="afii10072" unicode="&#x436;" horiz-adv-x="763" 
d="M617 0l-169 273l161 248h149l-171 -243l182 -278h-152zM316 0v521h131v-521h-131zM-6 0l183 278l-171 243h149l160 -248l-168 -273h-153z" />
    <glyph glyph-name="afii10073" unicode="&#x437;" horiz-adv-x="496" 
d="M444 154q0 -36 -16 -65.5t-43.5 -50.5t-63.5 -32.5t-76 -11.5q-62 0 -121.5 16t-106.5 58l75 81q27 -24 61 -34.5t70 -10.5q18 0 34.5 3.5t29 11t20.5 18.5t8 26q0 29 -20 42.5t-55 13.5h-79v93h77q32 0 51.5 15.5t19.5 41.5q0 27 -24.5 40t-64.5 13q-29 0 -58 -9
t-55 -27l-72 80q45 35 98.5 48t111.5 13q38 0 72.5 -9t61 -27t42 -44.5t15.5 -60.5q0 -37 -19.5 -67t-51.5 -46q35 -14 57 -45.5t22 -73.5z" />
    <glyph glyph-name="afii10074" unicode="&#x438;" horiz-adv-x="589" 
d="M386 0v318l-183 -318h-131v521h131v-310l183 310h131v-521h-131z" />
    <glyph glyph-name="afii10075" unicode="&#x439;" horiz-adv-x="589" 
d="M456 722q-1 -41 -15.5 -68t-37 -44t-51 -24t-58.5 -7t-58.5 7t-51 24t-37 44t-15.5 68h98q2 -33 19.5 -47.5t44.5 -14.5t44.5 14.5t19.5 47.5h98zM386 0v318l-183 -318h-131v521h131v-310l183 310h131v-521h-131z" />
    <glyph glyph-name="afii10076" unicode="&#x43a;" horiz-adv-x="534" 
d="M73 0v521h131v-521h-131zM384 0l-179 273l171 248h152l-184 -243l196 -278h-156z" />
    <glyph glyph-name="afii10077" unicode="&#x43b;" horiz-adv-x="571" 
d="M368 0v406h-125v-125q0 -84 -11 -138t-32.5 -86t-52.5 -44.5t-71 -12.5h-62v115h16q16 0 32 4t28 23t19.5 58.5t7.5 109.5v211h381v-521h-130z" />
    <glyph glyph-name="afii10078" unicode="&#x43c;" horiz-adv-x="677" 
d="M474 0v301l-98 -193h-74l-99 193v-301h-131v521h129l138 -274l137 274h128v-521h-130z" />
    <glyph glyph-name="afii10079" unicode="&#x43d;" horiz-adv-x="573" 
d="M370 0v209h-167v-209h-131v521h131v-197h167v197h131v-521h-131z" />
    <glyph glyph-name="afii10080" unicode="&#x43e;" 
d="M492 261q0 -71 -11.5 -118.5t-47.5 -84.5q-25 -26 -64.5 -45t-97.5 -19t-97 19t-64 45q-35 38 -47 85t-12 118t12 117.5t47 84.5q25 26 64 45t97 19t97.5 -19t64.5 -45q35 -38 47 -84.5t12 -117.5zM362 261q0 40 -5 73t-25 53q-23 23 -61 23q-37 0 -60 -23
q-20 -20 -25 -53t-5 -73q0 -41 5 -74t25 -53q23 -23 60 -23q38 0 61 23q20 20 25 53t5 74z" />
    <glyph glyph-name="afii10081" unicode="&#x43f;" horiz-adv-x="568" 
d="M370 0v406h-167v-406h-131v521h429v-521h-131z" />
    <glyph glyph-name="afii10082" unicode="&#x440;" horiz-adv-x="560" 
d="M509 261q0 -33 -1.5 -64t-7 -59.5t-16 -53t-29.5 -43.5q-22 -23 -55 -35t-71 -12q-40 0 -70.5 11.5t-55.5 40.5v-237h-130v712h126v-49q27 30 57.5 42.5t72.5 12.5q38 0 71 -12t55 -35q19 -19 29.5 -43.5t16 -52.5t7 -59t1.5 -64zM379 261q0 31 -3 58.5t-12 47.5
t-26.5 31.5t-46.5 11.5t-46.5 -11.5t-26.5 -31.5t-12 -47.5t-3 -58.5q0 -32 3 -59t12 -47.5t26.5 -32t46.5 -11.5t46.5 11.5t26.5 32t12 47.5t3 59z" />
    <glyph glyph-name="afii10083" unicode="&#x441;" horiz-adv-x="480" 
d="M452 65q-35 -36 -76.5 -53.5t-95.5 -17.5q-39 0 -80.5 12t-75 42.5t-55.5 82t-22 130.5t22 130.5t55.5 81.5t75 42t80.5 12q54 0 95.5 -17t76.5 -53l-88 -88q-20 22 -39 31.5t-45 9.5q-46 0 -74 -34q-15 -19 -22 -46t-7 -69q0 -80 29 -116q28 -34 74 -34q26 0 45 9.5
t39 31.5z" />
    <glyph glyph-name="afii10084" unicode="&#x442;" horiz-adv-x="456" 
d="M295 406v-406h-131v406h-153v115h434v-115h-150z" />
    <glyph glyph-name="afii10085" unicode="&#x443;" horiz-adv-x="494" 
d="M267 -84q-17 -45 -39 -67q-23 -23 -51.5 -31.5t-60.5 -8.5h-51v117h30q28 0 41.5 9t23.5 38l22 64l-178 484h137l108 -322l104 322h137z" />
    <glyph glyph-name="afii10086" unicode="&#x444;" horiz-adv-x="726" 
d="M681 264q0 -66 -18 -115t-51 -82t-80 -51t-104 -21v-186h-130v186q-57 3 -104 21t-80 51t-51 82t-18 115t17.5 113.5t50.5 79.5t80 49t105 20v186h130v-186q58 -3 105 -20t80 -49t50.5 -79.5t17.5 -113.5zM550 263q0 75 -30.5 110.5t-93.5 36.5v-299q124 3 124 152z
M300 410q-63 -1 -93.5 -36.5t-30.5 -110.5q0 -149 124 -152v299z" />
    <glyph glyph-name="afii10087" unicode="&#x445;" horiz-adv-x="527" 
d="M359 0l-96 156l-95 -156h-156l180 266l-173 255h156l88 -149l89 149h156l-173 -255l180 -266h-156z" />
    <glyph glyph-name="afii10088" unicode="&#x446;" horiz-adv-x="594" 
d="M447 -128v128h-375v521h131v-406h167v406h131v-406h70v-243h-124z" />
    <glyph glyph-name="afii10089" unicode="&#x447;" horiz-adv-x="548" 
d="M346 0v183q-26 -5 -61.5 -9.5t-80.5 -4.5q-31 0 -58 9.5t-46.5 27.5t-30.5 44.5t-11 60.5v210h130v-174q0 -32 17 -47.5t47 -15.5q26 0 51.5 3.5t42.5 5.5v228h130v-521h-130z" />
    <glyph glyph-name="afii10090" unicode="&#x448;" horiz-adv-x="822" 
d="M72 0v521h131v-406h143v406h130v-406h143v406h130v-521h-677z" />
    <glyph glyph-name="afii10091" unicode="&#x449;" horiz-adv-x="843" 
d="M696 -128v128h-624v521h131v-406h143v406h130v-406h143v406h130v-406h70v-243h-123z" />
    <glyph glyph-name="afii10092" unicode="&#x44a;" horiz-adv-x="590" 
d="M558 167q0 -37 -12.5 -67.5t-35.5 -52.5t-54.5 -34.5t-70.5 -12.5h-251v406h-122v115h253v-188h120q39 0 70.5 -12t54.5 -34t35.5 -52.5t12.5 -67.5zM261 231v-129h100q32 0 50.5 17.5t18.5 47.5q0 29 -18.5 46.5t-50.5 17.5h-100z" />
    <glyph glyph-name="afii10093" unicode="&#x44b;" horiz-adv-x="763" 
d="M556 0v521h131v-521h-131zM495 167q0 -37 -12.5 -67.5t-35.5 -52.5t-55 -34.5t-71 -12.5h-249v521h131v-188h118q39 0 71 -12t55 -34t35.5 -52.5t12.5 -67.5zM199 231v-129h98q32 0 50.5 17.5t18.5 47.5q0 29 -18.5 46.5t-50.5 17.5h-98z" />
    <glyph glyph-name="afii10094" unicode="&#x44c;" horiz-adv-x="529" 
d="M496 167q0 -37 -12.5 -67.5t-35.5 -52.5t-55 -34.5t-70 -12.5h-251v521h131v-188h120q39 0 70.5 -12t54.5 -34t35.5 -52.5t12.5 -67.5zM199 231v-129h100q32 0 50 17.5t18 47.5q0 29 -18 46.5t-50 17.5h-100z" />
    <glyph glyph-name="afii10095" unicode="&#x44d;" horiz-adv-x="480" 
d="M199 527q112 0 173 -69t61 -194q0 -131 -60.5 -200.5t-173.5 -69.5q-55 0 -93 16.5t-78 53.5l87 86q23 -23 41 -32.5t44 -9.5q49 0 73.5 30.5t29.5 80.5h-153v89h153q-7 48 -32 76.5t-72 28.5q-26 0 -44 -10t-40 -32l-87 86q40 37 78 53.5t93 16.5z" />
    <glyph glyph-name="afii10096" unicode="&#x44e;" horiz-adv-x="774" 
d="M722 261q0 -71 -11.5 -118.5t-47.5 -84.5q-25 -26 -64.5 -45t-97.5 -19t-97 19t-64 45q-29 30 -41.5 66.5t-16.5 86.5h-79v-211h-131v521h131v-200h80q4 45 17 79t40 63q25 26 64 45t97 19t97.5 -19t64.5 -45q35 -38 47 -84.5t12 -117.5zM592 261q0 40 -5 73t-25 53
q-23 23 -61 23q-37 0 -60 -23q-20 -20 -25 -53t-5 -73q0 -41 5 -74t25 -53q23 -23 60 -23q38 0 61 23q20 20 25 53t5 74z" />
    <glyph glyph-name="afii10097" unicode="&#x44f;" horiz-adv-x="535" 
d="M335 417h-102q-32 0 -50.5 -18t-18.5 -47t18.5 -46.5t50.5 -17.5h102v129zM29 0l105 213q-44 17 -70.5 54t-26.5 91q0 36 12.5 65.5t35.5 51.5t55 34t70 12h253v-521h-130v185h-70l-86 -185h-148z" />
    <glyph glyph-name="uni0450" unicode="&#x450;" horiz-adv-x="548" 
d="M245 604l-114 170h137l64 -170h-87zM175 220q0 -51 29 -83.5t85 -32.5q43 0 68 12.5t50 36.5l79 -77q-20 -20 -40 -35.5t-43.5 -26t-51.5 -15.5t-63 -5q-46 0 -89.5 12t-77 42.5t-54 82t-20.5 130.5q0 64 16.5 113.5t46.5 83.5t71.5 51.5t92.5 17.5q54 0 96.5 -18.5
t71.5 -52t44 -80t15 -101.5v-55h-326zM373 309q-1 17 -3 29.5t-9 26.5q-11 23 -32.5 38.5t-54.5 15.5t-54.5 -15.5t-32.5 -38.5q-7 -14 -9 -26.5t-3 -29.5h198z" />
    <glyph glyph-name="afii10071" unicode="&#x451;" horiz-adv-x="548" 
d="M175 220q0 -51 29 -83.5t85 -32.5q43 0 68 12.5t50 36.5l79 -77q-20 -20 -40 -35.5t-43.5 -26t-51.5 -15.5t-63 -5q-46 0 -89.5 12t-77 42.5t-54 82t-20.5 130.5q0 64 16.5 113.5t46.5 83.5t71.5 51.5t92.5 17.5q54 0 96.5 -18.5t71.5 -52t44 -80t15 -101.5v-55h-326z
M373 309q-1 17 -3 29.5t-9 26.5q-11 23 -32.5 38.5t-54.5 15.5t-54.5 -15.5t-32.5 -38.5q-7 -14 -9 -26.5t-3 -29.5h198zM332 606v125h111v-125h-111zM111 606v125h111v-125h-111z" />
    <glyph glyph-name="afii10099" unicode="&#x452;" horiz-adv-x="573" 
d="M506 -26q0 -34 -8 -64.5t-28 -54t-53 -37t-82 -13.5h-60v110h36q35 0 50 22t15 46v281q0 27 -7.5 45t-20 29t-28 16t-30.5 5t-30.5 -5t-28 -16t-20.5 -29t-8 -45v-264h-130v525h-47v100h47v87h130v-87h229v-100h-229v-103q25 27 57 40.5t70 13.5q39 0 70 -12t53 -34
q32 -32 42.5 -68.5t10.5 -79.5v-308z" />
    <glyph glyph-name="afii10100" unicode="&#x453;" horiz-adv-x="434" 
d="M206 406v-406h-130v521h345v-115h-215zM255 604h-87l64 170h137z" />
    <glyph glyph-name="afii10101" unicode="&#x454;" horiz-adv-x="480" 
d="M452 64q-39 -37 -77.5 -53.5t-93.5 -16.5q-112 0 -173 69.5t-61 200.5q0 125 61.5 194t172.5 69q28 0 50.5 -4t43 -12.5t39 -22t38.5 -31.5l-86 -86q-23 22 -41 32t-44 10q-47 0 -72 -28.5t-31 -76.5h155v-89h-155q5 -50 29.5 -80.5t73.5 -30.5q26 0 44 9.5t41 32.5z" />
    <glyph glyph-name="afii10102" unicode="&#x455;" horiz-adv-x="501" 
d="M465 164q0 -43 -17 -75t-47 -53t-70.5 -31.5t-86.5 -10.5q-31 0 -60 2.5t-56.5 10.5t-54 22.5t-51.5 39.5l85 85q16 -16 34 -25.5t36.5 -15t36 -7t32.5 -1.5q17 0 33.5 3t29.5 9.5t21 16.5t8 25q0 20 -11.5 32.5t-43.5 15.5l-84 8q-69 7 -109.5 40.5t-40.5 105.5
q0 41 16.5 72t44 52t64 31.5t76.5 10.5q62 0 111.5 -13t87.5 -48l-80 -81q-23 20 -54.5 27.5t-66.5 7.5q-39 0 -56.5 -15t-17.5 -35t12.5 -31t41.5 -14l82 -8q78 -8 116.5 -47t38.5 -106z" />
    <glyph glyph-name="afii10103" unicode="&#x456;" horiz-adv-x="275" 
d="M73 0v506h130v-506h-130zM71 610v106h133v-106h-133z" />
    <glyph glyph-name="afii10104" unicode="&#x457;" horiz-adv-x="275" 
d="M73 0v506h130v-506h-130zM194 606v125h111v-125h-111zM-27 606v125h111v-125h-111z" />
    <glyph glyph-name="afii10105" unicode="&#x458;" horiz-adv-x="275" 
d="M203 -46q0 -28 -8.5 -54.5t-27 -47.5t-47.5 -34t-69 -13h-74v110h50q25 0 35.5 12t10.5 35v544h130v-552zM71 610v106h133v-106h-133z" />
    <glyph glyph-name="afii10106" unicode="&#x459;" horiz-adv-x="824" 
d="M664 167q0 29 -18.5 46.5t-50.5 17.5h-100v-129h100q32 0 50.5 17.5t18.5 47.5zM498 521v-188h121q39 0 71 -12t55 -34t35.5 -52.5t12.5 -67.5t-12.5 -67.5t-35.5 -52.5t-55 -34.5t-71 -12.5h-251v406h-125v-125q0 -84 -11 -138t-32.5 -86t-52.5 -44.5t-71 -12.5h-62v115
h16q16 0 32 4t28 23t19.5 58.5t7.5 109.5v211h381z" />
    <glyph glyph-name="afii10107" unicode="&#x45a;" horiz-adv-x="827" 
d="M795 167q0 -37 -12.5 -67.5t-35.5 -52.5t-55 -34.5t-70 -12.5h-252v218h-167v-218h-131v521h131v-188h167v188h131v-188h121q39 0 70.5 -12t54.5 -34t35.5 -52.5t12.5 -67.5zM666 167q0 29 -18.5 46.5t-50.5 17.5h-100v-129h100q32 0 50.5 17.5t18.5 47.5z" />
    <glyph glyph-name="afii10108" unicode="&#x45b;" horiz-adv-x="573" 
d="M376 0v264q0 27 -7.5 45t-20 29t-28 16t-30.5 5t-30.5 -5t-28 -16t-20.5 -29t-8 -45v-264h-130v525h-47v100h47v87h130v-87h229v-100h-229v-103q25 27 57 40.5t70 13.5q39 0 70 -12t53 -34q32 -32 42.5 -68.5t10.5 -79.5v-282h-130z" />
    <glyph glyph-name="afii10109" unicode="&#x45c;" horiz-adv-x="534" 
d="M73 0v521h131v-521h-131zM384 0l-179 273l171 248h152l-184 -243l196 -278h-156zM312 604h-87l64 170h137z" />
    <glyph glyph-name="uni045D" unicode="&#x45d;" horiz-adv-x="589" 
d="M386 0v318l-183 -318h-131v521h131v-310l183 310h131v-521h-131zM256 604l-114 170h137l64 -170h-87z" />
    <glyph glyph-name="afii10110" unicode="&#x45e;" horiz-adv-x="494" 
d="M412 722q-1 -41 -15.5 -68t-37 -44t-51 -24t-58.5 -7t-58.5 7t-51 24t-37 44t-15.5 68h98q2 -33 19.5 -47.5t44.5 -14.5t44.5 14.5t19.5 47.5h98zM267 -84q-17 -45 -39 -67q-23 -23 -51.5 -31.5t-60.5 -8.5h-51v117h30q28 0 41.5 9t23.5 38l22 64l-178 484h137l108 -322
l104 322h137z" />
    <glyph glyph-name="afii10193" unicode="&#x45f;" horiz-adv-x="573" 
d="M347 0v-128h-123v128h-152v521h131v-406h167v406h131v-521h-154z" />
    <glyph glyph-name="afii10146" unicode="&#x462;" horiz-adv-x="651" 
d="M617 222q0 -49 -16.5 -89.5t-47 -70t-73 -46t-94.5 -16.5h-280v528h-69v106h69v78h139v-78h116v-106h-116v-84h141q52 0 94.5 -16.5t73 -46t47 -70t16.5 -89.5zM478 222q0 44 -27.5 71t-75.5 27h-130v-196h130q48 0 75.5 26.5t27.5 71.5z" />
    <glyph glyph-name="afii10194" unicode="&#x463;" horiz-adv-x="553" 
d="M520 167q0 -37 -12.5 -67.5t-35.5 -52.5t-55 -34.5t-70 -12.5h-251v400h-59v82h59v39h131v-39h89v-82h-89v-67h120q39 0 70.5 -12t54.5 -34t35.5 -52.5t12.5 -67.5zM223 231v-129h100q32 0 50 17.5t18 47.5q0 29 -18 46.5t-50 17.5h-100z" />
    <glyph glyph-name="afii10147" unicode="&#x472;" horiz-adv-x="644" 
d="M585 356q0 -51 -1.5 -92t-8.5 -75.5t-21.5 -63.5t-41.5 -56q-36 -36 -82 -55.5t-108 -19.5t-108 19.5t-83 55.5q-27 27 -41.5 56t-21 63.5t-8 75.5t-1.5 92t1.5 92t8 75.5t21 63.5t41.5 56q37 36 83 55.5t108 19.5t108 -19.5t82 -55.5q27 -27 41.5 -56t21.5 -63.5
t8.5 -75.5t1.5 -92zM411 157q9 9 15 20t10 27t6 39t3 57h-247q1 -34 3.5 -57t6.5 -39t10 -27t14 -20q16 -17 38.5 -28t51.5 -11t51.5 11t37.5 28zM232 556q-8 -9 -14 -20t-10 -26.5t-6 -37.5t-3 -53h246q-1 31 -3.5 53t-6.5 37.5t-10 26.5t-14 20q-15 17 -37.5 27.5
t-51.5 10.5t-51.5 -10.5t-38.5 -27.5z" />
    <glyph glyph-name="afii10195" unicode="&#x473;" 
d="M492 261q0 -71 -12 -118.5t-47 -84.5q-24 -26 -64 -45t-98 -19t-97.5 19t-63.5 45q-35 37 -47 84.5t-12 118.5t12 118t47 84q24 26 63.5 45t97.5 19t98 -19t64 -45q35 -37 47 -84t12 -118zM332 134q15 15 21 37t8 49h-179q2 -27 8 -49t21 -37q23 -23 60 -23q38 0 61 23z
M211 387q-14 -14 -20.5 -34t-8.5 -44h178q-2 24 -8 44t-20 34q-23 23 -61 23q-37 0 -60 -23z" />
    <glyph glyph-name="afii10148" unicode="&#x474;" horiz-adv-x="581" 
d="M396 592q7 25 21.5 46.5t34.5 38t46 26t57 9.5h85v-124h-44q-59 0 -74 -45l-180 -543h-104l-235 712h144l143 -464z" />
    <glyph glyph-name="afii10196" unicode="&#x475;" horiz-adv-x="493" 
d="M298 0h-102l-192 521h137l106 -322l70 215q18 56 54.5 81.5t96.5 25.5h51v-117h-25q-29 0 -41.5 -9.5t-23.5 -37.5z" />
    <glyph glyph-name="afii10050" unicode="&#x490;" horiz-adv-x="561" 
d="M225 588v-588h-139v712h314v158h134v-282h-309z" />
    <glyph glyph-name="afii10098" unicode="&#x491;" horiz-adv-x="434" 
d="M206 406v-406h-130v521h222v128h123v-243h-215z" />
    <glyph glyph-name="uni0492" unicode="&#x492;" horiz-adv-x="581" 
d="M245 588v-176h116v-106h-116v-306h-139v306h-69v106h69v300h448v-124h-309z" />
    <glyph glyph-name="uni0493" unicode="&#x493;" horiz-adv-x="455" 
d="M227 245v-245h-130v245h-60v82h60v194h345v-115h-215v-79h89v-82h-89z" />
    <glyph glyph-name="uni0496" unicode="&#x496;" horiz-adv-x="941" 
d="M690 378l172 -254h85v-282h-134v158h-34l-238 373l218 339h164zM-6 0l257 378l-233 334h164l218 -339l-238 -373h-168zM401 0v712h139v-712h-139z" />
    <glyph glyph-name="uni0497" unicode="&#x497;" horiz-adv-x="763" 
d="M587 278l106 -163h76v-243h-123v128h-29l-169 273l161 248h149zM-6 0l183 278l-171 243h149l160 -248l-168 -273h-153zM316 0v521h131v-521h-131z" />
    <glyph glyph-name="uni049A" unicode="&#x49a;" horiz-adv-x="640" 
d="M382 378l176 -254h87v-282h-134v158h-36l-250 373l230 339h166zM85 0v712h139v-712h-139z" />
    <glyph glyph-name="uni049B" unicode="&#x49b;" horiz-adv-x="533" 
d="M417 -128v128h-33l-179 273l171 248h152l-184 -243l115 -163h81v-243h-123zM73 0v521h131v-521h-131z" />
    <glyph glyph-name="uni049C" unicode="&#x49c;" horiz-adv-x="721" 
d="M558 0l-171 301h-27v-138h-92v138h-44v-301h-139v712h139v-287h44v138h92v-138h27l151 287h163l-199 -346l223 -366h-167z" />
    <glyph glyph-name="uni049D" unicode="&#x49d;" horiz-adv-x="609" 
d="M460 0l-101 211h-29v-117h-91v117h-36v-211h-130v521h130v-202h36v117h91v-117h24l98 202h152l-134 -244l145 -277h-155z" />
    <glyph glyph-name="uni04A2" unicode="&#x4a2;" horiz-adv-x="685" 
d="M602 124h64v-282h-134v158h-69v298h-241v-298h-139v712h139v-291h241v291h139v-588z" />
    <glyph glyph-name="uni04A3" unicode="&#x4a3;" horiz-adv-x="573" 
d="M501 115h57v-243h-123v128h-65v209h-167v-209h-131v521h131v-197h167v197h131v-406z" />
    <glyph glyph-name="uni04AE" unicode="&#x4ae;" horiz-adv-x="572" 
d="M355 292v-292h-138v292l-214 420h151l133 -287l131 287h151z" />
    <glyph glyph-name="uni04AF" unicode="&#x4af;" horiz-adv-x="494" 
d="M311 15v-206h-129v206l-178 506h138l106 -340l104 340h138z" />
    <glyph glyph-name="uni04B0" unicode="&#x4b0;" horiz-adv-x="572" 
d="M355 292h94v-106h-94v-186h-138v186h-92v106h92l-214 420h151l133 -287l131 287h151z" />
    <glyph glyph-name="uni04B1" unicode="&#x4b1;" horiz-adv-x="494" 
d="M311 15h77v-82h-77v-124h-129v124h-73v82h73l-178 506h138l106 -340l104 340h138z" />
    <glyph glyph-name="uni04B2" unicode="&#x4b2;" horiz-adv-x="603" 
d="M376 365l146 -241h76v-282h-134v158h-25l-138 248l-137 -248h-159l221 365l-207 347h158l124 -230l125 230h157z" />
    <glyph glyph-name="uni04B3" unicode="&#x4b3;" horiz-adv-x="527" 
d="M335 266l102 -151h78v-243h-123v128h-33l-96 156l-95 -156h-156l180 266l-173 255h156l88 -149l89 149h156z" />
    <glyph glyph-name="uni04B6" unicode="&#x4b6;" horiz-adv-x="649" 
d="M565 124h65v-282h-134v158h-69v267q-28 -5 -76 -12t-105 -7q-34 0 -67 10.5t-58.5 32t-41 54t-15.5 76.5v291h139v-255q0 -47 25.5 -66t63.5 -19q16 0 35 1.5t37.5 3.5t34.5 5l28 5v325h138v-588z" />
    <glyph glyph-name="uni04B7" unicode="&#x4b7;" horiz-adv-x="548" 
d="M476 115h58v-243h-123v128h-65v183q-26 -5 -61.5 -9.5t-80.5 -4.5q-31 0 -58 9.5t-46.5 27.5t-30.5 44.5t-11 60.5v210h130v-174q0 -32 17 -47.5t47 -15.5q26 0 51.5 3.5t42.5 5.5v228h130v-406z" />
    <glyph glyph-name="uni04B8" unicode="&#x4b8;" horiz-adv-x="664" 
d="M272 111v137h-19q-36 0 -70 10.5t-60.5 32t-42.5 54t-16 76.5v291h139v-255q0 -39 18.5 -56.5t50.5 -24.5v134h99v-134q17 2 37 5t33 6v325h139v-712h-139v267q-17 -4 -36.5 -6.5t-33.5 -4.5v-145h-99z" />
    <glyph glyph-name="uni04B9" unicode="&#x4b9;" horiz-adv-x="564" 
d="M235 55v114h-14q-35 0 -64.5 9.5t-51.5 27.5t-34.5 44.5t-12.5 60.5v210h130v-174q0 -25 12 -38t35 -19v108h80v-111q13 1 25 3t22 4v227h130v-521h-130v183l-22 -4q-11 -2 -25 -4v-120h-80z" />
    <glyph glyph-name="uni04BA" unicode="&#x4ba;" horiz-adv-x="648" 
d="M221 712v-267q28 5 76 12t105 7q34 0 67 -10.5t58.5 -32t41 -54t15.5 -76.5v-291h-139v255q0 47 -25.5 66t-63.5 19q-16 0 -35 -1.5t-37.5 -4t-35 -5t-27.5 -4.5v-325h-138v712h138z" />
    <glyph glyph-name="uni04BB" unicode="&#x4bb;" horiz-adv-x="548" 
d="M202 521v-183q26 5 61.5 9.5t80.5 4.5q31 0 58 -9.5t46.5 -27.5t30.5 -44.5t11 -60.5v-210h-130v174q0 32 -17 47.5t-47 15.5q-26 0 -51.5 -3.5t-42.5 -5.5v-228h-130v521h130z" />
    <glyph glyph-name="uni04C0" unicode="&#x4c0;" horiz-adv-x="305" 
d="M83 0v712h139v-712h-139z" />
    <glyph glyph-name="uni04CF" unicode="&#x4cf;" horiz-adv-x="266" 
d="M68 0v712h130v-712h-130z" />
    <glyph glyph-name="uni04D8" unicode="&#x4d8;" horiz-adv-x="649" 
d="M590 356q0 -51 -1.5 -92.5t-8 -76t-21 -63.5t-41.5 -55q-37 -36 -83 -55.5t-107 -19.5q-58 0 -107.5 17.5t-93.5 63.5q-39 41 -53.5 90.5t-14.5 126.5v104h391q0 38 -2 63.5t-6 43.5t-10.5 30t-15.5 23q-15 17 -37 27.5t-51 10.5q-104 0 -128 -104h-140q7 45 26 86
t52 72.5t80.5 50.5t109.5 19q61 0 107 -19.5t83 -55.5q26 -26 40.5 -54.5t21.5 -63.5t8.5 -76.5t1.5 -92.5zM197 279v-26q0 -28 7.5 -51.5t24.5 -43.5q17 -19 42 -29.5t57 -10.5q29 0 51 10t37 27q8 9 14 19t9.5 24.5t6 34t3.5 46.5h-252z" />
    <glyph glyph-name="afii10846" unicode="&#x4d9;" horiz-adv-x="548" 
d="M373 301q0 51 -29 83.5t-85 32.5q-43 0 -68 -12.5t-50 -36.5l-79 77q20 20 40 35.5t43.5 26t51.5 15.5t63 5q46 0 89.5 -12t77 -42.5t54 -82t20.5 -130.5q0 -64 -16.5 -113.5t-46.5 -83.5t-71.5 -51.5t-92.5 -17.5q-54 0 -96.5 18.5t-71.5 52t-44 79.5t-15 102v55h326z
M175 212q1 -17 3 -29.5t9 -26.5q11 -23 32.5 -38.5t54.5 -15.5t54.5 15.5t32.5 38.5q7 14 9 26.5t3 29.5h-198z" />
    <glyph glyph-name="uni04E2" unicode="&#x4e2;" horiz-adv-x="706" 
d="M484 0v457l-277 -457h-124v712h139v-456l277 456h124v-712h-139zM194 881h317v-88h-317v88z" />
    <glyph glyph-name="uni04E3" unicode="&#x4e3;" horiz-adv-x="589" 
d="M386 0v318l-183 -318h-131v521h131v-310l183 310h131v-521h-131zM136 623v88h317v-88h-317z" />
    <glyph glyph-name="uni04E8" unicode="&#x4e8;" horiz-adv-x="644" 
d="M585 356q0 -51 -1.5 -92t-8.5 -75.5t-21.5 -63.5t-41.5 -56q-36 -36 -82 -55.5t-108 -19.5t-108 19.5t-83 55.5q-27 27 -41.5 56t-21 63.5t-8 75.5t-1.5 92t1.5 92t8 75.5t21 63.5t41.5 56q37 36 83 55.5t108 19.5t108 -19.5t82 -55.5q27 -27 41.5 -56t21.5 -63.5
t8.5 -75.5t1.5 -92zM411 157q9 9 15 20t10 27t6 39t3 57h-247q1 -34 3.5 -57t6.5 -39t10 -27t14 -20q16 -17 38.5 -28t51.5 -11t51.5 11t37.5 28zM232 556q-8 -9 -14 -20t-10 -26.5t-6 -37.5t-3 -53h246q-1 31 -3.5 53t-6.5 37.5t-10 26.5t-14 20q-15 17 -37.5 27.5
t-51.5 10.5t-51.5 -10.5t-38.5 -27.5z" />
    <glyph glyph-name="uni04E9" unicode="&#x4e9;" 
d="M492 261q0 -71 -12 -118.5t-47 -84.5q-24 -26 -64 -45t-98 -19t-97.5 19t-63.5 45q-35 37 -47 84.5t-12 118.5t12 118t47 84q24 26 63.5 45t97.5 19t98 -19t64 -45q35 -37 47 -84t12 -118zM332 134q15 15 21 37t8 49h-179q2 -27 8 -49t21 -37q23 -23 60 -23q38 0 61 23z
M211 387q-14 -14 -20.5 -34t-8.5 -44h178q-2 24 -8 44t-20 34q-23 23 -61 23q-37 0 -60 -23z" />
    <glyph glyph-name="uni04EE" unicode="&#x4ee;" horiz-adv-x="581" 
d="M325 120q-10 -24 -24.5 -46t-34 -38.5t-44.5 -26t-56 -9.5h-85v124h56q29 0 46.5 11.5t27.5 33.5l21 49l-228 494h145l149 -343l135 343h144zM141 881h317v-88h-317v88z" />
    <glyph glyph-name="uni04EF" unicode="&#x4ef;" horiz-adv-x="494" 
d="M267 -84q-17 -45 -39 -67q-23 -23 -51.5 -31.5t-60.5 -8.5h-51v117h30q28 0 41.5 9t23.5 38l22 64l-178 484h137l108 -322l104 322h137zM90 623v88h317v-88h-317z" />
    <glyph glyph-name="Wgrave" unicode="&#x1e80;" horiz-adv-x="887" 
d="M690 0h-116l-131 432l-131 -432h-116l-190 712h145l110 -449l130 449h104l130 -449l111 449h145zM401 781l-114 170h137l64 -170h-87z" />
    <glyph glyph-name="wgrave" unicode="&#x1e81;" horiz-adv-x="759" 
d="M596 0h-107l-109 327l-109 -327h-107l-160 521h138l84 -322l106 322h95l107 -322l84 322h137zM337 604l-114 170h137l64 -170h-87z" />
    <glyph glyph-name="Wacute" unicode="&#x1e82;" horiz-adv-x="887" 
d="M690 0h-116l-131 432l-131 -432h-116l-190 712h145l110 -449l130 449h104l130 -449l111 449h145zM486 781h-87l64 170h137z" />
    <glyph glyph-name="wacute" unicode="&#x1e83;" horiz-adv-x="759" 
d="M596 0h-107l-109 327l-109 -327h-107l-160 521h138l84 -322l106 322h95l107 -322l84 322h137zM423 604h-87l64 170h137z" />
    <glyph glyph-name="Wdieresis" unicode="&#x1e84;" horiz-adv-x="887" 
d="M690 0h-116l-131 432l-131 -432h-116l-190 712h145l110 -449l130 449h104l130 -449l111 449h145zM498 783v125h111v-125h-111zM277 783v125h111v-125h-111z" />
    <glyph glyph-name="wdieresis" unicode="&#x1e85;" horiz-adv-x="759" 
d="M596 0h-107l-109 327l-109 -327h-107l-160 521h138l84 -322l106 322h95l107 -322l84 322h137zM434 606v125h111v-125h-111zM213 606v125h111v-125h-111z" />
    <glyph glyph-name="uni1E8A" unicode="&#x1e8a;" horiz-adv-x="603" 
d="M439 0l-138 248l-137 -248h-159l221 365l-207 347h158l124 -230l125 230h157l-207 -347l222 -365h-159zM244 905h115v-116h-115v116z" />
    <glyph glyph-name="uni1E8B" unicode="&#x1e8b;" horiz-adv-x="527" 
d="M359 0l-96 156l-95 -156h-156l180 266l-173 255h156l88 -149l89 149h156l-173 -255l180 -266h-156zM206 727h115v-115h-115v115z" />
    <glyph glyph-name="Ygrave" unicode="&#x1ef2;" horiz-adv-x="572" 
d="M355 292v-292h-138v292l-214 420h151l133 -287l131 287h151zM246 781l-114 170h137l64 -170h-87z" />
    <glyph glyph-name="ygrave" unicode="&#x1ef3;" horiz-adv-x="494" 
d="M267 -84q-17 -45 -39 -67q-23 -23 -51.5 -31.5t-60.5 -8.5h-51v117h30q28 0 41.5 9t23.5 38l22 64l-178 484h137l108 -322l104 322h137zM197 604l-114 170h137l64 -170h-87z" />
    <glyph glyph-name="uni2007" unicode="&#x2007;" 
 />
    <glyph glyph-name="uni2008" unicode="&#x2008;" horiz-adv-x="285" 
 />
    <glyph glyph-name="uni200B" unicode="&#x200b;" horiz-adv-x="0" 
 />
    <glyph glyph-name="endash" unicode="&#x2013;" 
d="M50 225v121h443v-121h-443z" />
    <glyph glyph-name="emdash" unicode="&#x2014;" horiz-adv-x="1027" 
d="M59 226v125h909v-125h-909z" />
    <glyph glyph-name="afii00208" unicode="&#x2015;" horiz-adv-x="1027" 
d="M59 226v125h909v-125h-909z" />
    <glyph glyph-name="quoteleft" unicode="&#x2018;" horiz-adv-x="273" 
d="M68 589v123l136 105v-228h-136z" />
    <glyph glyph-name="quoteright" unicode="&#x2019;" horiz-adv-x="273" 
d="M68 485v227h136v-124z" />
    <glyph glyph-name="quotesinglbase" unicode="&#x201a;" horiz-adv-x="271" 
d="M68 -104v228h136v-124z" />
    <glyph glyph-name="quotedblleft" unicode="&#x201c;" horiz-adv-x="482" 
d="M278 589v123l136 105v-228h-136zM68 589v123l135 105v-228h-135z" />
    <glyph glyph-name="quotedblright" unicode="&#x201d;" horiz-adv-x="482" 
d="M278 485v227h136v-124zM68 485v227h135v-124z" />
    <glyph glyph-name="quotedblbase" unicode="&#x201e;" horiz-adv-x="485" 
d="M278 -104v228h136v-124zM68 -104v228h135v-124z" />
    <glyph glyph-name="dagger" unicode="&#x2020;" horiz-adv-x="579" 
d="M354 410v-410h-130v410h-167v117h167v185h130v-185h168v-117h-168z" />
    <glyph glyph-name="daggerdbl" unicode="&#x2021;" horiz-adv-x="579" 
d="M354 -6v-185h-130v185h-167v117h167v299h-167v117h167v185h130v-185h168v-117h-168v-299h168v-117h-168z" />
    <glyph glyph-name="bullet" unicode="&#x2022;" horiz-adv-x="493" 
d="M409 334q0 -34 -13 -63.5t-35 -51.5t-51.5 -35t-63.5 -13t-63.5 13t-51.5 35t-35 51.5t-13 63.5t13 63.5t35 51.5t51.5 35t63.5 13t63.5 -13t51.5 -35t35 -51.5t13 -63.5z" />
    <glyph glyph-name="ellipsis" unicode="&#x2026;" horiz-adv-x="846" 
d="M68 0v141h142v-141h-142zM352 0v141h141v-141h-141zM637 0v141h141v-141h-141z" />
    <glyph glyph-name="perthousand" unicode="&#x2030;" horiz-adv-x="1211" 
d="M1158 131q0 -34 -11.5 -59.5t-31.5 -43t-46.5 -26t-55.5 -8.5q-30 0 -56 8.5t-46 26t-31.5 43t-11.5 59.5v99q0 34 11.5 59.5t31.5 42.5t46 26t56 9q29 0 55.5 -9t46.5 -26t31.5 -42.5t11.5 -59.5v-99zM796 131q0 -34 -11.5 -59.5t-31.5 -43t-46.5 -26t-55.5 -8.5
q-30 0 -56 8.5t-46 26t-31.5 43t-11.5 59.5v99q0 34 11.5 59.5t31.5 42.5t46 26t56 9q29 0 55.5 -9t46.5 -26t31.5 -42.5t11.5 -59.5v-99zM342 482q0 -34 -11.5 -59.5t-31.5 -43t-46.5 -26t-55.5 -8.5q-30 0 -56 8.5t-46 26t-31.5 43t-11.5 59.5v99q0 34 11.5 59.5
t31.5 42.5t46 26t56 9q29 0 55.5 -9t46.5 -26t31.5 -42.5t11.5 -59.5v-99zM307 0h-102l337 712h102zM1064 226q0 29 -13.5 43t-37.5 14q-51 0 -51 -57v-91q0 -57 51 -57q24 0 37.5 13.5t13.5 42.5v92zM702 226q0 29 -13.5 43t-37.5 14q-51 0 -51 -57v-91q0 -57 51 -57
q24 0 37.5 14t13.5 43v91zM248 577q0 29 -13.5 43t-37.5 14q-51 0 -51 -57v-91q0 -29 13.5 -43t37.5 -14t37.5 14t13.5 43v91z" />
    <glyph glyph-name="guilsinglleft" unicode="&#x2039;" horiz-adv-x="350" 
d="M34 275l249 248v-155l-94 -93l94 -93v-155z" />
    <glyph glyph-name="guilsinglright" unicode="&#x203a;" horiz-adv-x="350" 
d="M67 27v155l95 93l-95 93v155l249 -248z" />
    <glyph glyph-name="fraction" unicode="&#x2044;" horiz-adv-x="208" 
d="M-14 0h-101l337 712h101z" />
    <glyph glyph-name="uni2070" unicode="&#x2070;" horiz-adv-x="332" 
d="M302 414q0 -33 -11.5 -57.5t-30 -41.5t-43 -25.5t-51.5 -8.5q-26 0 -50.5 8.5t-43.5 25.5t-30.5 41.5t-11.5 57.5v170q0 32 11.5 57t30.5 41.5t43.5 25t50.5 8.5q27 0 51.5 -8.5t43 -25t30 -41.5t11.5 -57v-170zM208 584q0 23 -12.5 35.5t-29.5 12.5t-29 -12.5t-12 -35.5
v-172q0 -23 12 -34.5t29 -11.5t29.5 11.5t12.5 34.5v172z" />
    <glyph glyph-name="uni2074" unicode="&#x2074;" horiz-adv-x="332" 
d="M284 342v-57h-90v57h-176v89l143 281h103l-144 -281h74v62h90v-62h33v-89h-33z" />
    <glyph glyph-name="uni2075" unicode="&#x2075;" horiz-adv-x="332" 
d="M305 429q0 -38 -8 -63.5t-31 -48.5q-13 -13 -38 -24.5t-60 -11.5t-60.5 11t-39.5 25q-22 22 -28.5 44t-8.5 51h94q5 -46 43 -46q19 0 30 12q8 8 10.5 21t2.5 30q0 34 -10 49t-33 15q-20 0 -29.5 -9t-12.5 -21h-87v249h257v-85h-171v-73q23 18 58 18q28 0 48.5 -8
t34.5 -22q26 -26 32.5 -54t6.5 -59z" />
    <glyph glyph-name="uni2076" unicode="&#x2076;" horiz-adv-x="332" 
d="M305 418q0 -33 -11 -59t-30.5 -43t-45 -26t-54.5 -9t-54 8.5t-44.5 26t-30.5 43t-11 59.5q0 23 8 48t28 67l88 179h103l-85 -169q6 2 12 2.5t13 0.5q20 0 40 -8.5t36.5 -24.5t27 -40t10.5 -55zM210 418q0 26 -13 39.5t-33 13.5q-19 0 -32 -13.5t-13 -39.5t13 -40t32 -14
q20 0 33 14t13 40z" />
    <glyph glyph-name="uni2077" unicode="&#x2077;" horiz-adv-x="332" 
d="M176 285h-94l134 342h-108v-69h-86v154h289v-84z" />
    <glyph glyph-name="uni2078" unicode="&#x2078;" horiz-adv-x="332" 
d="M308 412q0 -33 -11 -57.5t-30.5 -41t-45.5 -24.5t-55 -8t-55 8t-45.5 24.5t-30.5 41t-11 57.5q0 35 15.5 57t33.5 36q-15 12 -29.5 32.5t-14.5 52.5q0 30 11 53.5t30 39.5t44 24.5t52 8.5t52 -8.5t44 -24.5t30.5 -39.5t11.5 -53.5q0 -32 -14.5 -52.5t-30.5 -32.5
q18 -14 33.5 -36t15.5 -57zM214 414q0 20 -14 34.5t-34 14.5t-34 -14.5t-14 -34.5t14 -34t34 -14t34 14t14 34zM209 588q0 18 -12 30.5t-31 12.5t-31 -12.5t-12 -30.5q0 -19 12.5 -32t30.5 -13q19 0 31 13t12 32z" />
    <glyph glyph-name="uni2079" unicode="&#x2079;" horiz-adv-x="332" 
d="M308 579q0 -28 -9 -53t-27 -62l-88 -179h-103l85 169q-5 -2 -11.5 -2.5t-13.5 -0.5q-20 0 -40 8.5t-36.5 24.5t-27 40t-10.5 55q0 33 11 59t30.5 43t45 26t54.5 9q28 0 53.5 -9t45 -26t30.5 -42.5t11 -59.5zM214 580q0 24 -13 37.5t-33 13.5t-33 -13.5t-13 -37.5
q0 -23 13 -38t33 -15q19 0 32.5 14t13.5 39z" />
    <glyph glyph-name="uni2080" unicode="&#x2080;" horiz-adv-x="332" 
d="M302 -21q0 -33 -11.5 -57.5t-30 -41.5t-43 -25.5t-51.5 -8.5q-26 0 -50.5 8.5t-43.5 25.5t-30.5 41.5t-11.5 57.5v170q0 32 11.5 57t30.5 41.5t43.5 25t50.5 8.5q27 0 51.5 -8.5t43 -25t30 -41.5t11.5 -57v-170zM208 149q0 23 -12.5 35.5t-29.5 12.5t-29 -12.5t-12 -35.5
v-172q0 -23 12 -34.5t29 -11.5t29.5 11.5t12.5 34.5v172z" />
    <glyph glyph-name="uni2081" unicode="&#x2081;" horiz-adv-x="332" 
d="M144 -150v321l-90 -78v106l90 78h95v-427h-95z" />
    <glyph glyph-name="uni2082" unicode="&#x2082;" horiz-adv-x="332" 
d="M34 -150v85l156 171q12 13 17 23t5 24q0 20 -11 31.5t-31 11.5q-15 0 -28.5 -9t-13.5 -35h-94q0 31 10.5 55t29 40.5t43.5 25t53 8.5q59 0 97.5 -34t38.5 -94q0 -33 -13.5 -55t-38.5 -49l-105 -114h157v-85h-272z" />
    <glyph glyph-name="uni2083" unicode="&#x2083;" horiz-adv-x="332" 
d="M310 -23q0 -33 -11.5 -58t-31 -41t-45 -24t-53.5 -8q-27 0 -52 7.5t-45 23.5t-32 41t-12 60h94q0 -24 13.5 -36t33.5 -12q21 0 34 13t13 37q0 21 -13 34.5t-36 13.5h-13v81h13q23 0 33.5 13.5t10.5 29.5q0 22 -12.5 33t-29.5 11t-29.5 -11t-12.5 -31h-94q0 30 10.5 53.5
t29 40t43.5 25t53 8.5q29 0 54 -9.5t43 -26t28.5 -39.5t10.5 -51q0 -35 -14 -54t-31 -30q19 -12 34.5 -34t15.5 -60z" />
    <glyph glyph-name="uni2084" unicode="&#x2084;" horiz-adv-x="332" 
d="M284 -93v-57h-90v57h-176v89l143 281h103l-144 -281h74v62h90v-62h33v-89h-33z" />
    <glyph glyph-name="uni2085" unicode="&#x2085;" horiz-adv-x="332" 
d="M305 -6q0 -38 -8 -63.5t-31 -48.5q-13 -13 -38 -24.5t-60 -11.5t-60.5 11t-39.5 25q-22 22 -28.5 44t-8.5 51h94q5 -46 43 -46q19 0 30 12q8 8 10.5 21t2.5 30q0 34 -10 49t-33 15q-20 0 -29.5 -9t-12.5 -21h-87v249h257v-85h-171v-73q23 18 58 18q28 0 48.5 -8t34.5 -22
q26 -26 32.5 -54t6.5 -59z" />
    <glyph glyph-name="uni2086" unicode="&#x2086;" horiz-adv-x="332" 
d="M305 -17q0 -33 -11 -59t-30.5 -43t-45 -26t-54.5 -9t-54 8.5t-44.5 26t-30.5 43t-11 59.5q0 23 8 48t28 67l88 179h103l-85 -169q6 2 12 2.5t13 0.5q20 0 40 -8.5t36.5 -24.5t27 -40t10.5 -55zM210 -17q0 26 -13 39.5t-33 13.5q-19 0 -32 -13.5t-13 -39.5t13 -40t32 -14
q20 0 33 14t13 40z" />
    <glyph glyph-name="uni2087" unicode="&#x2087;" horiz-adv-x="332" 
d="M176 -150h-94l134 342h-108v-69h-86v154h289v-84z" />
    <glyph glyph-name="uni2088" unicode="&#x2088;" horiz-adv-x="332" 
d="M308 -23q0 -33 -11 -57.5t-30.5 -41t-45.5 -24.5t-55 -8t-55 8t-45.5 24.5t-30.5 41t-11 57.5q0 35 15.5 57t33.5 36q-15 12 -29.5 32.5t-14.5 52.5q0 30 11 53.5t30 39.5t44 24.5t52 8.5t52 -8.5t44 -24.5t30.5 -39.5t11.5 -53.5q0 -32 -14.5 -52.5t-30.5 -32.5
q18 -14 33.5 -36t15.5 -57zM214 -21q0 20 -14 34.5t-34 14.5t-34 -14.5t-14 -34.5t14 -34t34 -14t34 14t14 34zM209 153q0 18 -12 30.5t-31 12.5t-31 -12.5t-12 -30.5q0 -19 12.5 -32t30.5 -13q19 0 31 13t12 32z" />
    <glyph glyph-name="uni2089" unicode="&#x2089;" horiz-adv-x="332" 
d="M308 144q0 -28 -9 -53t-27 -62l-88 -179h-103l85 169q-5 -2 -11.5 -2.5t-13.5 -0.5q-20 0 -40 8.5t-36.5 24.5t-27 40t-10.5 55q0 33 11 59t30.5 43t45 26t54.5 9q28 0 53.5 -9t45 -26t30.5 -42.5t11 -59.5zM214 145q0 24 -13 37.5t-33 13.5t-33 -13.5t-13 -37.5
q0 -23 13 -38t33 -15q19 0 32.5 14t13.5 39z" />
    <glyph glyph-name="Euro" unicode="&#x20ac;" horiz-adv-x="684" 
d="M632 219q-9 -56 -32.5 -98t-58 -70.5t-78 -42.5t-92.5 -14q-60 0 -107 19.5t-84 56.5q-35 35 -49 74t-19 93h-73v83h69v75h-69v83h73q5 52 19.5 91t48.5 73q37 37 84 56.5t107 19.5q100 0 171 -56.5t90 -168.5h-141q-11 44 -39 72.5t-81 28.5q-29 0 -51 -10t-37 -27
q-13 -14 -19.5 -31.5t-9.5 -47.5h148v-83h-155v-75h155v-83h-149q4 -32 10 -50t20 -32q15 -17 37 -27t51 -10q53 0 81.5 28.5t39.5 72.5h140z" />
    <glyph glyph-name="uni20B4" unicode="&#x20b4;" horiz-adv-x="675" 
d="M636 478v-83h-77q-11 -19 -25 -33q-29 -28 -69 -42h171v-83h-407q-4 -13 -4 -31q0 -43 32 -65.5t94 -22.5q50 0 94 13t78 47l90 -90q-53 -53 -116 -73.5t-144 -20.5q-56 0 -104 14.5t-83.5 42t-56 67.5t-20.5 92v13q0 7 1 14h-51v83h74q13 24 31 41q23 21 53 34h-158v83
h406q6 13 6 29q0 37 -27 63.5t-83 26.5q-35 0 -73.5 -8.5t-72.5 -40.5l-88 87q46 45 101 64t129 19q58 0 104 -16t78 -44.5t49 -68t17 -87.5q0 -7 -0.5 -12.5t-0.5 -11.5h52z" />
    <glyph glyph-name="afii61352" unicode="&#x2116;" horiz-adv-x="965" 
d="M453 0l-254 456v-456h-130v712h115l254 -456v456h130v-712h-115zM625 225v93h290v-93h-290zM820 538q0 36 -3 54.5t-14 29.5q-11 12 -32 12q-23 0 -33 -12q-11 -11 -14 -33.5t-3 -50.5q0 -29 3 -51t14 -33q5 -5 13.5 -9t19.5 -4t19 4t13 9q12 11 14.5 33t2.5 51zM921 534
q0 -50 -9 -83t-32 -56q-17 -17 -45.5 -30.5t-63.5 -13.5q-36 0 -64 13.5t-45 30.5q-23 23 -32 56.5t-9 82.5q0 50 9 83t32 57q17 17 45 30t64 13q35 0 63.5 -13t45.5 -30q22 -23 31.5 -57t9.5 -83z" />
    <glyph glyph-name="trademark" unicode="&#x2122;" horiz-adv-x="924" 
d="M765 285v252l-80 -157h-84l-80 157v-252h-95v427h95l122 -228l122 228h95v-427h-95zM250 627v-342h-95v342h-110v85h315v-85h-110z" />
    <glyph glyph-name="Omega" unicode="&#x2126;" horiz-adv-x="644" 
d="M585 356q0 -55 -4.5 -99t-18.5 -79q-6 -14 -14.5 -27.5t-21.5 -26.5h59v-124h-219v110q17 8 30.5 18.5t22.5 24.5q7 10 12 24.5t8.5 37.5t5 55.5t1.5 78.5q0 51 -1.5 85.5t-5.5 57.5t-11 37.5t-17 25.5q-15 17 -37.5 28t-51.5 11t-51.5 -11t-38.5 -28
q-10 -11 -16.5 -25.5t-10.5 -37.5t-5.5 -57.5t-1.5 -85.5q0 -46 1.5 -78.5t4.5 -55.5t8 -37.5t12 -24.5q18 -27 54 -43v-110h-219v124h59q-14 13 -22.5 26.5t-14.5 27.5q-14 35 -18 79t-4 99q0 51 1.5 92t8 75.5t21 63.5t41.5 56q37 36 83 55.5t108 19.5t108 -19.5t82 -55.5
q27 -27 41.5 -56t21.5 -63.5t8.5 -75.5t1.5 -92z" />
    <glyph glyph-name="uni2150" unicode="&#x2150;" horiz-adv-x="872" 
d="M144 285v321l-90 -78v106l90 78h95v-427h-95zM318 0h-101l337 712h101zM716 0h-94l134 342h-108v-69h-86v154h289v-84z" />
    <glyph glyph-name="uni2151" unicode="&#x2151;" horiz-adv-x="872" 
d="M144 285v321l-90 -78v106l90 78h95v-427h-95zM318 0h-101l337 712h101zM848 294q0 -28 -9 -53t-27 -62l-88 -179h-103l85 169q-5 -2 -11.5 -2.5t-13.5 -0.5q-20 0 -40 8.5t-36.5 24.5t-27 40t-10.5 55q0 33 11 59t30.5 43t45 26t54.5 9q28 0 53.5 -9t45 -26t30.5 -42.5
t11 -59.5zM754 295q0 24 -13 37.5t-33 13.5t-33 -13.5t-13 -37.5q0 -23 13 -38t33 -15q19 0 32.5 14t13.5 39z" />
    <glyph glyph-name="uni2152" unicode="&#x2152;" horiz-adv-x="1204" 
d="M144 285v321l-90 -78v106l90 78h95v-427h-95zM318 0h-101l337 712h101zM684 0v321l-90 -78v106l90 78h95v-427h-95zM1174 129q0 -33 -11.5 -57.5t-30 -41.5t-43 -25.5t-51.5 -8.5q-26 0 -50.5 8.5t-43.5 25.5t-30.5 41.5t-11.5 57.5v170q0 32 11.5 57t30.5 41.5t43.5 25
t50.5 8.5q27 0 51.5 -8.5t43 -25t30 -41.5t11.5 -57v-170zM1080 299q0 23 -12.5 35.5t-29.5 12.5t-29 -12.5t-12 -35.5v-172q0 -23 12 -34.5t29 -11.5t29.5 11.5t12.5 34.5v172z" />
    <glyph glyph-name="onethird" unicode="&#x2153;" horiz-adv-x="872" 
d="M144 285v321l-90 -78v106l90 78h95v-427h-95zM318 0h-101l337 712h101zM850 127q0 -33 -11.5 -58t-31 -41t-45 -24t-53.5 -8q-27 0 -52 7.5t-45 23.5t-32 41t-12 60h94q0 -24 13.5 -36t33.5 -12q21 0 34 13t13 37q0 21 -13 34.5t-36 13.5h-13v81h13q23 0 33.5 13.5
t10.5 29.5q0 22 -12.5 33t-29.5 11t-29.5 -11t-12.5 -31h-94q0 30 10.5 53.5t29 40t43.5 25t53 8.5q29 0 54 -9.5t43 -26t28.5 -39.5t10.5 -51q0 -35 -14 -54t-31 -30q19 -12 34.5 -34t15.5 -60z" />
    <glyph glyph-name="twothirds" unicode="&#x2154;" horiz-adv-x="872" 
d="M34 285v85l156 171q12 13 17 23t5 24q0 20 -11 31.5t-31 11.5q-15 0 -28.5 -9t-13.5 -35h-94q0 31 10.5 55t29 40.5t43.5 25t53 8.5q59 0 97.5 -34t38.5 -94q0 -33 -13.5 -55t-38.5 -49l-105 -114h157v-85h-272zM318 0h-101l337 712h101zM850 127q0 -33 -11.5 -58
t-31 -41t-45 -24t-53.5 -8q-27 0 -52 7.5t-45 23.5t-32 41t-12 60h94q0 -24 13.5 -36t33.5 -12q21 0 34 13t13 37q0 21 -13 34.5t-36 13.5h-13v81h13q23 0 33.5 13.5t10.5 29.5q0 22 -12.5 33t-29.5 11t-29.5 -11t-12.5 -31h-94q0 30 10.5 53.5t29 40t43.5 25t53 8.5
q29 0 54 -9.5t43 -26t28.5 -39.5t10.5 -51q0 -35 -14 -54t-31 -30q19 -12 34.5 -34t15.5 -60z" />
    <glyph glyph-name="uni2155" unicode="&#x2155;" horiz-adv-x="872" 
d="M144 285v321l-90 -78v106l90 78h95v-427h-95zM318 0h-101l337 712h101zM845 144q0 -38 -8 -63.5t-31 -48.5q-13 -13 -38 -24.5t-60 -11.5t-60.5 11t-39.5 25q-22 22 -28.5 44t-8.5 51h94q5 -46 43 -46q19 0 30 12q8 8 10.5 21t2.5 30q0 34 -10 49t-33 15q-20 0 -29.5 -9
t-12.5 -21h-87v249h257v-85h-171v-73q23 18 58 18q28 0 48.5 -8t34.5 -22q26 -26 32.5 -54t6.5 -59z" />
    <glyph glyph-name="uni2156" unicode="&#x2156;" horiz-adv-x="872" 
d="M34 285v85l156 171q12 13 17 23t5 24q0 20 -11 31.5t-31 11.5q-15 0 -28.5 -9t-13.5 -35h-94q0 31 10.5 55t29 40.5t43.5 25t53 8.5q59 0 97.5 -34t38.5 -94q0 -33 -13.5 -55t-38.5 -49l-105 -114h157v-85h-272zM318 0h-101l337 712h101zM845 144q0 -38 -8 -63.5
t-31 -48.5q-13 -13 -38 -24.5t-60 -11.5t-60.5 11t-39.5 25q-22 22 -28.5 44t-8.5 51h94q5 -46 43 -46q19 0 30 12q8 8 10.5 21t2.5 30q0 34 -10 49t-33 15q-20 0 -29.5 -9t-12.5 -21h-87v249h257v-85h-171v-73q23 18 58 18q28 0 48.5 -8t34.5 -22q26 -26 32.5 -54t6.5 -59z
" />
    <glyph glyph-name="uni2157" unicode="&#x2157;" horiz-adv-x="872" 
d="M310 412q0 -33 -11.5 -58t-31 -41t-45 -24t-53.5 -8q-27 0 -52 7.5t-45 23.5t-32 41t-12 60h94q0 -24 13.5 -36t33.5 -12q21 0 34 13t13 37q0 21 -13 34.5t-36 13.5h-13v81h13q23 0 33.5 13.5t10.5 29.5q0 22 -12.5 33t-29.5 11t-29.5 -11t-12.5 -31h-94q0 30 10.5 53.5
t29 40t43.5 25t53 8.5q29 0 54 -9.5t43 -26t28.5 -39.5t10.5 -51q0 -35 -14 -54t-31 -30q19 -12 34.5 -34t15.5 -60zM318 0h-101l337 712h101zM845 144q0 -38 -8 -63.5t-31 -48.5q-13 -13 -38 -24.5t-60 -11.5t-60.5 11t-39.5 25q-22 22 -28.5 44t-8.5 51h94q5 -46 43 -46
q19 0 30 12q8 8 10.5 21t2.5 30q0 34 -10 49t-33 15q-20 0 -29.5 -9t-12.5 -21h-87v249h257v-85h-171v-73q23 18 58 18q28 0 48.5 -8t34.5 -22q26 -26 32.5 -54t6.5 -59z" />
    <glyph glyph-name="uni2158" unicode="&#x2158;" horiz-adv-x="872" 
d="M284 342v-57h-90v57h-176v89l143 281h103l-144 -281h74v62h90v-62h33v-89h-33zM318 0h-101l337 712h101zM845 144q0 -38 -8 -63.5t-31 -48.5q-13 -13 -38 -24.5t-60 -11.5t-60.5 11t-39.5 25q-22 22 -28.5 44t-8.5 51h94q5 -46 43 -46q19 0 30 12q8 8 10.5 21t2.5 30
q0 34 -10 49t-33 15q-20 0 -29.5 -9t-12.5 -21h-87v249h257v-85h-171v-73q23 18 58 18q28 0 48.5 -8t34.5 -22q26 -26 32.5 -54t6.5 -59z" />
    <glyph glyph-name="uni2159" unicode="&#x2159;" horiz-adv-x="872" 
d="M144 285v321l-90 -78v106l90 78h95v-427h-95zM318 0h-101l337 712h101zM845 133q0 -33 -11 -59t-30.5 -43t-45 -26t-54.5 -9t-54 8.5t-44.5 26t-30.5 43t-11 59.5q0 23 8 48t28 67l88 179h103l-85 -169q6 2 12 2.5t13 0.5q20 0 40 -8.5t36.5 -24.5t27 -40t10.5 -55z
M750 133q0 26 -13 39.5t-33 13.5q-19 0 -32 -13.5t-13 -39.5t13 -40t32 -14q20 0 33 14t13 40z" />
    <glyph glyph-name="uni215A" unicode="&#x215a;" horiz-adv-x="872" 
d="M305 429q0 -38 -8 -63.5t-31 -48.5q-13 -13 -38 -24.5t-60 -11.5t-60.5 11t-39.5 25q-22 22 -28.5 44t-8.5 51h94q5 -46 43 -46q19 0 30 12q8 8 10.5 21t2.5 30q0 34 -10 49t-33 15q-20 0 -29.5 -9t-12.5 -21h-87v249h257v-85h-171v-73q23 18 58 18q28 0 48.5 -8
t34.5 -22q26 -26 32.5 -54t6.5 -59zM318 0h-101l337 712h101zM845 133q0 -33 -11 -59t-30.5 -43t-45 -26t-54.5 -9t-54 8.5t-44.5 26t-30.5 43t-11 59.5q0 23 8 48t28 67l88 179h103l-85 -169q6 2 12 2.5t13 0.5q20 0 40 -8.5t36.5 -24.5t27 -40t10.5 -55zM750 133
q0 26 -13 39.5t-33 13.5q-19 0 -32 -13.5t-13 -39.5t13 -40t32 -14q20 0 33 14t13 40z" />
    <glyph glyph-name="oneeighth" unicode="&#x215b;" horiz-adv-x="872" 
d="M144 285v321l-90 -78v106l90 78h95v-427h-95zM318 0h-101l337 712h101zM848 127q0 -33 -11 -57.5t-30.5 -41t-45.5 -24.5t-55 -8t-55 8t-45.5 24.5t-30.5 41t-11 57.5q0 35 15.5 57t33.5 36q-15 12 -29.5 32.5t-14.5 52.5q0 30 11 53.5t30 39.5t44 24.5t52 8.5t52 -8.5
t44 -24.5t30.5 -39.5t11.5 -53.5q0 -32 -14.5 -52.5t-30.5 -32.5q18 -14 33.5 -36t15.5 -57zM754 129q0 20 -14 34.5t-34 14.5t-34 -14.5t-14 -34.5t14 -34t34 -14t34 14t14 34zM749 303q0 18 -12 30.5t-31 12.5t-31 -12.5t-12 -30.5q0 -19 12.5 -32t30.5 -13q19 0 31 13
t12 32z" />
    <glyph glyph-name="threeeighths" unicode="&#x215c;" horiz-adv-x="872" 
d="M310 412q0 -33 -11.5 -58t-31 -41t-45 -24t-53.5 -8q-27 0 -52 7.5t-45 23.5t-32 41t-12 60h94q0 -24 13.5 -36t33.5 -12q21 0 34 13t13 37q0 21 -13 34.5t-36 13.5h-13v81h13q23 0 33.5 13.5t10.5 29.5q0 22 -12.5 33t-29.5 11t-29.5 -11t-12.5 -31h-94q0 30 10.5 53.5
t29 40t43.5 25t53 8.5q29 0 54 -9.5t43 -26t28.5 -39.5t10.5 -51q0 -35 -14 -54t-31 -30q19 -12 34.5 -34t15.5 -60zM318 0h-101l337 712h101zM848 127q0 -33 -11 -57.5t-30.5 -41t-45.5 -24.5t-55 -8t-55 8t-45.5 24.5t-30.5 41t-11 57.5q0 35 15.5 57t33.5 36
q-15 12 -29.5 32.5t-14.5 52.5q0 30 11 53.5t30 39.5t44 24.5t52 8.5t52 -8.5t44 -24.5t30.5 -39.5t11.5 -53.5q0 -32 -14.5 -52.5t-30.5 -32.5q18 -14 33.5 -36t15.5 -57zM754 129q0 20 -14 34.5t-34 14.5t-34 -14.5t-14 -34.5t14 -34t34 -14t34 14t14 34zM749 303
q0 18 -12 30.5t-31 12.5t-31 -12.5t-12 -30.5q0 -19 12.5 -32t30.5 -13q19 0 31 13t12 32z" />
    <glyph glyph-name="fiveeighths" unicode="&#x215d;" horiz-adv-x="872" 
d="M305 429q0 -38 -8 -63.5t-31 -48.5q-13 -13 -38 -24.5t-60 -11.5t-60.5 11t-39.5 25q-22 22 -28.5 44t-8.5 51h94q5 -46 43 -46q19 0 30 12q8 8 10.5 21t2.5 30q0 34 -10 49t-33 15q-20 0 -29.5 -9t-12.5 -21h-87v249h257v-85h-171v-73q23 18 58 18q28 0 48.5 -8
t34.5 -22q26 -26 32.5 -54t6.5 -59zM318 0h-101l337 712h101zM848 127q0 -33 -11 -57.5t-30.5 -41t-45.5 -24.5t-55 -8t-55 8t-45.5 24.5t-30.5 41t-11 57.5q0 35 15.5 57t33.5 36q-15 12 -29.5 32.5t-14.5 52.5q0 30 11 53.5t30 39.5t44 24.5t52 8.5t52 -8.5t44 -24.5
t30.5 -39.5t11.5 -53.5q0 -32 -14.5 -52.5t-30.5 -32.5q18 -14 33.5 -36t15.5 -57zM754 129q0 20 -14 34.5t-34 14.5t-34 -14.5t-14 -34.5t14 -34t34 -14t34 14t14 34zM749 303q0 18 -12 30.5t-31 12.5t-31 -12.5t-12 -30.5q0 -19 12.5 -32t30.5 -13q19 0 31 13t12 32z" />
    <glyph glyph-name="seveneighths" unicode="&#x215e;" horiz-adv-x="872" 
d="M176 285h-94l134 342h-108v-69h-86v154h289v-84zM318 0h-101l337 712h101zM848 127q0 -33 -11 -57.5t-30.5 -41t-45.5 -24.5t-55 -8t-55 8t-45.5 24.5t-30.5 41t-11 57.5q0 35 15.5 57t33.5 36q-15 12 -29.5 32.5t-14.5 52.5q0 30 11 53.5t30 39.5t44 24.5t52 8.5
t52 -8.5t44 -24.5t30.5 -39.5t11.5 -53.5q0 -32 -14.5 -52.5t-30.5 -32.5q18 -14 33.5 -36t15.5 -57zM754 129q0 20 -14 34.5t-34 14.5t-34 -14.5t-14 -34.5t14 -34t34 -14t34 14t14 34zM749 303q0 18 -12 30.5t-31 12.5t-31 -12.5t-12 -30.5q0 -19 12.5 -32t30.5 -13
q19 0 31 13t12 32z" />
    <glyph glyph-name="uni215F" unicode="&#x215f;" horiz-adv-x="540" 
d="M144 285v321l-90 -78v106l90 78h95v-427h-95zM318 0h-101l337 712h101z" />
    <glyph glyph-name="uni2189" unicode="&#x2189;" horiz-adv-x="872" 
d="M302 414q0 -33 -11.5 -57.5t-30 -41.5t-43 -25.5t-51.5 -8.5q-26 0 -50.5 8.5t-43.5 25.5t-30.5 41.5t-11.5 57.5v170q0 32 11.5 57t30.5 41.5t43.5 25t50.5 8.5q27 0 51.5 -8.5t43 -25t30 -41.5t11.5 -57v-170zM208 584q0 23 -12.5 35.5t-29.5 12.5t-29 -12.5t-12 -35.5
v-172q0 -23 12 -34.5t29 -11.5t29.5 11.5t12.5 34.5v172zM318 0h-101l337 712h101zM850 127q0 -33 -11.5 -58t-31 -41t-45 -24t-53.5 -8q-27 0 -52 7.5t-45 23.5t-32 41t-12 60h94q0 -24 13.5 -36t33.5 -12q21 0 34 13t13 37q0 21 -13 34.5t-36 13.5h-13v81h13
q23 0 33.5 13.5t10.5 29.5q0 22 -12.5 33t-29.5 11t-29.5 -11t-12.5 -31h-94q0 30 10.5 53.5t29 40t43.5 25t53 8.5q29 0 54 -9.5t43 -26t28.5 -39.5t10.5 -51q0 -35 -14 -54t-31 -30q19 -12 34.5 -34t15.5 -60z" />
    <glyph glyph-name="arrowleft" unicode="&#x2190;" horiz-adv-x="1027" 
d="M50 285l386 385h164l-327 -324h704v-123h-704l327 -323h-164z" />
    <glyph glyph-name="arrowup" unicode="&#x2191;" horiz-adv-x="1027" 
d="M575 527v-705h-122v705l-324 -327v164l385 385l385 -385v-164z" />
    <glyph glyph-name="arrowright" unicode="&#x2192;" horiz-adv-x="1027" 
d="M756 224h-705v122h705l-327 324h164l385 -385l-385 -385h-164z" />
    <glyph glyph-name="arrowdown" unicode="&#x2193;" horiz-adv-x="1027" 
d="M513 -178l-385 386v164l324 -327v704h123v-704l323 327v-164z" />
    <glyph glyph-name="uni2196" unicode="&#x2196;" horiz-adv-x="1027" 
d="M797 -86l-497 498l1 -460l-116 116v545h546l116 -116l-460 2l497 -498z" />
    <glyph glyph-name="uni2197" unicode="&#x2197;" horiz-adv-x="1027" 
d="M725 -47l2 459l-498 -498l-87 87l498 498l-460 -2l116 116h545v-544z" />
    <glyph glyph-name="uni2198" unicode="&#x2198;" horiz-adv-x="1027" 
d="M305 -63l-115 115l459 -2l-498 498l87 87l498 -498l-2 459l116 -116v-543h-545z" />
    <glyph glyph-name="uni2199" unicode="&#x2199;" horiz-adv-x="1027" 
d="M377 51l460 1l-116 -115l-546 -1l1 545l116 116l-2 -459l497 497l87 -87z" />
    <glyph glyph-name="partialdiff" unicode="&#x2202;" horiz-adv-x="555" 
d="M482 254q0 -69 -11.5 -115.5t-45.5 -82.5q-23 -25 -61.5 -43.5t-94.5 -18.5t-94 18.5t-61 43.5q-34 36 -46 82.5t-12 115.5q0 71 12 117t46 82q22 23 58 41.5t92 18.5q23 0 45.5 -6t41.5 -23v27q0 13 -5 30t-17 32t-32 25t-50 10q-33 0 -56.5 -9.5t-45.5 -30.5l-81 82
q41 39 85 53.5t104 14.5q57 0 100 -17.5t71.5 -49t43 -75t14.5 -95.5v-227zM352 254q0 38 -4.5 69t-22.5 51q-22 22 -56 22t-56 -22q-18 -20 -22.5 -51t-4.5 -69t4.5 -69.5t22.5 -51.5q22 -22 56 -22t56 22q18 20 22.5 51.5t4.5 69.5z" />
    <glyph glyph-name="Delta" unicode="&#x2206;" horiz-adv-x="634" 
d="M3 0l260 712h108l260 -712h-628zM320 502l-134 -385h264z" />
    <glyph glyph-name="product" unicode="&#x220f;" horiz-adv-x="685" 
d="M463 -191v828h-241v-828h-139v951h519v-951h-139z" />
    <glyph glyph-name="summation" unicode="&#x2211;" horiz-adv-x="552" 
d="M40 -191v110l189 376l-186 355v110h468v-124h-306l141 -279v-129l-146 -295h315v-124h-475z" />
    <glyph glyph-name="minus" unicode="&#x2212;" 
d="M50 225v121h443v-121h-443z" />
    <glyph glyph-name="uni2219" unicode="&#x2219;" 
d="M434 334q0 -34 -13 -63.5t-35 -51.5t-51.5 -35t-63.5 -13t-63.5 13t-51.5 35t-35 51.5t-13 63.5t13 63.5t35 51.5t51.5 35t63.5 13t63.5 -13t51.5 -35t35 -51.5t13 -63.5z" />
    <glyph glyph-name="radical" unicode="&#x221a;" horiz-adv-x="596" 
d="M474 588l-194 -588h-105l-172 521h141l84 -273l143 464h195v-124h-92z" />
    <glyph glyph-name="infinity" unicode="&#x221e;" horiz-adv-x="851" 
d="M796 284q0 -39 -12.5 -73.5t-36.5 -60t-59.5 -40t-81.5 -14.5q-54 0 -98.5 25t-82.5 69q-38 -44 -82.5 -69t-97.5 -25q-47 0 -82.5 14.5t-59.5 40t-36 60t-12 73.5t12 74t36 60.5t59.5 40.5t82.5 15q53 0 97.5 -25.5t82.5 -69.5q38 44 82.5 69.5t98.5 25.5q46 0 81.5 -15
t59.5 -40.5t36.5 -60.5t12.5 -74zM337 281q-23 27 -44 46.5t-48 19.5q-26 0 -45 -17.5t-19 -48.5t19 -48t45 -17q27 0 48 19t44 46zM670 281q0 31 -19.5 48t-45.5 17q-27 0 -47.5 -19t-43.5 -46q23 -27 43.5 -46t47.5 -19q26 0 45.5 17t19.5 48z" />
    <glyph glyph-name="integral" unicode="&#x222b;" horiz-adv-x="490" 
d="M384 615q-34 0 -52.5 -17.5t-18.5 -53.5v-549q0 -88 -52.5 -134.5t-138.5 -46.5h-65v110h49q34 0 52.5 17t18.5 53v549q0 88 52.5 135t138.5 47h65v-110h-49z" />
    <glyph glyph-name="approxequal" unicode="&#x2248;" horiz-adv-x="606" 
d="M569 393q-23 -23 -43 -39.5t-39.5 -27t-39.5 -15t-43 -4.5q-31 0 -58 8t-59 25q-22 11 -41 17.5t-41 6.5q-20 0 -39 -7t-47 -35l-82 82q23 23 43 39.5t39.5 27t39 15t42.5 4.5q31 0 58 -8t59 -25q22 -11 40.5 -18t40.5 -7q20 0 39.5 7.5t47.5 35.5zM569 167
q-23 -23 -43 -39.5t-39.5 -27t-39 -15t-42.5 -4.5q-31 0 -58 8t-59 25q-22 11 -40.5 18t-40.5 7q-20 0 -39.5 -7.5t-47.5 -35.5l-83 82q23 23 43.5 39.5t40 27t39.5 15t43 4.5q31 0 57.5 -8t58.5 -25q22 -11 41 -17.5t41 -6.5q20 0 39 7t47 35z" />
    <glyph glyph-name="notequal" unicode="&#x2260;" horiz-adv-x="602" 
d="M232 116l-103 -129l-79 62l55 67h-55v122h149l78 95h-227v122h320l103 129l79 -62l-55 -67h55v-122h-148l-78 -95h226v-122h-320z" />
    <glyph glyph-name="lessequal" unicode="&#x2264;" 
d="M69 362v114l406 186v-137l-241 -106l241 -107v-137zM69 145v137l406 -187v-137z" />
    <glyph glyph-name="greaterequal" unicode="&#x2265;" 
d="M69 175v137l241 107l-241 106v137l406 -186v-114zM69 -42v137l406 187v-137z" />
    <glyph glyph-name="dotmath" unicode="&#x22c5;" 
d="M197 212v148h149v-148h-149z" />
    <glyph glyph-name="lozenge" unicode="&#x25ca;" horiz-adv-x="636" 
d="M318 -26l-263 367l263 366l263 -366zM318 505l-117 -164l117 -165l117 165z" />
    <glyph glyph-name="fi" unicode="&#xfb01;" horiz-adv-x="606" 
d="M219 407v-407h-130v407h-54v99h54v65q0 28 9 54.5t27.5 47.5t47 34t68.5 13h74v-110h-51q-45 0 -45 -47v-57h96v-99h-96zM404 0v506h130v-506h-130zM402 610v106h133v-106h-133z" />
    <glyph glyph-name="fl" unicode="&#xfb02;" horiz-adv-x="659" 
d="M219 407v-407h-130v407h-54v99h54v65q0 28 9 54.5t27.5 47.5t47 34t68.5 13h74v-110h-51q-45 0 -45 -47v-57h96v-99h-96zM554 0q-40 0 -69 13t-47.5 34t-27 47.5t-8.5 54.5v563h130v-555q0 -23 10.5 -35t35.5 -12h50v-110h-74z" />
    <glyph glyph-name="uniFEFF" unicode="&#xfeff;" horiz-adv-x="0" 
 />
    <glyph glyph-name="caroncomma.ss01" 
d="M577 541v206h113v-118z" />
    <glyph glyph-name="caroncomma" 
d="M638 575h-91l36 166h115z" />
    <glyph glyph-name="commaaccent" horiz-adv-x="279" 
d="M155 -206h-121l69 146h96z" />
    <glyph glyph-name="commaturn" horiz-adv-x="279" 
d="M119 604h-87l64 170h137z" />
    <glyph glyph-name="breveCyrLc.comp" horiz-adv-x="500" 
d="M412 722q-1 -41 -15.5 -68t-37 -44t-51 -24t-58.5 -7t-58.5 7t-51 24t-37 44t-15.5 68h98q2 -33 19.5 -47.5t44.5 -14.5t44.5 14.5t19.5 47.5h98z" />
    <glyph glyph-name="breveCyrUc.comp" horiz-adv-x="500" 
d="M412 893q-2 -41 -16 -68t-36.5 -44t-51 -24t-58.5 -7t-58.5 7t-51 24t-37 44t-15.5 68h98q2 -33 19.5 -47.5t44.5 -14.5t44.5 14.5t19.5 47.5h98z" />
    <glyph glyph-name="grave.lc" 
d="M236 604l-114 170h137l64 -170h-87z" />
    <glyph glyph-name="dieresis.lc" 
d="M327 606v125h111v-125h-111zM106 606v125h111v-125h-111z" />
    <glyph glyph-name="macron.lc" horiz-adv-x="500" 
d="M91 623v88h317v-88h-317z" />
    <glyph glyph-name="acute.lc" 
d="M304 604h-87l64 170h137z" />
    <glyph glyph-name="circumflex.lc" 
d="M355 604l-83 91l-83 -91h-101l132 169h104l132 -169h-101z" />
    <glyph glyph-name="caron.lc" horiz-adv-x="478" 
d="M294 604h-104l-132 169h101l83 -90l83 90h101z" />
    <glyph glyph-name="breve.lc" horiz-adv-x="500" 
d="M414 748q-2 -41 -15.5 -69.5t-36 -46.5t-51.5 -26.5t-61 -8.5t-61 8.5t-51.5 26.5t-36.5 46.5t-15 69.5h87q4 -32 26 -46t51 -14t51 14t26 46h87z" />
    <glyph glyph-name="dotaccent.lc" horiz-adv-x="500" 
d="M192 727h115v-115h-115v115z" />
    <glyph glyph-name="ring.lc" horiz-adv-x="534" 
d="M392 715q0 -27 -10.5 -51t-28 -41.5t-41.5 -28t-51 -10.5t-51 10.5t-41.5 28t-28 41.5t-10.5 51t10.5 51t28 41.5t41.5 28t51 10.5t51 -10t41.5 -28t28 -42t10.5 -51zM319 715q0 24 -17 41t-41 17t-41 -17t-17 -41t17 -41.5t41 -17.5t41 17.5t17 41.5z" />
    <glyph glyph-name="tilde.lc" 
d="M447 671q-33 -33 -58.5 -45.5t-54.5 -12.5q-22 0 -39 5t-38 17q-14 8 -27.5 13t-28.5 5q-13 0 -25.5 -4t-32.5 -24l-57 57q33 33 58 45.5t54 12.5q23 0 39.5 -4.5t38.5 -17.5q14 -9 27 -14t28 -5q13 0 25.5 4.5t32.5 24.5z" />
    <glyph glyph-name="hungarumlaut.lc" horiz-adv-x="500" 
d="M147 604h-88l64 170h137zM347 604h-86l63 170h138z" />
    <glyph glyph-name="grave.uc" horiz-adv-x="644" 
d="M290 781l-114 170h137l64 -170h-87z" />
    <glyph glyph-name="dieresis.uc" horiz-adv-x="644" 
d="M377 783v125h111v-125h-111zM156 783v125h111v-125h-111z" />
    <glyph glyph-name="macron.uc" horiz-adv-x="500" 
d="M91 881h317v-88h-317v88z" />
    <glyph glyph-name="acute.uc" horiz-adv-x="644" 
d="M354 781h-87l64 170h137z" />
    <glyph glyph-name="circumflex.uc" horiz-adv-x="644" 
d="M405 781l-83 91l-83 -91h-101l132 169h104l132 -169h-101z" />
    <glyph glyph-name="caron.uc" horiz-adv-x="548" 
d="M329 781h-104l-132 169h101l83 -90l83 90h101z" />
    <glyph glyph-name="breve.uc" horiz-adv-x="500" 
d="M414 930q-2 -41 -15.5 -69.5t-36 -46.5t-51.5 -26.5t-61 -8.5t-61 8.5t-51.5 26.5t-36.5 46.5t-15 69.5h87q4 -32 26 -46t51 -14t51 14t26 46h87z" />
    <glyph glyph-name="dotaccent.uc" horiz-adv-x="500" 
d="M192 905h115v-116h-115v116z" />
    <glyph glyph-name="ring.uc" horiz-adv-x="500" 
d="M381 884q0 -27 -10.5 -51t-28 -41.5t-41.5 -28t-51 -10.5t-51 10.5t-41.5 28t-28 41.5t-10.5 51t10.5 51t28 41.5t41.5 28t51 10.5t51 -10t41.5 -28t28 -42t10.5 -51zM308 884q0 24 -17 41t-41 17t-41 -17t-17 -41t17 -41.5t41 -17.5t41 17.5t17 41.5z" />
    <glyph glyph-name="tilde.uc" horiz-adv-x="644" 
d="M502 849q-33 -33 -58.5 -46t-54.5 -13q-23 0 -40 5t-38 18q-14 8 -27.5 13t-28.5 5q-13 0 -25.5 -4.5t-32.5 -24.5l-56 57q32 33 57.5 46t54.5 13q22 0 39 -5t38 -18q15 -9 27.5 -13.5t27.5 -4.5q13 0 26 4.5t33 24.5z" />
    <glyph glyph-name="hungarumlaut.uc" horiz-adv-x="500" 
d="M147 781h-88l64 170h137zM347 781h-86l63 170h138z" />
    </font>
</defs>
</svg>
