<?xml version="1.0" standalone="no"?>
<!DOCTYPE svg PUBLIC "-//W3C//DTD SVG 1.1//EN" "http://www.w3.org/Graphics/SVG/1.1/DTD/svg11.dtd" >
<svg>
<metadata>
Created by FontForge 20110222 at Wed Nov 27 02:03:18 2013
 By Orthosie Webhosting
2009 Albert-Jan Pool published by FSI FontShop International GmbH
</metadata>
<defs>
<font id="DINOffcPro" horiz-adv-x="530" >
  <font-face 
    font-family="DIN Offc Pro"
    font-weight="400"
    font-stretch="normal"
    units-per-em="1000"
    panose-1="2 11 5 4 2 1 1 2 1 2"
    ascent="764"
    descent="-236"
    x-height="492"
    cap-height="712"
    bbox="-107 -226 1172 1148"
    underline-thickness="51"
    underline-position="-89"
    unicode-range="U+0020-FEFF"
  />
<missing-glyph horiz-adv-x="562" 
d="M90 712h382v-712h-382v712zM421 51v610h-280v-610h280z" />
    <glyph glyph-name=".notdef" horiz-adv-x="562" 
d="M90 712h382v-712h-382v712zM421 51v610h-280v-610h280z" />
    <glyph glyph-name=".null" horiz-adv-x="0" 
 />
    <glyph glyph-name="nonmarkingreturn" horiz-adv-x="249" 
 />
    <glyph glyph-name="space" unicode=" " horiz-adv-x="249" 
 />
    <glyph glyph-name="exclam" unicode="!" horiz-adv-x="316" 
d="M204 200h-62l-10 512h83zM130 0v84h86v-84h-86z" />
    <glyph glyph-name="quotedbl" unicode="&#x22;" horiz-adv-x="423" 
d="M256 542v170h79v-170h-79zM88 542v170h79v-170h-79z" />
    <glyph glyph-name="numbersign" unicode="#" horiz-adv-x="653" 
d="M506 432l-23 -141h89v-64h-99l-36 -227h-74l36 227h-160l-35 -227h-74l36 227h-89v64h100l23 141h-92v66h101l34 215h75l-35 -215h159l34 215h73l-34 -215h87v-66h-96zM273 432l-23 -141h159l23 141h-159z" />
    <glyph glyph-name="dollar" unicode="$" horiz-adv-x="596" 
d="M540 196q0 -44 -15.5 -79t-44 -61t-69 -41.5t-89.5 -18.5v-110h-60v108q-71 3 -122 25t-98 69l52 52q40 -40 80.5 -57.5t91.5 -19.5v265l-20 2q-41 4 -75 20t-55 34q-55 49 -55 133q0 85 53.5 138.5t147.5 61.5v89h60v-89q58 -3 101 -21.5t85 -55.5l-49 -49
q-29 26 -61.5 41.5t-78.5 18.5v-259l31 -5q25 -4 44 -8.5t34 -10.5t27.5 -13.5t23.5 -17.5q29 -25 45 -60.5t16 -80.5zM464 194q0 28 -9 51t-26 38q-25 22 -51.5 27t-58.5 10v-257q68 5 106.5 39t38.5 92zM266 651q-63 -5 -96.5 -40t-33.5 -91q0 -54 32 -82q21 -17 46.5 -26
t51.5 -13v252z" />
    <glyph glyph-name="percent" unicode="%" horiz-adv-x="833" 
d="M277 582q0 41 -17.5 64t-59.5 23t-60 -23t-18 -64v-101q0 -41 18 -63.5t60 -22.5t59.5 22.5t17.5 63.5v101zM335 479q0 -63 -38 -98.5t-97 -35.5t-97 35.5t-38 98.5v105q0 63 38 99t97 36t97 -36t38 -99v-105zM711 230q0 41 -17.5 64t-59.5 23t-60 -23t-18 -64v-100
q0 -42 18 -64.5t60 -22.5t59.5 22.5t17.5 64.5v100zM769 127q0 -62 -38 -98t-97 -36t-97 36t-38 98v105q0 63 38 99t97 36t97 -36t38 -99v-105zM280 0h-60l334 712h60z" />
    <glyph glyph-name="ampersand" unicode="&#x26;" horiz-adv-x="739" 
d="M576 0l-64 78q-11 -10 -29 -24.5t-44 -27.5t-60 -22.5t-77 -9.5q-52 0 -93.5 15t-71 42t-45 65t-15.5 85q0 40 13 71t34.5 56t49.5 45.5t57 40.5q-13 16 -26.5 33t-25 36t-18.5 40.5t-7 45.5q0 32 11.5 59t32.5 47t50 31.5t63 11.5q33 0 61.5 -11.5t49.5 -31.5
t32.5 -47.5t11.5 -59.5q0 -43 -22.5 -73.5t-56.5 -53.5l-53 -36l182 -219q11 16 18.5 32.5t12 35.5t7 42t2.5 53h72q-1 -68 -16 -122t-50 -96l109 -131h-95zM273 366q-23 -16 -45 -32t-39 -35t-27.5 -42.5t-10.5 -53.5q0 -32 11 -58t31 -45t47.5 -29t60.5 -10q40 0 81 14
t87 55zM395 568q0 36 -24 60.5t-60 24.5q-37 0 -59.5 -23.5t-22.5 -59.5q0 -25 14.5 -49.5t49.5 -67.5l38 26q25 17 44.5 37.5t19.5 51.5z" />
    <glyph glyph-name="quotesingle" unicode="'" horiz-adv-x="255" 
d="M88 542v170h79v-170h-79z" />
    <glyph glyph-name="parenleft" unicode="(" horiz-adv-x="298" 
d="M185 -94q-26 26 -42.5 44.5t-29.5 41.5q-14 26 -17.5 50.5t-3.5 52.5v522q0 27 3.5 52.5t17.5 50.5q13 23 29.5 41.5t42.5 44.5l51 -51q-20 -19 -33 -33t-22 -32q-8 -15 -11 -34.5t-3 -44.5v-510q0 -25 2.5 -43t11.5 -36t22 -32t33 -33z" />
    <glyph glyph-name="parenright" unicode=")" horiz-adv-x="298" 
d="M61 -43q20 19 33 33t22 32t11.5 36t2.5 43v510q0 25 -3 44.5t-11 34.5q-9 18 -22 32t-33 33l51 51q26 -26 42.5 -44.5t29.5 -41.5q14 -25 17.5 -50.5t3.5 -52.5v-522q0 -28 -3.5 -52.5t-17.5 -50.5q-13 -23 -29.5 -41.5t-42.5 -44.5z" />
    <glyph glyph-name="asterisk" unicode="*" horiz-adv-x="474" 
d="M379 423l-117 71l4 -137h-58l4 137l-116 -71l-29 49l120 65l-120 66l29 48l116 -71l-4 137h58l-4 -137l117 71l28 -48l-120 -66l120 -65z" />
    <glyph glyph-name="plus" unicode="+" horiz-adv-x="522" 
d="M295 234v-176h-67v176h-176v67h176v174h67v-174h175v-67h-175z" />
    <glyph glyph-name="comma" unicode="," horiz-adv-x="264" 
d="M88 -144v232h88v-153z" />
    <glyph glyph-name="hyphen" unicode="-" horiz-adv-x="426" 
d="M76 236v67h274v-67h-274z" />
    <glyph glyph-name="period" unicode="." horiz-adv-x="270" 
d="M88 0v94h94v-94h-94z" />
    <glyph glyph-name="slash" unicode="/" horiz-adv-x="355" 
d="M71 -74h-71l285 860h71z" />
    <glyph glyph-name="zero" unicode="0" horiz-adv-x="522" 
d="M456 190q0 -44 -15 -80.5t-41 -62t-61.5 -39.5t-77.5 -14t-77.5 14t-62 39.5t-41 62t-14.5 80.5v332q0 44 14.5 80.5t41 62t62 39.5t77.5 14t77.5 -14t61.5 -39.5t41 -62t15 -80.5v-332zM384 518q0 59 -31.5 97.5t-91.5 38.5t-91.5 -38.5t-31.5 -97.5v-324
q0 -59 31.5 -97.5t91.5 -38.5t91.5 38.5t31.5 97.5v324z" />
    <glyph glyph-name="one" unicode="1" horiz-adv-x="522" 
d="M258 0v632l-133 -117v82l133 115h72v-712h-72z" />
    <glyph glyph-name="two" unicode="2" horiz-adv-x="522" 
d="M68 0v64l281 357q20 26 30 51t10 54q0 58 -32.5 93t-91.5 35q-25 0 -47.5 -7t-39.5 -23t-27 -40.5t-10 -58.5h-72q0 42 14 77.5t39.5 61t61.5 40t81 14.5q44 0 80 -13.5t62 -38.5t40 -60.5t14 -79.5q0 -43 -14 -74.5t-43 -69.5l-249 -318h306v-64h-393z" />
    <glyph glyph-name="three" unicode="3" horiz-adv-x="522" 
d="M460 194q0 -49 -16.5 -86.5t-44.5 -63t-66.5 -38.5t-81.5 -13q-42 0 -79 11t-65 34.5t-45.5 59t-19.5 83.5h72q2 -33 14 -56.5t31 -38.5t42.5 -22t49.5 -7q58 0 97.5 36t39.5 102q0 65 -33.5 101.5t-106.5 36.5h-15v63h15q66 0 96.5 34.5t30.5 94.5q0 64 -36 97t-88 33
q-57 0 -90 -32t-38 -87h-72q3 43 19.5 77t43 57.5t61.5 36t76 12.5q43 0 79.5 -14t62 -39t40 -61t14.5 -79q0 -115 -96 -158q109 -41 109 -174z" />
    <glyph glyph-name="four" unicode="4" horiz-adv-x="522" 
d="M395 113v-113h-71v113h-284v65l257 534h77l-257 -534h207v202h71v-202h87v-65h-87z" />
    <glyph glyph-name="five" unicode="5" horiz-adv-x="522" 
d="M462 235q0 -54 -9.5 -102.5t-47.5 -86.5q-25 -25 -59.5 -39t-82.5 -14q-47 0 -83.5 14t-59.5 37q-23 24 -35 55t-15 69h72q7 -54 35.5 -82.5t85.5 -28.5q55 0 88 33q14 14 22 31t11.5 36t4.5 39t1 39q0 33 -4.5 64t-17 55t-36 39t-62.5 15q-47 0 -77 -19t-41 -51h-65v374
h360v-64h-295v-226q21 23 53.5 36t74.5 13q40 0 71 -12t52 -33q19 -20 31 -42.5t18 -47.5t8 -50.5t2 -50.5z" />
    <glyph glyph-name="six" unicode="6" horiz-adv-x="522" 
d="M460 205q0 -45 -14 -84t-39.5 -67t-62 -44t-81.5 -16t-82 14.5t-62.5 41.5t-39.5 65t-14 84q0 38 11 76.5t34 83.5l175 353h74l-159 -320q33 15 75 15t76 -15t58 -42t37.5 -64t13.5 -81zM388 202q0 30 -8 56t-24 45.5t-39.5 31t-54.5 11.5q-57 0 -91 -39t-34 -105
t34 -105t91 -39t91.5 39t34.5 105z" />
    <glyph glyph-name="seven" unicode="7" horiz-adv-x="522" 
d="M224 0h-76l247 648h-248v-112h-71v176h395v-64z" />
    <glyph glyph-name="eight" unicode="8" horiz-adv-x="522" 
d="M471 196q0 -45 -16 -82t-44.5 -64t-67 -41.5t-82.5 -14.5t-82.5 14.5t-67 41.5t-44.5 64t-16 82q0 63 31 105t76 68q-42 24 -67.5 63t-25.5 95q0 42 14.5 77t41 60.5t62.5 39.5t78 14t78 -14t62.5 -39.5t41 -60.5t14.5 -77q0 -56 -25 -95t-67 -63q45 -26 75.5 -68
t30.5 -105zM399 197q0 30 -10.5 55t-29 44t-44 29.5t-54.5 10.5t-54.5 -10.5t-44 -29.5t-29 -44t-10.5 -55t10.5 -55t29 -44t44 -29.5t54.5 -10.5t54.5 10.5t44 29.5t29 44t10.5 55zM385 526q0 56 -34.5 92t-89.5 36t-89.5 -36t-34.5 -92q0 -57 34.5 -92t89.5 -35t89.5 35
t34.5 92z" />
    <glyph glyph-name="nine" unicode="9" horiz-adv-x="522" 
d="M457 513q0 -38 -11 -76.5t-34 -83.5l-175 -353h-75l160 320q-33 -15 -76 -15q-42 0 -76 15t-58 42t-37 64t-13 81q0 45 14 84t39.5 67t62 44t81.5 16t82 -14.5t62.5 -41.5t39.5 -65t14 -84zM385 510q0 66 -34.5 105t-91.5 39t-91 -39t-34 -105q0 -30 8 -56t23.5 -45.5
t39 -31t54.5 -11.5q57 0 91.5 39t34.5 105z" />
    <glyph glyph-name="colon" unicode=":" horiz-adv-x="297" 
d="M115 301v94h94v-94h-94zM115 0v94h94v-94h-94z" />
    <glyph glyph-name="semicolon" unicode=";" horiz-adv-x="297" 
d="M117 -144v232h88v-153zM115 301v94h94v-94h-94z" />
    <glyph glyph-name="less" unicode="&#x3c;" horiz-adv-x="522" 
d="M95 236v66l331 168v-77l-250 -124l250 -124v-77z" />
    <glyph glyph-name="equal" unicode="=" horiz-adv-x="522" 
d="M52 320v67h418v-67h-418zM52 151v66h418v-66h-418z" />
    <glyph glyph-name="greater" unicode="&#x3e;" horiz-adv-x="522" 
d="M95 68v77l250 124l-250 124v77l331 -168v-66z" />
    <glyph glyph-name="question" unicode="?" horiz-adv-x="497" 
d="M451 536q0 -35 -12.5 -63.5t-32.5 -57.5l-82 -118q-9 -14 -13.5 -30t-4.5 -28v-39h-72v40q0 29 7.5 50t23.5 44l81 117q14 21 23.5 40t9.5 45q0 51 -32 84.5t-83 33.5q-27 0 -48.5 -9.5t-36.5 -26t-23 -38t-8 -45.5h-72q0 38 14 71.5t39.5 58t59.5 39t75 14.5
q39 0 73.5 -13.5t59.5 -37.5t39.5 -57.5t14.5 -73.5zM227 0v84h86v-84h-86z" />
    <glyph glyph-name="at" unicode="@" horiz-adv-x="713" 
d="M572 0v55q-25 -32 -56.5 -47t-77.5 -15q-42 0 -77.5 16t-58.5 45q-26 31 -35 73.5t-9 110.5q0 66 9 109t32 74q22 29 58 45.5t80 16.5t76 -15.5t58 -47.5v78q0 40 -8.5 65.5t-30.5 48.5q-21 21 -48.5 30.5t-62.5 9.5h-130q-35 0 -61 -9t-48 -31q-23 -23 -31.5 -47.5
t-8.5 -66.5v-337q0 -24 2.5 -41t9 -30.5t17.5 -25t28 -24.5l-49 -49q-23 17 -38 33t-24 35t-12.5 43.5t-3.5 57.5v336q0 104 56 161q55 56 154 56h148q98 0 154 -56q57 -57 57 -161v-496h-69zM571 238q0 35 -4 68t-17 58.5t-37 41t-63 15.5t-63 -15.5t-37 -41t-17 -58.5
t-4 -68t4 -68t17 -58.5t37 -41t63 -15.5t63 15.5t37 41t17 58.5t4 68z" />
    <glyph glyph-name="A" unicode="A" horiz-adv-x="611" 
d="M518 0l-57 161h-311l-57 -161h-81l262 712h64l261 -712h-81zM307 603l-134 -376h266z" />
    <glyph glyph-name="B" unicode="B" horiz-adv-x="668" 
d="M592 197q0 -48 -15.5 -85t-43.5 -62t-67 -37.5t-86 -12.5h-277v712h268q46 0 85 -13t66.5 -37.5t43 -59.5t15.5 -80q0 -57 -30 -98t-75 -58q51 -19 83.5 -62t32.5 -107zM516 199q0 60 -38.5 95t-104.5 35h-194v-261h194q66 0 104.5 35.5t38.5 95.5zM505 521q0 32 -11 55
t-29.5 38t-44 22.5t-55.5 7.5h-186v-247h186q30 0 55.5 7.5t44 22.5t29.5 38.5t11 55.5z" />
    <glyph glyph-name="C" unicode="C" horiz-adv-x="637" 
d="M572 206q-19 -100 -84.5 -156t-162.5 -56q-56 0 -100.5 18.5t-77.5 51.5q-25 25 -39.5 51t-21.5 59t-8.5 77t-1.5 105t1.5 105t8.5 77t21.5 59t39.5 51q33 33 77.5 51.5t100.5 18.5q97 0 162.5 -56t84.5 -156h-78q-14 66 -58 105t-111 39q-73 0 -123 -50q-17 -17 -27 -37
t-15 -47.5t-6.5 -66t-1.5 -93.5t1.5 -93.5t6.5 -66t15 -47.5t27 -37q50 -50 123 -50q67 0 112 39t59 105h76z" />
    <glyph glyph-name="D" unicode="D" horiz-adv-x="673" 
d="M597 356q0 -41 -1 -80.5t-7 -75.5t-18.5 -68t-36.5 -57q-36 -39 -81.5 -57t-105.5 -18h-244v712h244q60 0 105.5 -18t81.5 -57q24 -26 36.5 -57.5t18.5 -67.5t7 -75.5t1 -80.5zM521 356q0 37 -1 71.5t-5.5 65t-14 56t-26.5 43.5q-27 30 -63 41t-77 11h-155v-576h155
q41 0 77 11t63 41q17 18 26.5 43.5t14 56t5.5 65t1 71.5z" />
    <glyph glyph-name="E" unicode="E" horiz-adv-x="600" 
d="M103 0v712h442v-68h-366v-251h312v-68h-312v-257h366v-68h-442z" />
    <glyph glyph-name="F" unicode="F" horiz-adv-x="580" 
d="M179 644v-262h312v-68h-312v-314h-76v712h442v-68h-366z" />
    <glyph glyph-name="G" unicode="G" horiz-adv-x="650" 
d="M576 259q0 -31 -3 -56t-10 -47t-19 -41.5t-29 -38.5q-38 -42 -86.5 -62t-103.5 -20q-56 0 -100.5 18.5t-77.5 51.5q-25 25 -39.5 51t-21.5 59t-8.5 77t-1.5 105t1.5 105t8.5 77t21.5 59t39.5 51q33 33 77.5 51.5t100.5 18.5q50 0 92.5 -16t74.5 -44.5t53 -67.5t29 -85
h-76q-15 69 -60.5 107t-112.5 38q-75 0 -123 -50q-17 -17 -27 -37t-15 -47.5t-6.5 -66t-1.5 -93.5t1.5 -93.5t6.5 -66t15 -47.5t27 -37q48 -50 123 -50q39 0 74.5 15.5t60.5 45.5q22 27 31 57.5t9 71.5v55h-175v65h251v-113z" />
    <glyph glyph-name="H" unicode="H" horiz-adv-x="696" 
d="M517 0v325h-338v-325h-76v712h76v-319h338v319h76v-712h-76z" />
    <glyph glyph-name="I" unicode="I" horiz-adv-x="282" 
d="M103 0v712h76v-712h-76z" />
    <glyph glyph-name="J" unicode="J" horiz-adv-x="501" 
d="M408 216q0 -51 -16.5 -92.5t-46 -70t-70 -44t-89.5 -15.5q-51 0 -90.5 15.5t-72.5 48.5l51 51q19 -20 43.5 -33.5t68.5 -13.5q70 0 108 42.5t38 121.5v486h76v-496z" />
    <glyph glyph-name="K" unicode="K" horiz-adv-x="650" 
d="M546 0l-217 379l-150 -180v-199h-76v712h76v-409l332 409h93l-224 -275l256 -437h-90z" />
    <glyph glyph-name="L" unicode="L" horiz-adv-x="573" 
d="M103 0v712h76v-644h364v-68h-440z" />
    <glyph glyph-name="M" unicode="M" horiz-adv-x="816" 
d="M637 0v541l-195 -429h-65l-198 429v-541h-76v712h76l232 -505l226 505h76v-712h-76z" />
    <glyph glyph-name="N" unicode="N" horiz-adv-x="732" 
d="M557 0l-378 571v-571h-76v712h72l378 -569v569h76v-712h-72z" />
    <glyph glyph-name="O" unicode="O" horiz-adv-x="650" 
d="M574 356q0 -61 -2 -105t-9 -77t-21.5 -59t-39.5 -51q-33 -33 -77 -51.5t-100 -18.5t-100.5 18.5t-77.5 51.5q-25 25 -39.5 51t-21.5 59t-8.5 77t-1.5 105t1.5 105t8.5 77t21.5 59t39.5 51q33 33 77.5 51.5t100.5 18.5t100 -18.5t77 -51.5q25 -25 39.5 -51t21.5 -59t9 -77
t2 -105zM498 356q0 55 -1.5 93.5t-6.5 66t-15 47.5t-27 37q-50 50 -123 50t-123 -50q-17 -17 -27 -37t-15 -47.5t-6.5 -66t-1.5 -93.5t1.5 -93.5t6.5 -66t15 -47.5t27 -37q50 -50 123 -50t123 50q17 17 27 37t15 47.5t6.5 66t1.5 93.5z" />
    <glyph glyph-name="P" unicode="P" horiz-adv-x="630" 
d="M588 503q0 -48 -16 -86.5t-45.5 -66t-70 -42.5t-88.5 -15h-189v-293h-76v712h265q48 0 88.5 -15t70 -42t45.5 -65.5t16 -86.5zM512 503q0 71 -41.5 106t-108.5 35h-183v-283h183q67 0 108.5 35.5t41.5 106.5z" />
    <glyph glyph-name="Q" unicode="Q" horiz-adv-x="649" 
d="M574 356q0 -54 -1 -94t-6 -71t-15 -55.5t-27 -46.5l78 -78l-46 -46l-79 78q-29 -23 -68 -36t-85 -13q-56 0 -100.5 18.5t-77.5 51.5q-25 25 -39.5 51t-21.5 59t-8.5 77t-1.5 105t1.5 105t8.5 77t21.5 59t39.5 51q33 33 77.5 51.5t100.5 18.5t100 -18.5t77 -51.5
q25 -25 39.5 -51t21.5 -59t9 -77t2 -105zM498 356q0 55 -1.5 93.5t-6.5 66t-15 47.5t-27 37q-24 25 -55.5 37.5t-67.5 12.5t-67.5 -12.5t-55.5 -37.5q-17 -17 -27 -37t-15 -47.5t-6.5 -66t-1.5 -93.5t1.5 -93.5t6.5 -66t15 -47.5t27 -37q24 -25 55.5 -37.5t67.5 -12.5
q29 0 54 8t47 26l-90 90l46 46l86 -87q10 16 16 35t9 44t4 57.5t1 74.5z" />
    <glyph glyph-name="R" unicode="R" horiz-adv-x="656" 
d="M512 0l-162 316h-171v-316h-76v712h273q46 0 85 -13.5t67 -39t43.5 -62.5t15.5 -83q0 -78 -43 -127.5t-112 -63.5l169 -323h-89zM511 513q0 66 -39.5 98.5t-102.5 32.5h-190v-261h190q63 0 102.5 32t39.5 98z" />
    <glyph glyph-name="S" unicode="S" horiz-adv-x="588" 
d="M532 196q0 -47 -17.5 -84.5t-49.5 -63.5t-77.5 -40t-101.5 -14q-40 0 -73.5 5.5t-63 16.5t-55.5 29t-51 43l51 51q44 -44 89 -60.5t105 -16.5q79 0 124 34.5t45 97.5q0 58 -35 89q-8 7 -16.5 12.5t-19 9.5t-24.5 7t-33 6l-83 12q-84 13 -130 54q-55 49 -55 134
q0 45 16 82t45.5 63.5t71.5 40.5t95 14q68 0 117 -19t95 -59l-49 -49q-32 31 -71 46.5t-95 15.5q-72 0 -111.5 -36.5t-39.5 -96.5q0 -55 32 -83q17 -14 41 -23t52 -14l83 -13q49 -8 77 -18.5t52 -32.5q29 -25 44.5 -60t15.5 -80z" />
    <glyph glyph-name="T" unicode="T" horiz-adv-x="548" 
d="M312 644v-644h-76v644h-206v68h488v-68h-206z" />
    <glyph glyph-name="U" unicode="U" horiz-adv-x="683" 
d="M590 235q0 -53 -18.5 -97.5t-52 -76.5t-79 -49.5t-99.5 -17.5t-99.5 17.5t-78.5 49.5t-51.5 76.5t-18.5 97.5v477h76v-471q0 -41 12 -74t34.5 -56t54.5 -36t71 -13t71 13t54.5 36t35 56t12.5 74v471h76v-477z" />
    <glyph glyph-name="V" unicode="V" horiz-adv-x="546" 
d="M304 0h-62l-234 712h80l185 -576l185 576h80z" />
    <glyph glyph-name="W" unicode="W" horiz-adv-x="854" 
d="M656 0h-71l-158 570l-158 -570h-71l-182 712h81l139 -574l157 574h68l157 -574l139 574h81z" />
    <glyph glyph-name="X" unicode="X" horiz-adv-x="551" 
d="M448 0l-173 299l-174 -299h-86l218 365l-204 347h88l158 -281l158 281h88l-205 -347l220 -365h-88z" />
    <glyph glyph-name="Y" unicode="Y" horiz-adv-x="514" 
d="M296 294v-294h-76v294l-212 418h82l168 -341l166 341h82z" />
    <glyph glyph-name="Z" unicode="Z" horiz-adv-x="556" 
d="M57 0v72l356 572h-342v68h428v-64l-359 -580h359v-68h-442z" />
    <glyph glyph-name="bracketleft" unicode="[" horiz-adv-x="313" 
d="M92 -74v860h177v-64h-105v-732h105v-64h-177z" />
    <glyph glyph-name="backslash" unicode="\" horiz-adv-x="355" 
d="M284 -74l-284 857h71l284 -857h-71z" />
    <glyph glyph-name="bracketright" unicode="]" horiz-adv-x="313" 
d="M44 -74v62h108v736h-108v62h177v-860h-177z" />
    <glyph glyph-name="asciicircum" unicode="^" horiz-adv-x="537" 
d="M391 413l-122 228l-123 -228h-74l164 305h66l163 -305h-74z" />
    <glyph glyph-name="underscore" unicode="_" horiz-adv-x="537" 
d="M0 -165v51h537v-51h-537z" />
    <glyph glyph-name="grave" unicode="`" horiz-adv-x="500" 
d="M230 594l-105 153h83l91 -153h-69z" />
    <glyph glyph-name="a" unicode="a" horiz-adv-x="526" 
d="M369 0v47q-29 -29 -61 -41t-81 -12q-51 0 -82 10t-57 35q-19 18 -28 44.5t-9 55.5q0 66 44 104t127 38h147v47q0 54 -28.5 81t-97.5 27q-47 0 -74 -13t-50 -44l-49 45q32 43 72.5 58.5t101.5 15.5q100 0 148.5 -42t48.5 -122v-334h-72zM369 227h-137q-111 0 -111 -87
q0 -43 27 -63.5t87 -20.5q31 0 58 5.5t51 27.5q25 24 25 85v53z" />
    <glyph glyph-name="b" unicode="b" horiz-adv-x="545" 
d="M481 246q0 -60 -11.5 -115.5t-48.5 -93.5q-20 -20 -51 -31.5t-69 -11.5q-42 0 -75 13t-64 52v-59h-72v712h72v-277q31 38 64.5 50.5t74.5 12.5q38 0 69 -11.5t51 -31.5q18 -18 30 -42t18.5 -51t9 -56.5t2.5 -59.5zM409 246q0 36 -4 70t-17 60t-37.5 42t-64.5 16
q-41 0 -65 -16t-37.5 -42t-17.5 -60t-4 -70t4 -70t17.5 -60t37.5 -42t65 -16q40 0 64.5 16t37.5 42t17 60t4 70z" />
    <glyph glyph-name="c" unicode="c" horiz-adv-x="490" 
d="M443 67q-38 -41 -74.5 -57t-87.5 -16q-47 0 -86.5 15.5t-69 47t-46 79t-16.5 110.5t16.5 110t46 78.5t69 47.5t86.5 16q51 0 87.5 -16t74.5 -57l-49 -46q-28 31 -53 43t-60 12q-36 0 -65 -14t-49 -42q-17 -24 -24.5 -54.5t-7.5 -77.5t7.5 -77.5t24.5 -54.5q20 -28 49 -42
t65 -14q35 0 60 12.5t53 43.5z" />
    <glyph glyph-name="d" unicode="d" horiz-adv-x="545" 
d="M384 0v59q-31 -39 -64.5 -52t-75.5 -13q-38 0 -69 11.5t-51 31.5q-37 38 -48.5 93.5t-11.5 115.5q0 30 2.5 59.5t9 56.5t18.5 51t30 42q20 20 51 31.5t69 11.5q42 0 75 -12.5t64 -50.5v277h72v-712h-71zM383 246q0 36 -4 70t-17 60t-37.5 42t-64.5 16q-41 0 -65 -16
t-37.5 -42t-17.5 -60t-4 -70t4 -70t17.5 -60t37.5 -42t65 -16q40 0 64.5 16t37.5 42t17 60t4 70z" />
    <glyph glyph-name="e" unicode="e" 
d="M135 227q0 -81 36.5 -125.5t108.5 -44.5q43 0 71.5 13.5t57.5 42.5l49 -43q-19 -19 -37.5 -33t-40 -23.5t-46.5 -14.5t-56 -5q-49 0 -89 15t-68 46t-43 78.5t-15 112.5q0 121 54 186.5t148 65.5q97 0 149.5 -63.5t52.5 -175.5v-32h-332zM396 281q-1 15 -2 26t-2.5 20
t-4.5 17.5t-7 18.5q-16 34 -45.5 54t-69.5 20t-69.5 -20t-45.5 -54q-5 -10 -7.5 -18.5t-4 -17.5t-2 -20t-1.5 -26h261z" />
    <glyph glyph-name="f" unicode="f" horiz-adv-x="314" 
d="M178 437v-437h-72v437h-63v55h63v90q0 27 7.5 51t23.5 42t39 28.5t55 10.5h52v-62h-39q-35 0 -50.5 -19t-15.5 -53v-88h105v-55h-105z" />
    <glyph glyph-name="g" unicode="g" horiz-adv-x="543" 
d="M453 -15q0 -46 -14 -84.5t-40 -66.5t-64.5 -44t-86.5 -16q-28 0 -50 3.5t-41.5 11.5t-38 20.5t-37.5 30.5l47 46q13 -12 25.5 -21t26 -15.5t29.5 -9.5t37 -3q36 0 61.5 12t42 32t24 47.5t7.5 59.5v77q-30 -38 -64 -51t-74 -13q-38 0 -68.5 12t-50.5 32q-37 37 -48.5 91
t-11.5 114t11.5 114t48.5 91q20 20 51 31.5t69 11.5q41 0 74.5 -12.5t63.5 -51.5v58h71v-507zM381 250q0 34 -4 67.5t-17 59t-37 41.5t-64 16t-64.5 -16t-37.5 -41.5t-17 -59t-4 -67.5q0 -35 4 -68t17 -58.5t37.5 -41.5t64.5 -16t64 16t37 41.5t17 58.5t4 68z" />
    <glyph glyph-name="h" unicode="h" horiz-adv-x="562" 
d="M405 0v304q0 66 -31.5 98t-88.5 32t-90 -32t-33 -98v-304h-72v712h72v-274q54 60 138 60q85 0 131 -49t46 -133v-316h-72z" />
    <glyph glyph-name="i" unicode="i" horiz-adv-x="252" 
d="M90 0v492h72v-492h-72zM86 632v81h81v-81h-81z" />
    <glyph glyph-name="j" unicode="j" horiz-adv-x="253" 
d="M162 -89q0 -28 -7.5 -52t-23 -42t-39 -28t-55.5 -10h-52v63h39q38 0 52 18t14 54v578h72v-581zM86 632v81h81v-81h-81z" />
    <glyph glyph-name="k" unicode="k" horiz-adv-x="536" 
d="M414 0l-156 252l-96 -110v-142h-72v712h72v-476l222 256h90l-167 -188l196 -304h-89z" />
    <glyph glyph-name="l" unicode="l" horiz-adv-x="294" 
d="M213 0q-65 0 -95 37.5t-30 93.5v581h72v-578q0 -36 14 -54t52 -18h39v-62h-52z" />
    <glyph glyph-name="m" unicode="m" horiz-adv-x="879" 
d="M722 0v303q0 66 -32.5 98.5t-88.5 32.5q-54 0 -88.5 -32t-34.5 -91v-311h-72v303q0 66 -32.5 98.5t-88.5 32.5t-89.5 -33t-33.5 -98v-303h-72v492h72v-54q26 30 61.5 45t77.5 15q51 0 89.5 -20.5t61.5 -61.5q58 82 162 82q40 0 72 -12t55 -34q53 -51 53 -137v-315h-72z
" />
    <glyph glyph-name="n" unicode="n" horiz-adv-x="562" 
d="M405 0v303q0 66 -32.5 98.5t-88.5 32.5t-89 -33t-33 -98v-303h-72v492h72v-54q26 30 61 45t77 15q80 0 126 -46q51 -50 51 -137v-315h-72z" />
    <glyph glyph-name="o" unicode="o" 
d="M466 246q0 -57 -11.5 -107.5t-48.5 -88.5q-26 -26 -61 -41t-80 -15t-80 15t-61 41q-19 19 -30.5 41.5t-18 47t-9 51.5t-2.5 56q0 57 11 107.5t49 88.5q26 26 61 41t80 15t80 -15t61 -41q38 -38 49 -88.5t11 -107.5zM394 246q0 42 -6 83.5t-33 68.5q-36 36 -90 36
q-53 0 -89 -36q-27 -27 -33.5 -68.5t-6.5 -83.5q0 -21 1 -42t5 -41t12 -37.5t22 -31.5q36 -36 89 -36q54 0 90 36q27 28 33 69t6 83z" />
    <glyph glyph-name="p" unicode="p" horiz-adv-x="545" 
d="M481 246q0 -60 -11.5 -115.5t-48.5 -93.5q-20 -20 -51 -31.5t-69 -11.5q-41 0 -74.5 13t-64.5 51v-278h-72v712h72v-58q31 38 64 51t75 13q38 0 69 -11.5t51 -31.5q18 -18 30 -42t18.5 -51t9 -56.5t2.5 -59.5zM409 246q0 36 -4 70t-17 60t-37.5 42t-64.5 16
q-41 0 -65 -16t-37.5 -42t-17.5 -60t-4 -70t4 -70t17.5 -60t37.5 -42t65 -16q40 0 64.5 16t37.5 42t17 60t4 70z" />
    <glyph glyph-name="q" unicode="q" horiz-adv-x="545" 
d="M383 -220v278q-31 -38 -64 -51t-75 -13q-38 0 -69 11.5t-51 31.5q-37 38 -48.5 93.5t-11.5 115.5q0 30 2.5 59.5t9 56.5t18.5 51t30 42q20 20 51 31.5t69 11.5q42 0 75.5 -13t64.5 -51v58h71v-712h-72zM383 246q0 36 -4 70t-17 60t-37.5 42t-64.5 16q-41 0 -65 -16
t-37.5 -42t-17.5 -60t-4 -70t4 -70t17.5 -60t37.5 -42t65 -16q40 0 64.5 16t37.5 42t17 60t4 70z" />
    <glyph glyph-name="r" unicode="r" horiz-adv-x="421" 
d="M365 398q-20 20 -38 28t-47 8q-27 0 -49 -10t-37 -28t-23.5 -42t-8.5 -52v-302h-72v492h72v-60q20 31 57.5 48.5t80.5 17.5q35 0 63.5 -10t54.5 -36z" />
    <glyph glyph-name="s" unicode="s" horiz-adv-x="496" 
d="M445 144q0 -71 -55 -110.5t-145 -39.5q-63 0 -112.5 16t-89.5 55l48 48q29 -30 68 -43.5t85 -13.5q62 0 96.5 21.5t34.5 65.5q0 33 -19 50.5t-63 21.5l-81 7q-72 6 -109.5 38t-37.5 94q0 34 13.5 60.5t37.5 45t57 28.5t73 10q54 0 98.5 -13t78.5 -40l-47 -47
q-26 20 -59.5 29.5t-71.5 9.5q-54 0 -82 -21.5t-28 -59.5q0 -33 21 -50t67 -22l77 -7q32 -3 59 -11t46 -23.5t29.5 -39.5t10.5 -59z" />
    <glyph glyph-name="t" unicode="t" horiz-adv-x="332" 
d="M228 0q-32 0 -55.5 10.5t-39 28.5t-23.5 42t-8 51v305h-62v55h62v151h72v-151h105v-55h-105v-303q0 -34 16 -53t51 -19h38v-62h-51z" />
    <glyph glyph-name="u" unicode="u" horiz-adv-x="562" 
d="M401 0v55q-26 -30 -61.5 -45.5t-77.5 -15.5q-81 0 -127 46q-26 26 -38 60.5t-12 77.5v314h72v-303q0 -66 32 -98.5t88 -32.5t89.5 33t33.5 98v303h72v-492h-71z" />
    <glyph glyph-name="v" unicode="v" horiz-adv-x="447" 
d="M255 0h-64l-180 492h78l134 -395l135 395h78z" />
    <glyph glyph-name="w" unicode="w" horiz-adv-x="724" 
d="M558 0h-67l-129 382l-128 -382h-67l-156 492h78l113 -395l129 395h62l130 -395l112 395h78z" />
    <glyph glyph-name="x" unicode="x" horiz-adv-x="478" 
d="M358 0l-118 191l-120 -191h-87l167 251l-160 241h87l113 -182l111 182h87l-160 -241l167 -251h-87z" />
    <glyph glyph-name="y" unicode="y" horiz-adv-x="447" 
d="M212 -119q-14 -39 -35 -58q-20 -19 -45 -26.5t-51 -7.5h-31v64h22q37 0 53 13.5t28 47.5l35 96l-177 482h78l135 -395l134 395h78z" />
    <glyph glyph-name="z" unicode="z" horiz-adv-x="459" 
d="M50 0v62l274 366h-259v64h342v-61l-275 -367h275v-64h-357z" />
    <glyph glyph-name="braceleft" unicode="{" horiz-adv-x="354" 
d="M268 -74q-38 0 -61.5 7t-39.5 23q-17 17 -23.5 38.5t-6.5 60.5v191q0 42 -18 60q-8 8 -19.5 13t-25.5 5h-26v64h26q14 0 25.5 5t19.5 13q18 18 18 60v191q0 39 6.5 60.5t23.5 38.5q16 16 39.5 23t61.5 7h37v-64h-23q-26 0 -38.5 -2.5t-20.5 -10.5t-11 -23t-3 -42v-188
q0 -43 -17 -64.5t-46 -35.5q29 -14 46 -35.5t17 -64.5v-188q0 -27 3 -42t11 -23t20.5 -10.5t38.5 -2.5h23v-64h-37z" />
    <glyph glyph-name="bar" unicode="|" horiz-adv-x="326" 
d="M127 -74v860h72v-860h-72z" />
    <glyph glyph-name="braceright" unicode="}" horiz-adv-x="354" 
d="M280 324q-14 0 -25.5 -5t-19.5 -13q-18 -18 -18 -60v-191q0 -39 -6.5 -60.5t-23.5 -38.5q-16 -16 -39.5 -23t-61.5 -7h-38v64h24q26 0 38 2.5t20 10.5t11.5 23t3.5 42v188q0 43 17 64.5t46 35.5q-29 14 -46 35.5t-17 64.5v188q0 27 -3.5 42t-11.5 23t-20 10.5t-38 2.5
h-24v64h38q38 0 61.5 -7t39.5 -23q17 -17 23.5 -38.5t6.5 -60.5v-191q0 -42 18 -60q8 -8 19.5 -13t25.5 -5h25v-64h-25z" />
    <glyph glyph-name="asciitilde" unicode="~" horiz-adv-x="539" 
d="M490 278q-21 -21 -37.5 -34.5t-31 -21t-29 -10t-31.5 -2.5q-26 0 -51.5 9t-54.5 22q-21 10 -39.5 17t-38.5 7q-11 0 -19.5 -1.5t-18 -6.5t-20.5 -13.5t-26 -23.5l-44 45q21 21 37.5 34t31 20.5t29 10.5t31.5 3q26 0 51 -9t54 -22q21 -10 39.5 -17t38.5 -7q10 0 19 1.5
t18.5 6.5t20.5 13.5t26 23.5z" />
    <glyph glyph-name="uni00A0" unicode="&#xa0;" horiz-adv-x="249" 
 />
    <glyph glyph-name="exclamdown" unicode="&#xa1;" horiz-adv-x="316" 
d="M101 -220l10 512h62l11 -512h-83zM99 408v84h86v-84h-86z" />
    <glyph glyph-name="cent" unicode="&#xa2;" horiz-adv-x="498" 
d="M448 189q-35 -38 -67.5 -54.5t-77.5 -19.5v-115h-59v117q-83 12 -132 76t-49 173t49 173t132 76v97h59v-95q45 -3 77.5 -19.5t67.5 -54.5l-49 -46q-25 28 -47.5 40.5t-52.5 14.5v-372q30 2 52.5 14.5t47.5 40.5zM248 550q-49 -9 -80 -52q-17 -24 -25 -54.5t-8 -77.5
t8 -77.5t25 -54.5q31 -43 80 -52v368z" />
    <glyph glyph-name="sterling" unicode="&#xa3;" horiz-adv-x="548" 
d="M110 0v330h-63v54h63v112q0 51 16.5 92.5t46 70t70.5 44t90 15.5q51 0 90.5 -15.5t72.5 -48.5l-52 -51q-10 10 -20 18.5t-23 15t-29.5 10t-38.5 3.5q-70 0 -108 -42.5t-38 -121.5v-102h146v-54h-146v-262h309v-68h-386z" />
    <glyph glyph-name="currency" unicode="&#xa4;" horiz-adv-x="660" 
d="M536 19l-75 74q-27 -20 -60 -32t-71 -12t-71.5 12t-60.5 32l-74 -74l-46 46l74 74q-20 27 -32 60.5t-12 71.5t12 71.5t32 60.5l-74 73l46 46l74 -73q27 20 60.5 31.5t71.5 11.5t71 -11.5t60 -31.5l75 73l46 -46l-74 -73q20 -27 32 -60.5t12 -71.5t-12 -71.5t-32 -60.5
l74 -74zM485 271q0 32 -12 60.5t-33 49.5t-49.5 33t-60.5 12t-60.5 -12t-49.5 -33t-33.5 -49.5t-12.5 -60.5t12.5 -60.5t33.5 -49.5t49.5 -33.5t60.5 -12.5t60.5 12.5t49.5 33.5t33 49.5t12 60.5z" />
    <glyph glyph-name="yen" unicode="&#xa5;" horiz-adv-x="514" 
d="M349 401h100v-54h-127l-26 -53v-52h153v-55h-153v-187h-77v187h-154v55h154v52l-26 53h-128v54h100l-157 311h82l168 -341l167 341h81z" />
    <glyph glyph-name="brokenbar" unicode="&#xa6;" horiz-adv-x="335" 
d="M127 436v350h72v-350h-72zM127 -74v350h72v-350h-72z" />
    <glyph glyph-name="section" unicode="&#xa7;" horiz-adv-x="557" 
d="M470 254q0 -31 -9 -56.5t-23.5 -46.5t-33 -36t-38.5 -25q43 -16 70 -52.5t27 -91.5q0 -39 -14.5 -71t-39 -54.5t-58 -34.5t-72.5 -12q-37 0 -70.5 10t-59 30.5t-41.5 50.5t-18 70h73q5 -47 35 -71t81 -24t81 27t30 78q0 35 -23 62.5t-65 39.5l-78 22q-66 19 -101.5 66.5
t-35.5 116.5q0 31 9 56.5t23.5 46.5t33.5 36t39 25q-43 20 -68 51.5t-25 86.5q0 36 13.5 66.5t37.5 52t57 33.5t72 12t71.5 -11t56.5 -31t38 -49.5t16 -65.5h-72q-4 50 -33 71.5t-77 21.5q-51 0 -79.5 -25t-28.5 -74q0 -40 23 -62.5t61 -33.5l78 -22q66 -19 101.5 -67
t35.5 -116zM397 253q0 29 -6.5 51t-25.5 41q-36 36 -86 36q-53 0 -86 -36q-17 -19 -25 -40t-8 -52q0 -32 9.5 -54t23.5 -38q33 -36 86 -36t86 36q15 17 23.5 38.5t8.5 53.5z" />
    <glyph glyph-name="dieresis" unicode="&#xa8;" horiz-adv-x="500" 
d="M320 602v89h72v-89h-72zM108 602v89h72v-89h-72z" />
    <glyph glyph-name="copyright" unicode="&#xa9;" horiz-adv-x="881" 
d="M802 356q0 -75 -28.5 -141t-77.5 -115t-115 -77.5t-141 -28.5t-141 28.5t-115 77.5t-77.5 115t-28.5 141t28.5 141t77.5 115t115 77.5t141 28.5t141 -28.5t115 -77.5t77.5 -115t28.5 -141zM744 356q0 63 -24 119t-65 98t-96.5 66.5t-118.5 24.5t-118 -24.5t-96.5 -66.5
t-65 -98t-23.5 -119t23.5 -119t65 -98t96.5 -66.5t118 -24.5t118.5 24.5t96.5 66.5t65 98t24 119zM576 205q-29 -26 -59 -39t-72 -13q-44 0 -77 15.5t-55.5 42.5t-34 64t-11.5 81t11.5 81.5t34 64.5t55.5 42.5t77 15.5q42 0 71 -13t60 -40l-36 -36q-25 22 -46 30.5t-49 8.5
q-34 0 -57.5 -12.5t-37.5 -33.5t-20.5 -49t-6.5 -59q0 -32 6.5 -59.5t20.5 -48.5t37.5 -33t57.5 -12q28 0 49 8t46 30z" />
    <glyph glyph-name="ordfeminine" unicode="&#xaa;" horiz-adv-x="449" 
d="M307 319v36q-23 -23 -48 -32t-63 -9q-41 0 -66 8.5t-44 27.5q-30 32 -30 79q0 52 34.5 83t100.5 31h115v36q0 42 -21.5 63t-75.5 21q-37 0 -58.5 -9.5t-39.5 -34.5l-41 37q27 35 59.5 47.5t80.5 12.5q79 0 117 -34t38 -98v-265h-58zM306 498h-107q-84 0 -84 -67
q0 -33 20.5 -49t65.5 -16q25 0 46.5 4t39.5 21q19 18 19 67v40z" />
    <glyph glyph-name="guillemotleft" unicode="&#xab;" horiz-adv-x="554" 
d="M40 268l210 210v-90l-120 -120l120 -121v-89zM266 268l210 210v-90l-121 -120l121 -121v-89z" />
    <glyph glyph-name="logicalnot" unicode="&#xac;" horiz-adv-x="522" 
d="M404 103v137h-353v67h420v-204h-67z" />
    <glyph glyph-name="uni00AD" unicode="&#xad;" horiz-adv-x="426" 
d="M76 236v67h274v-67h-274z" />
    <glyph glyph-name="registered" unicode="&#xae;" horiz-adv-x="881" 
d="M802 356q0 -75 -28.5 -141t-77.5 -115t-115 -77.5t-141 -28.5t-141 28.5t-115 77.5t-77.5 115t-28.5 141t28.5 141t77.5 115t115 77.5t141 28.5t141 -28.5t115 -77.5t77.5 -115t28.5 -141zM745 356q0 64 -24 120t-65.5 98t-97 66.5t-118.5 24.5t-118.5 -24.5t-96.5 -66.5
t-65 -98t-24 -120t24 -120t65 -98t96.5 -66.5t118.5 -24.5t118.5 24.5t97 66.5t65.5 98t24 120zM528 158l-91 162h-60v-162h-55v397h135q26 0 48.5 -9t39.5 -25t27 -38t10 -47q0 -44 -24 -71t-61 -38l95 -169h-64zM526 436q0 30 -21 50t-54 20h-74v-139h74q33 0 54 19.5
t21 49.5z" />
    <glyph glyph-name="macron" unicode="&#xaf;" horiz-adv-x="500" 
d="M99 614v56h301v-56h-301z" />
    <glyph glyph-name="degree" unicode="&#xb0;" horiz-adv-x="463" 
d="M396 557q0 -34 -13 -64t-35 -52t-52 -35t-64 -13t-64 13t-52.5 35t-35.5 52t-13 64t13 64t35.5 52t52.5 35t64 13t64 -13t52 -35t35 -52t13 -64zM335 557q0 22 -8 41.5t-22 34t-33 22.5t-41 8t-41 -8t-32.5 -22.5t-21.5 -34t-8 -41.5q0 -23 8 -42t22 -33.5t33 -22.5
t41 -8t41 8t32.5 22.5t21.5 33.5t8 42z" />
    <glyph glyph-name="plusminus" unicode="&#xb1;" horiz-adv-x="522" 
d="M295 289v-177h-67v177h-176v67h176v175h67v-175h175v-67h-175zM52 0v67h418v-67h-418z" />
    <glyph glyph-name="twosuperior" unicode="&#xb2;" horiz-adv-x="318" 
d="M41 285v52l165 202q12 15 17.5 28t5.5 30q0 30 -17 48.5t-48 18.5q-26 0 -45.5 -15t-19.5 -52h-58q0 54 34.5 86.5t88.5 32.5t88.5 -32t34.5 -87q0 -28 -9.5 -48t-29.5 -44l-138 -168h177v-52h-246z" />
    <glyph glyph-name="threesuperior" unicode="&#xb3;" horiz-adv-x="318" 
d="M293 405q0 -30 -10 -53.5t-27.5 -39t-41 -23.5t-50.5 -8q-26 0 -49 7t-41 21.5t-29 37t-12 53.5h58q2 -36 23.5 -51.5t49.5 -15.5q30 0 51 19t21 54q0 33 -18.5 52.5t-56.5 19.5h-9v51h9q34 0 51 18.5t17 48.5q0 33 -20 50.5t-46 17.5q-29 0 -47 -17t-20 -46h-57
q3 54 38 84.5t86 30.5q55 0 89 -32.5t34 -86.5q0 -35 -14 -57t-40 -34q29 -12 45 -36.5t16 -64.5z" />
    <glyph glyph-name="acute" unicode="&#xb4;" horiz-adv-x="500" 
d="M270 594h-69l91 153h83z" />
    <glyph glyph-name="mu" unicode="&#xb5;" horiz-adv-x="561" 
d="M399 0v55q-53 -61 -138 -61q-66 0 -106 37v-251h-72v712h72v-303q0 -66 32.5 -98.5t88.5 -32.5t89.5 33t33.5 98v303h72v-492h-72z" />
    <glyph glyph-name="paragraph" unicode="&#xb6;" horiz-adv-x="603" 
d="M428 -220v864h-117v-864h-72v546q-45 0 -81.5 16t-62 43t-39.5 61.5t-14 71.5q0 40 14.5 75.5t42.5 61.5t68.5 41.5t91.5 15.5h241v-932h-72z" />
    <glyph glyph-name="periodcentered" unicode="&#xb7;" horiz-adv-x="270" 
d="M88 223v94h94v-94h-94z" />
    <glyph glyph-name="cedilla" unicode="&#xb8;" horiz-adv-x="500" 
d="M254 -216h-79l71 149h67z" />
    <glyph glyph-name="onesuperior" unicode="&#xb9;" horiz-adv-x="318" 
d="M150 285v363l-83 -73v66l83 71h57v-427h-57z" />
    <glyph glyph-name="ordmasculine" unicode="&#xba;" horiz-adv-x="455" 
d="M387 515q0 -46 -9 -85.5t-39 -70.5q-20 -20 -48 -32t-64 -12t-64 12t-48 32q-30 31 -39 70.5t-9 85.5q0 45 9 85t39 71q20 20 48 32.5t64 12.5t64 -12.5t48 -32.5q30 -31 39 -71t9 -85zM328 515q0 32 -5 65t-26 54q-28 28 -70 28t-70 -28q-21 -21 -25.5 -54t-4.5 -65
t4.5 -64.5t25.5 -53.5q14 -14 32 -21.5t38 -7.5t38 7.5t32 21.5q21 21 26 53.5t5 64.5z" />
    <glyph glyph-name="guillemotright" unicode="&#xbb;" horiz-adv-x="554" 
d="M304 58v89l120 121l-120 120v90l210 -210zM78 58v89l121 121l-121 120v90l210 -210z" />
    <glyph glyph-name="onequarter" unicode="&#xbc;" horiz-adv-x="821" 
d="M150 285v363l-83 -73v66l83 71h57v-427h-57zM274 0h-60l333 712h60zM754 65v-65h-57v65h-172v52l151 310h62l-151 -310h110v105h57v-105h47v-52h-47z" />
    <glyph glyph-name="onehalf" unicode="&#xbd;" horiz-adv-x="821" 
d="M150 285v363l-83 -73v66l83 71h57v-427h-57zM274 0h-60l333 712h60zM544 0v52l165 202q12 15 17.5 28t5.5 30q0 30 -17 48.5t-48 18.5q-26 0 -45.5 -15t-19.5 -52h-58q0 54 34.5 86.5t88.5 32.5t88.5 -32t34.5 -87q0 -28 -9.5 -48t-29.5 -44l-138 -168h177v-52h-246z" />
    <glyph glyph-name="threequarters" unicode="&#xbe;" horiz-adv-x="821" 
d="M293 405q0 -30 -10 -53.5t-27.5 -39t-41 -23.5t-50.5 -8q-26 0 -49 7t-41 21.5t-29 37t-12 53.5h58q2 -36 23.5 -51.5t49.5 -15.5q30 0 51 19t21 54q0 33 -18.5 52.5t-56.5 19.5h-9v51h9q34 0 51 18.5t17 48.5q0 33 -20 50.5t-46 17.5q-29 0 -47 -17t-20 -46h-57
q3 54 38 84.5t86 30.5q55 0 89 -32.5t34 -86.5q0 -35 -14 -57t-40 -34q29 -12 45 -36.5t16 -64.5zM274 0h-60l333 712h60zM754 65v-65h-57v65h-172v52l151 310h62l-151 -310h110v105h57v-105h47v-52h-47z" />
    <glyph glyph-name="questiondown" unicode="&#xbf;" horiz-adv-x="497" 
d="M421 -43q0 -38 -14 -71.5t-39 -58.5t-59.5 -39t-74.5 -14q-39 0 -73.5 13.5t-60 38t-40 58t-14.5 73.5q0 35 13 63t33 57l82 118q9 14 13.5 30t4.5 28v40h72v-41q0 -29 -8 -50t-24 -44l-81 -116q-14 -21 -23.5 -40t-9.5 -45q0 -51 32.5 -84.5t83.5 -33.5q27 0 48 9.5
t36 26t23 37.5t8 45h72zM185 408v84h85v-84h-85z" />
    <glyph glyph-name="Agrave" unicode="&#xc0;" horiz-adv-x="611" 
d="M518 0l-57 161h-311l-57 -161h-81l262 712h64l261 -712h-81zM307 603l-134 -376h266zM285 780l-105 154h83l91 -154h-69z" />
    <glyph glyph-name="Aacute" unicode="&#xc1;" horiz-adv-x="611" 
d="M518 0l-57 161h-311l-57 -161h-81l262 712h64l261 -712h-81zM307 603l-134 -376h266zM321 780h-69l91 154h83z" />
    <glyph glyph-name="Acircumflex" unicode="&#xc2;" horiz-adv-x="611" 
d="M518 0l-57 161h-311l-57 -161h-81l262 712h64l261 -712h-81zM307 603l-134 -376h266zM393 780l-90 105l-91 -105h-69l126 153h68l125 -153h-69z" />
    <glyph glyph-name="Atilde" unicode="&#xc3;" horiz-adv-x="611" 
d="M518 0l-57 161h-311l-57 -161h-81l262 712h64l261 -712h-81zM307 603l-134 -376h266zM460 844q-17 -17 -31 -27t-25 -15t-20.5 -6.5t-18.5 -1.5q-22 0 -37.5 6t-33.5 17q-14 8 -27.5 14.5t-28.5 6.5q-13 0 -25 -5t-34 -27l-37 36q17 17 30.5 27t25 15.5t21 7t18.5 1.5
q22 0 37 -6t34 -18q16 -10 28.5 -15t27.5 -5q6 0 11.5 1t12.5 4t15.5 9.5t19.5 17.5l37 -37v0z" />
    <glyph glyph-name="Adieresis" unicode="&#xc4;" horiz-adv-x="611" 
d="M518 0l-57 161h-311l-57 -161h-81l262 712h64l261 -712h-81zM307 603l-134 -376h266zM377 789v89h72v-89h-72zM165 789v89h72v-89h-72z" />
    <glyph glyph-name="Aring" unicode="&#xc5;" horiz-adv-x="611" 
d="M518 0l-57 161h-311l-57 -161h-81l262 712h64l261 -712h-81zM307 603l-134 -376h266zM420 867q0 -24 -9.5 -46t-25.5 -38t-37.5 -25.5t-45.5 -9.5t-45.5 9.5t-37.5 25.5t-25.5 38t-9.5 46t9.5 45.5t25.5 37.5t37.5 25.5t45.5 9.5t45.5 -9t37.5 -25t25.5 -37.5t9.5 -46.5z
M371 867q0 29 -20 48.5t-49 19.5t-49 -19.5t-20 -48.5t20 -49t49 -20t49 20t20 49z" />
    <glyph glyph-name="AE" unicode="&#xc6;" horiz-adv-x="922" 
d="M426 0v169h-247l-88 -169h-83l376 712h483v-68h-366v-253h312v-68h-312v-255h366v-68h-441zM426 644l-214 -409h214v409z" />
    <glyph glyph-name="Ccedilla" unicode="&#xc7;" horiz-adv-x="637" 
d="M572 206q-19 -100 -84.5 -156t-162.5 -56q-56 0 -100.5 18.5t-77.5 51.5q-25 25 -39.5 51t-21.5 59t-8.5 77t-1.5 105t1.5 105t8.5 77t21.5 59t39.5 51q33 33 77.5 51.5t100.5 18.5q97 0 162.5 -56t84.5 -156h-78q-14 66 -58 105t-111 39q-73 0 -123 -50q-17 -17 -27 -37
t-15 -47.5t-6.5 -66t-1.5 -93.5t1.5 -93.5t6.5 -66t15 -47.5t27 -37q50 -50 123 -50q67 0 112 39t59 105h76zM311 -216h-79l71 149h67z" />
    <glyph glyph-name="Egrave" unicode="&#xc8;" horiz-adv-x="600" 
d="M103 0v712h442v-68h-366v-251h312v-68h-312v-257h366v-68h-442zM296 780l-105 154h83l91 -154h-69z" />
    <glyph glyph-name="Eacute" unicode="&#xc9;" horiz-adv-x="600" 
d="M103 0v712h442v-68h-366v-251h312v-68h-312v-257h366v-68h-442zM332 780h-69l91 154h83z" />
    <glyph glyph-name="Ecircumflex" unicode="&#xca;" horiz-adv-x="600" 
d="M103 0v712h442v-68h-366v-251h312v-68h-312v-257h366v-68h-442zM404 780l-90 105l-91 -105h-69l126 153h68l125 -153h-69z" />
    <glyph glyph-name="Edieresis" unicode="&#xcb;" horiz-adv-x="600" 
d="M103 0v712h442v-68h-366v-251h312v-68h-312v-257h366v-68h-442zM384 789v89h72v-89h-72zM172 789v89h72v-89h-72z" />
    <glyph glyph-name="Igrave" unicode="&#xcc;" horiz-adv-x="282" 
d="M103 0v712h76v-712h-76zM113 780l-105 154h83l91 -154h-69z" />
    <glyph glyph-name="Iacute" unicode="&#xcd;" horiz-adv-x="282" 
d="M103 0v712h76v-712h-76zM171 780h-69l91 154h83z" />
    <glyph glyph-name="Icircumflex" unicode="&#xce;" horiz-adv-x="282" 
d="M103 0v712h76v-712h-76zM231 780l-90 105l-91 -105h-69l126 153h68l125 -153h-69z" />
    <glyph glyph-name="Idieresis" unicode="&#xcf;" horiz-adv-x="282" 
d="M103 0v712h76v-712h-76zM212 789v89h72v-89h-72zM0 789v89h72v-89h-72z" />
    <glyph glyph-name="Eth" unicode="&#xd0;" horiz-adv-x="687" 
d="M611 356q0 -41 -1.5 -80.5t-7.5 -75.5t-18.5 -68t-35.5 -57q-36 -39 -81.5 -57t-105.5 -18h-244v330h-78v59h78v323h244q60 0 105.5 -18t81.5 -57q24 -26 36.5 -57.5t18.5 -67.5t7 -75.5t1 -80.5zM535 356q0 37 -1 71.5t-5.5 65t-14 56t-26.5 43.5q-27 30 -63 41t-77 11
h-155v-255h162v-59h-162v-262h155q41 0 77 11t63 41q17 18 26.5 43.5t14 56t5.5 65t1 71.5z" />
    <glyph glyph-name="Ntilde" unicode="&#xd1;" horiz-adv-x="732" 
d="M557 0l-378 571v-571h-76v712h72l378 -569v569h76v-712h-72zM523 844q-17 -17 -31 -27t-25 -15t-20.5 -6.5t-18.5 -1.5q-22 0 -37.5 6t-33.5 17q-14 8 -27.5 14.5t-28.5 6.5q-13 0 -25 -5t-34 -27l-37 36q17 17 30.5 27t25 15.5t21 7t18.5 1.5q22 0 37 -6t34 -18
q16 -10 28.5 -15t27.5 -5q6 0 11.5 1t12.5 4t15.5 9.5t19.5 17.5l37 -37v0z" />
    <glyph glyph-name="Ograve" unicode="&#xd2;" horiz-adv-x="650" 
d="M574 356q0 -61 -2 -105t-9 -77t-21.5 -59t-39.5 -51q-33 -33 -77 -51.5t-100 -18.5t-100.5 18.5t-77.5 51.5q-25 25 -39.5 51t-21.5 59t-8.5 77t-1.5 105t1.5 105t8.5 77t21.5 59t39.5 51q33 33 77.5 51.5t100.5 18.5t100 -18.5t77 -51.5q25 -25 39.5 -51t21.5 -59t9 -77
t2 -105zM498 356q0 55 -1.5 93.5t-6.5 66t-15 47.5t-27 37q-50 50 -123 50t-123 -50q-17 -17 -27 -37t-15 -47.5t-6.5 -66t-1.5 -93.5t1.5 -93.5t6.5 -66t15 -47.5t27 -37q50 -50 123 -50t123 50q17 17 27 37t15 47.5t6.5 66t1.5 93.5zM307 780l-105 154h83l91 -154h-69z
" />
    <glyph glyph-name="Oacute" unicode="&#xd3;" horiz-adv-x="650" 
d="M574 356q0 -61 -2 -105t-9 -77t-21.5 -59t-39.5 -51q-33 -33 -77 -51.5t-100 -18.5t-100.5 18.5t-77.5 51.5q-25 25 -39.5 51t-21.5 59t-8.5 77t-1.5 105t1.5 105t8.5 77t21.5 59t39.5 51q33 33 77.5 51.5t100.5 18.5t100 -18.5t77 -51.5q25 -25 39.5 -51t21.5 -59t9 -77
t2 -105zM498 356q0 55 -1.5 93.5t-6.5 66t-15 47.5t-27 37q-50 50 -123 50t-123 -50q-17 -17 -27 -37t-15 -47.5t-6.5 -66t-1.5 -93.5t1.5 -93.5t6.5 -66t15 -47.5t27 -37q50 -50 123 -50t123 50q17 17 27 37t15 47.5t6.5 66t1.5 93.5zM343 780h-69l91 154h83z" />
    <glyph glyph-name="Ocircumflex" unicode="&#xd4;" horiz-adv-x="650" 
d="M574 356q0 -61 -2 -105t-9 -77t-21.5 -59t-39.5 -51q-33 -33 -77 -51.5t-100 -18.5t-100.5 18.5t-77.5 51.5q-25 25 -39.5 51t-21.5 59t-8.5 77t-1.5 105t1.5 105t8.5 77t21.5 59t39.5 51q33 33 77.5 51.5t100.5 18.5t100 -18.5t77 -51.5q25 -25 39.5 -51t21.5 -59t9 -77
t2 -105zM498 356q0 55 -1.5 93.5t-6.5 66t-15 47.5t-27 37q-50 50 -123 50t-123 -50q-17 -17 -27 -37t-15 -47.5t-6.5 -66t-1.5 -93.5t1.5 -93.5t6.5 -66t15 -47.5t27 -37q50 -50 123 -50t123 50q17 17 27 37t15 47.5t6.5 66t1.5 93.5zM415 780l-90 105l-91 -105h-69
l126 153h68l125 -153h-69z" />
    <glyph glyph-name="Otilde" unicode="&#xd5;" horiz-adv-x="650" 
d="M574 356q0 -61 -2 -105t-9 -77t-21.5 -59t-39.5 -51q-33 -33 -77 -51.5t-100 -18.5t-100.5 18.5t-77.5 51.5q-25 25 -39.5 51t-21.5 59t-8.5 77t-1.5 105t1.5 105t8.5 77t21.5 59t39.5 51q33 33 77.5 51.5t100.5 18.5t100 -18.5t77 -51.5q25 -25 39.5 -51t21.5 -59t9 -77
t2 -105zM498 356q0 55 -1.5 93.5t-6.5 66t-15 47.5t-27 37q-50 50 -123 50t-123 -50q-17 -17 -27 -37t-15 -47.5t-6.5 -66t-1.5 -93.5t1.5 -93.5t6.5 -66t15 -47.5t27 -37q50 -50 123 -50t123 50q17 17 27 37t15 47.5t6.5 66t1.5 93.5zM482 844q-17 -17 -31 -27t-25 -15
t-20.5 -6.5t-18.5 -1.5q-22 0 -37.5 6t-33.5 17q-14 8 -27.5 14.5t-28.5 6.5q-13 0 -25 -5t-34 -27l-37 36q17 17 30.5 27t25 15.5t21 7t18.5 1.5q22 0 37 -6t34 -18q16 -10 28.5 -15t27.5 -5q6 0 11.5 1t12.5 4t15.5 9.5t19.5 17.5l37 -37v0z" />
    <glyph glyph-name="Odieresis" unicode="&#xd6;" horiz-adv-x="650" 
d="M574 356q0 -61 -2 -105t-9 -77t-21.5 -59t-39.5 -51q-33 -33 -77 -51.5t-100 -18.5t-100.5 18.5t-77.5 51.5q-25 25 -39.5 51t-21.5 59t-8.5 77t-1.5 105t1.5 105t8.5 77t21.5 59t39.5 51q33 33 77.5 51.5t100.5 18.5t100 -18.5t77 -51.5q25 -25 39.5 -51t21.5 -59t9 -77
t2 -105zM498 356q0 55 -1.5 93.5t-6.5 66t-15 47.5t-27 37q-50 50 -123 50t-123 -50q-17 -17 -27 -37t-15 -47.5t-6.5 -66t-1.5 -93.5t1.5 -93.5t6.5 -66t15 -47.5t27 -37q50 -50 123 -50t123 50q17 17 27 37t15 47.5t6.5 66t1.5 93.5zM395 789v89h72v-89h-72zM183 789v89
h72v-89h-72z" />
    <glyph glyph-name="multiply" unicode="&#xd7;" horiz-adv-x="522" 
d="M412 74l-151 151l-151 -151l-45 45l151 151l-151 151l45 45l151 -152l151 152l45 -45l-152 -151l152 -151z" />
    <glyph glyph-name="Oslash" unicode="&#xd8;" horiz-adv-x="650" 
d="M574 356q0 -61 -1.5 -104.5t-8.5 -76.5t-21.5 -59t-40.5 -52q-33 -33 -77 -51.5t-100 -18.5q-37 0 -68 8t-58 23l-33 -69h-65l50 104q-27 26 -42 52t-22.5 59.5t-9 78t-1.5 106.5q0 61 1.5 105t8.5 77t21.5 59t39.5 51q33 33 77.5 51.5t100.5 18.5q74 0 125 -31l34 69h65
l-50 -105q27 -26 42 -52.5t22.5 -60t9 -77.5t1.5 -105zM152 356q0 -48 1 -83t5 -61.5t10.5 -46t18.5 -35.5l234 492q-40 28 -96 28q-36 0 -67.5 -12.5t-55.5 -37.5q-17 -17 -27 -37t-15 -47.5t-6.5 -66t-1.5 -93.5zM498 356q0 48 -1 83t-5 61.5t-10.5 46t-18.5 35.5
l-234 -492q42 -28 96 -28q73 0 123 50q17 17 27 37t15 47.5t6.5 66t1.5 93.5z" />
    <glyph glyph-name="Ugrave" unicode="&#xd9;" horiz-adv-x="683" 
d="M590 235q0 -53 -18.5 -97.5t-52 -76.5t-79 -49.5t-99.5 -17.5t-99.5 17.5t-78.5 49.5t-51.5 76.5t-18.5 97.5v477h76v-471q0 -41 12 -74t34.5 -56t54.5 -36t71 -13t71 13t54.5 36t35 56t12.5 74v471h76v-477zM323 780l-105 154h83l91 -154h-69z" />
    <glyph glyph-name="Uacute" unicode="&#xda;" horiz-adv-x="683" 
d="M590 235q0 -53 -18.5 -97.5t-52 -76.5t-79 -49.5t-99.5 -17.5t-99.5 17.5t-78.5 49.5t-51.5 76.5t-18.5 97.5v477h76v-471q0 -41 12 -74t34.5 -56t54.5 -36t71 -13t71 13t54.5 36t35 56t12.5 74v471h76v-477zM359 780h-69l91 154h83z" />
    <glyph glyph-name="Ucircumflex" unicode="&#xdb;" horiz-adv-x="683" 
d="M590 235q0 -53 -18.5 -97.5t-52 -76.5t-79 -49.5t-99.5 -17.5t-99.5 17.5t-78.5 49.5t-51.5 76.5t-18.5 97.5v477h76v-471q0 -41 12 -74t34.5 -56t54.5 -36t71 -13t71 13t54.5 36t35 56t12.5 74v471h76v-477zM431 780l-90 105l-91 -105h-69l126 153h68l125 -153h-69z" />
    <glyph glyph-name="Udieresis" unicode="&#xdc;" horiz-adv-x="683" 
d="M590 235q0 -53 -18.5 -97.5t-52 -76.5t-79 -49.5t-99.5 -17.5t-99.5 17.5t-78.5 49.5t-51.5 76.5t-18.5 97.5v477h76v-471q0 -41 12 -74t34.5 -56t54.5 -36t71 -13t71 13t54.5 36t35 56t12.5 74v471h76v-477zM411 789v89h72v-89h-72zM199 789v89h72v-89h-72z" />
    <glyph glyph-name="Yacute" unicode="&#xdd;" horiz-adv-x="514" 
d="M296 294v-294h-76v294l-212 418h82l168 -341l166 341h82zM276 780h-69l91 154h83z" />
    <glyph glyph-name="Thorn" unicode="&#xde;" horiz-adv-x="642" 
d="M588 359q0 -48 -16 -86.5t-45 -66t-69.5 -42t-89.5 -14.5h-189v-150h-76v712h76v-143h189q49 0 89.5 -15t69.5 -42t45 -66t16 -87zM512 359q0 71 -42 106t-109 35h-182v-282h182q67 0 109 35t42 106z" />
    <glyph glyph-name="germandbls" unicode="&#xdf;" horiz-adv-x="556" 
d="M484 141q0 -68 -39 -105q-21 -19 -44.5 -27.5t-58.5 -8.5h-54v62h40q21 0 33.5 5t25.5 15q25 21 25 67v169q0 22 -4.5 36.5t-16.5 25.5q-21 21 -59 21h-44v60h36q40 0 64 24.5t24 66.5q0 22 -7.5 41.5t-23.5 33.5q-31 29 -94 29q-34 0 -57.5 -10t-38.5 -27.5t-21.5 -42.5
t-6.5 -55v-521h-73v524q0 95 54 145t147 50q40 0 75 -10t61.5 -30t41.5 -51.5t15 -74.5q0 -42 -17 -71t-46 -48q36 -18 49.5 -45t13.5 -75v-173z" />
    <glyph glyph-name="agrave" unicode="&#xe0;" horiz-adv-x="526" 
d="M369 0v47q-29 -29 -61 -41t-81 -12q-51 0 -82 10t-57 35q-19 18 -28 44.5t-9 55.5q0 66 44 104t127 38h147v47q0 54 -28.5 81t-97.5 27q-47 0 -74 -13t-50 -44l-49 45q32 43 72.5 58.5t101.5 15.5q100 0 148.5 -42t48.5 -122v-334h-72zM369 227h-137q-111 0 -111 -87
q0 -43 27 -63.5t87 -20.5q31 0 58 5.5t51 27.5q25 24 25 85v53zM234 594l-105 153h83l91 -153h-69z" />
    <glyph glyph-name="aacute" unicode="&#xe1;" horiz-adv-x="526" 
d="M369 0v47q-29 -29 -61 -41t-81 -12q-51 0 -82 10t-57 35q-19 18 -28 44.5t-9 55.5q0 66 44 104t127 38h147v47q0 54 -28.5 81t-97.5 27q-47 0 -74 -13t-50 -44l-49 45q32 43 72.5 58.5t101.5 15.5q100 0 148.5 -42t48.5 -122v-334h-72zM369 227h-137q-111 0 -111 -87
q0 -43 27 -63.5t87 -20.5q31 0 58 5.5t51 27.5q25 24 25 85v53zM272 594h-69l91 153h83z" />
    <glyph glyph-name="acircumflex" unicode="&#xe2;" horiz-adv-x="526" 
d="M369 0v47q-29 -29 -61 -41t-81 -12q-51 0 -82 10t-57 35q-19 18 -28 44.5t-9 55.5q0 66 44 104t127 38h147v47q0 54 -28.5 81t-97.5 27q-47 0 -74 -13t-50 -44l-49 45q32 43 72.5 58.5t101.5 15.5q100 0 148.5 -42t48.5 -122v-334h-72zM369 227h-137q-111 0 -111 -87
q0 -43 27 -63.5t87 -20.5q31 0 58 5.5t51 27.5q25 24 25 85v53zM344 594l-91 104l-90 -104h-69l125 153h68l126 -153h-69z" />
    <glyph glyph-name="atilde" unicode="&#xe3;" horiz-adv-x="526" 
d="M369 0v47q-29 -29 -61 -41t-81 -12q-51 0 -82 10t-57 35q-19 18 -28 44.5t-9 55.5q0 66 44 104t127 38h147v47q0 54 -28.5 81t-97.5 27q-47 0 -74 -13t-50 -44l-49 45q32 43 72.5 58.5t101.5 15.5q100 0 148.5 -42t48.5 -122v-334h-72zM369 227h-137q-111 0 -111 -87
q0 -43 27 -63.5t87 -20.5q31 0 58 5.5t51 27.5q25 24 25 85v53zM410 658q-17 -17 -30.5 -27.5t-25 -15.5t-21 -6.5t-18.5 -1.5q-21 0 -37 6.5t-34 17.5q-14 8 -27.5 14t-28.5 6q-13 0 -25 -5t-34 -27l-37 36q17 17 30.5 27t25 15.5t21 7t18.5 1.5q22 0 37 -6t34 -18
q16 -9 28.5 -14.5t27.5 -5.5q6 0 11.5 1t12.5 4t15.5 9.5t19.5 17.5l37 -36v0z" />
    <glyph glyph-name="adieresis" unicode="&#xe4;" horiz-adv-x="526" 
d="M369 0v47q-29 -29 -61 -41t-81 -12q-51 0 -82 10t-57 35q-19 18 -28 44.5t-9 55.5q0 66 44 104t127 38h147v47q0 54 -28.5 81t-97.5 27q-47 0 -74 -13t-50 -44l-49 45q32 43 72.5 58.5t101.5 15.5q100 0 148.5 -42t48.5 -122v-334h-72zM369 227h-137q-111 0 -111 -87
q0 -43 27 -63.5t87 -20.5q31 0 58 5.5t51 27.5q25 24 25 85v53zM323 602v89h72v-89h-72zM111 602v89h72v-89h-72z" />
    <glyph glyph-name="aring" unicode="&#xe5;" horiz-adv-x="526" 
d="M369 0v47q-29 -29 -61 -41t-81 -12q-51 0 -82 10t-57 35q-19 18 -28 44.5t-9 55.5q0 66 44 104t127 38h147v47q0 54 -28.5 81t-97.5 27q-47 0 -74 -13t-50 -44l-49 45q32 43 72.5 58.5t101.5 15.5q100 0 148.5 -42t48.5 -122v-334h-72zM369 227h-137q-111 0 -111 -87
q0 -43 27 -63.5t87 -20.5q31 0 58 5.5t51 27.5q25 24 25 85v53zM370 687q0 -24 -9.5 -46t-25.5 -38t-37.5 -25.5t-45.5 -9.5t-45.5 9.5t-37.5 25.5t-25.5 38t-9.5 46t9.5 45.5t25.5 37.5t37.5 25.5t45.5 9.5t45.5 -9t37.5 -25t25.5 -37.5t9.5 -46.5zM321 687q0 29 -20 48.5
t-49 19.5t-49 -19.5t-20 -48.5t20 -49t49 -20t49 20t20 49z" />
    <glyph glyph-name="ae" unicode="&#xe6;" horiz-adv-x="835" 
d="M440 227q0 -81 37 -125.5t109 -44.5q43 0 71 13.5t57 42.5l50 -43q-19 -19 -38 -33t-40.5 -23.5t-47 -14.5t-56.5 -5q-59 0 -103 20.5t-72 64.5q-33 -48 -74.5 -66.5t-105.5 -18.5q-49 0 -81 9.5t-58 35.5q-19 18 -28 44.5t-9 55.5q0 66 44 104t127 38h147v47
q0 54 -28.5 81t-97.5 27q-47 0 -74 -13t-50 -44l-49 45q32 43 72.5 58.5t101.5 15.5q132 0 173 -77q51 77 154 77q96 0 149 -63.5t53 -175.5v-32h-333zM232 227q-111 0 -111 -87q0 -43 27 -63.5t87 -20.5q31 0 58 5.5t51 27.5q25 24 25 85v53h-137zM701 281q-1 15 -2 26
t-2.5 20t-4 17.5t-6.5 18.5q-14 35 -45 54.5t-70 19.5q-40 0 -70.5 -19.5t-44.5 -54.5q-4 -11 -6.5 -19t-4.5 -17t-3 -20t-2 -26h261z" />
    <glyph glyph-name="ccedilla" unicode="&#xe7;" horiz-adv-x="490" 
d="M443 67q-38 -41 -74.5 -57t-87.5 -16q-47 0 -86.5 15.5t-69 47t-46 79t-16.5 110.5t16.5 110t46 78.5t69 47.5t86.5 16q51 0 87.5 -16t74.5 -57l-49 -46q-28 31 -53 43t-60 12q-36 0 -65 -14t-49 -42q-17 -24 -24.5 -54.5t-7.5 -77.5t7.5 -77.5t24.5 -54.5q20 -28 49 -42
t65 -14q35 0 60 12.5t53 43.5zM254 -216h-79l71 149h67z" />
    <glyph glyph-name="egrave" unicode="&#xe8;" 
d="M135 227q0 -81 36.5 -125.5t108.5 -44.5q43 0 71.5 13.5t57.5 42.5l49 -43q-19 -19 -37.5 -33t-40 -23.5t-46.5 -14.5t-56 -5q-49 0 -89 15t-68 46t-43 78.5t-15 112.5q0 121 54 186.5t148 65.5q97 0 149.5 -63.5t52.5 -175.5v-32h-332zM396 281q-1 15 -2 26t-2.5 20
t-4.5 17.5t-7 18.5q-16 34 -45.5 54t-69.5 20t-69.5 -20t-45.5 -54q-5 -10 -7.5 -18.5t-4 -17.5t-2 -20t-1.5 -26h261zM249 594l-105 153h83l91 -153h-69z" />
    <glyph glyph-name="eacute" unicode="&#xe9;" 
d="M135 227q0 -81 36.5 -125.5t108.5 -44.5q43 0 71.5 13.5t57.5 42.5l49 -43q-19 -19 -37.5 -33t-40 -23.5t-46.5 -14.5t-56 -5q-49 0 -89 15t-68 46t-43 78.5t-15 112.5q0 121 54 186.5t148 65.5q97 0 149.5 -63.5t52.5 -175.5v-32h-332zM396 281q-1 15 -2 26t-2.5 20
t-4.5 17.5t-7 18.5q-16 34 -45.5 54t-69.5 20t-69.5 -20t-45.5 -54q-5 -10 -7.5 -18.5t-4 -17.5t-2 -20t-1.5 -26h261zM287 594h-69l91 153h83z" />
    <glyph glyph-name="ecircumflex" unicode="&#xea;" 
d="M135 227q0 -81 36.5 -125.5t108.5 -44.5q43 0 71.5 13.5t57.5 42.5l49 -43q-19 -19 -37.5 -33t-40 -23.5t-46.5 -14.5t-56 -5q-49 0 -89 15t-68 46t-43 78.5t-15 112.5q0 121 54 186.5t148 65.5q97 0 149.5 -63.5t52.5 -175.5v-32h-332zM396 281q-1 15 -2 26t-2.5 20
t-4.5 17.5t-7 18.5q-16 34 -45.5 54t-69.5 20t-69.5 -20t-45.5 -54q-5 -10 -7.5 -18.5t-4 -17.5t-2 -20t-1.5 -26h261zM359 594l-91 104l-90 -104h-69l125 153h68l126 -153h-69z" />
    <glyph glyph-name="edieresis" unicode="&#xeb;" 
d="M135 227q0 -81 36.5 -125.5t108.5 -44.5q43 0 71.5 13.5t57.5 42.5l49 -43q-19 -19 -37.5 -33t-40 -23.5t-46.5 -14.5t-56 -5q-49 0 -89 15t-68 46t-43 78.5t-15 112.5q0 121 54 186.5t148 65.5q97 0 149.5 -63.5t52.5 -175.5v-32h-332zM396 281q-1 15 -2 26t-2.5 20
t-4.5 17.5t-7 18.5q-16 34 -45.5 54t-69.5 20t-69.5 -20t-45.5 -54q-5 -10 -7.5 -18.5t-4 -17.5t-2 -20t-1.5 -26h261zM337 602v89h72v-89h-72zM125 602v89h72v-89h-72z" />
    <glyph glyph-name="igrave" unicode="&#xec;" horiz-adv-x="252" 
d="M90 0v492h72v-492h-72zM96 594l-105 153h83l91 -153h-69z" />
    <glyph glyph-name="iacute" unicode="&#xed;" horiz-adv-x="252" 
d="M90 0v492h72v-492h-72zM159 594h-69l91 153h83z" />
    <glyph glyph-name="icircumflex" unicode="&#xee;" horiz-adv-x="252" 
d="M90 0v492h72v-492h-72zM221 594l-91 104l-90 -104h-69l125 153h68l126 -153h-69z" />
    <glyph glyph-name="idieresis" unicode="&#xef;" horiz-adv-x="252" 
d="M90 0v492h72v-492h-72zM198 602v89h72v-89h-72zM-14 602v89h72v-89h-72z" />
    <glyph glyph-name="eth" unicode="&#xf0;" 
d="M465 244q0 -57 -11 -107t-49 -88q-25 -26 -60 -40.5t-80 -14.5t-80 14.5t-60 40.5q-38 38 -48.5 88t-10.5 107t10.5 107t48.5 88q23 24 57 38t79 14q18 0 32.5 -2t28.5 -8l-58 99h-116v52h88l-47 82h75l47 -82h82v-52h-54l63 -111q20 -35 32.5 -62t19 -52.5t9 -51.5
t2.5 -59zM393 244q0 21 -1 42t-5 40.5t-12 37t-21 31.5q-36 36 -89 36q-52 0 -88 -36q-14 -14 -21.5 -31.5t-11.5 -37t-5 -40.5t-1 -42q0 -42 6 -82.5t33 -67.5q36 -36 88 -36q53 0 89 36q27 27 33 67.5t6 82.5z" />
    <glyph glyph-name="ntilde" unicode="&#xf1;" horiz-adv-x="562" 
d="M405 0v303q0 66 -32.5 98.5t-88.5 32.5t-89 -33t-33 -98v-303h-72v492h72v-54q26 30 61 45t77 15q80 0 126 -46q51 -50 51 -137v-315h-72zM442 658q-17 -17 -30.5 -27.5t-25 -15.5t-21 -6.5t-18.5 -1.5q-21 0 -37 6.5t-34 17.5q-14 8 -27.5 14t-28.5 6q-13 0 -25 -5
t-34 -27l-37 36q17 17 30.5 27t25 15.5t21 7t18.5 1.5q22 0 37 -6t34 -18q16 -9 28.5 -14.5t27.5 -5.5q6 0 11.5 1t12.5 4t15.5 9.5t19.5 17.5l37 -36v0z" />
    <glyph glyph-name="ograve" unicode="&#xf2;" 
d="M466 246q0 -57 -11.5 -107.5t-48.5 -88.5q-26 -26 -61 -41t-80 -15t-80 15t-61 41q-19 19 -30.5 41.5t-18 47t-9 51.5t-2.5 56q0 57 11 107.5t49 88.5q26 26 61 41t80 15t80 -15t61 -41q38 -38 49 -88.5t11 -107.5zM394 246q0 42 -6 83.5t-33 68.5q-36 36 -90 36
q-53 0 -89 -36q-27 -27 -33.5 -68.5t-6.5 -83.5q0 -21 1 -42t5 -41t12 -37.5t22 -31.5q36 -36 89 -36q54 0 90 36q27 28 33 69t6 83zM236 594l-105 153h83l91 -153h-69z" />
    <glyph glyph-name="oacute" unicode="&#xf3;" 
d="M466 246q0 -57 -11.5 -107.5t-48.5 -88.5q-26 -26 -61 -41t-80 -15t-80 15t-61 41q-19 19 -30.5 41.5t-18 47t-9 51.5t-2.5 56q0 57 11 107.5t49 88.5q26 26 61 41t80 15t80 -15t61 -41q38 -38 49 -88.5t11 -107.5zM394 246q0 42 -6 83.5t-33 68.5q-36 36 -90 36
q-53 0 -89 -36q-27 -27 -33.5 -68.5t-6.5 -83.5q0 -21 1 -42t5 -41t12 -37.5t22 -31.5q36 -36 89 -36q54 0 90 36q27 28 33 69t6 83zM284 594h-69l91 153h83z" />
    <glyph glyph-name="ocircumflex" unicode="&#xf4;" 
d="M466 246q0 -57 -11.5 -107.5t-48.5 -88.5q-26 -26 -61 -41t-80 -15t-80 15t-61 41q-19 19 -30.5 41.5t-18 47t-9 51.5t-2.5 56q0 57 11 107.5t49 88.5q26 26 61 41t80 15t80 -15t61 -41q38 -38 49 -88.5t11 -107.5zM394 246q0 42 -6 83.5t-33 68.5q-36 36 -90 36
q-53 0 -89 -36q-27 -27 -33.5 -68.5t-6.5 -83.5q0 -21 1 -42t5 -41t12 -37.5t22 -31.5q36 -36 89 -36q54 0 90 36q27 28 33 69t6 83zM356 594l-91 104l-90 -104h-69l125 153h68l126 -153h-69z" />
    <glyph glyph-name="otilde" unicode="&#xf5;" 
d="M466 246q0 -57 -11.5 -107.5t-48.5 -88.5q-26 -26 -61 -41t-80 -15t-80 15t-61 41q-19 19 -30.5 41.5t-18 47t-9 51.5t-2.5 56q0 57 11 107.5t49 88.5q26 26 61 41t80 15t80 -15t61 -41q38 -38 49 -88.5t11 -107.5zM394 246q0 42 -6 83.5t-33 68.5q-36 36 -90 36
q-53 0 -89 -36q-27 -27 -33.5 -68.5t-6.5 -83.5q0 -21 1 -42t5 -41t12 -37.5t22 -31.5q36 -36 89 -36q54 0 90 36q27 28 33 69t6 83zM422 658q-17 -17 -30.5 -27.5t-25 -15.5t-21 -6.5t-18.5 -1.5q-21 0 -37 6.5t-34 17.5q-14 8 -27.5 14t-28.5 6q-13 0 -25 -5t-34 -27
l-37 36q17 17 30.5 27t25 15.5t21 7t18.5 1.5q22 0 37 -6t34 -18q16 -9 28.5 -14.5t27.5 -5.5q6 0 11.5 1t12.5 4t15.5 9.5t19.5 17.5l37 -36v0z" />
    <glyph glyph-name="odieresis" unicode="&#xf6;" 
d="M466 246q0 -57 -11.5 -107.5t-48.5 -88.5q-26 -26 -61 -41t-80 -15t-80 15t-61 41q-19 19 -30.5 41.5t-18 47t-9 51.5t-2.5 56q0 57 11 107.5t49 88.5q26 26 61 41t80 15t80 -15t61 -41q38 -38 49 -88.5t11 -107.5zM394 246q0 42 -6 83.5t-33 68.5q-36 36 -90 36
q-53 0 -89 -36q-27 -27 -33.5 -68.5t-6.5 -83.5q0 -21 1 -42t5 -41t12 -37.5t22 -31.5q36 -36 89 -36q54 0 90 36q27 28 33 69t6 83zM335 602v89h72v-89h-72zM123 602v89h72v-89h-72z" />
    <glyph glyph-name="divide" unicode="&#xf7;" horiz-adv-x="522" 
d="M51 236v67h420v-67h-420zM218 49v86h86v-86h-86zM218 404v86h86v-86h-86z" />
    <glyph glyph-name="oslash" unicode="&#xf8;" 
d="M466 246q0 -57 -11.5 -107.5t-48.5 -88.5q-26 -26 -61 -41t-80 -15q-31 0 -57 7t-48 20l-38 -65h-57l57 96q-36 38 -47 87.5t-11 106.5q0 28 2.5 55.5t9 52t18 47t30.5 41.5q26 26 61 41t80 15q31 0 57 -7t48 -20l39 65h56l-57 -96q36 -38 47 -87.5t11 -106.5zM394 246
q0 35 -3.5 70.5t-20.5 62.5l-177 -299q31 -22 72 -22q54 0 90 36q13 13 21 31t12 38t5 41t1 42zM337 413q-30 21 -72 21q-53 0 -89 -36q-14 -14 -21.5 -31.5t-12 -37.5t-5.5 -41t-1 -42q0 -35 4 -70.5t21 -62.5z" />
    <glyph glyph-name="ugrave" unicode="&#xf9;" horiz-adv-x="562" 
d="M401 0v55q-26 -30 -61.5 -45.5t-77.5 -15.5q-81 0 -127 46q-26 26 -38 60.5t-12 77.5v314h72v-303q0 -66 32 -98.5t88 -32.5t89.5 33t33.5 98v303h72v-492h-71zM259 594l-105 153h83l91 -153h-69z" />
    <glyph glyph-name="uacute" unicode="&#xfa;" horiz-adv-x="562" 
d="M401 0v55q-26 -30 -61.5 -45.5t-77.5 -15.5q-81 0 -127 46q-26 26 -38 60.5t-12 77.5v314h72v-303q0 -66 32 -98.5t88 -32.5t89.5 33t33.5 98v303h72v-492h-71zM297 594h-69l91 153h83z" />
    <glyph glyph-name="ucircumflex" unicode="&#xfb;" horiz-adv-x="562" 
d="M401 0v55q-26 -30 -61.5 -45.5t-77.5 -15.5q-81 0 -127 46q-26 26 -38 60.5t-12 77.5v314h72v-303q0 -66 32 -98.5t88 -32.5t89.5 33t33.5 98v303h72v-492h-71zM369 594l-91 104l-90 -104h-69l125 153h68l126 -153h-69z" />
    <glyph glyph-name="udieresis" unicode="&#xfc;" horiz-adv-x="562" 
d="M401 0v55q-26 -30 -61.5 -45.5t-77.5 -15.5q-81 0 -127 46q-26 26 -38 60.5t-12 77.5v314h72v-303q0 -66 32 -98.5t88 -32.5t89.5 33t33.5 98v303h72v-492h-71zM347 602v89h72v-89h-72zM135 602v89h72v-89h-72z" />
    <glyph glyph-name="yacute" unicode="&#xfd;" horiz-adv-x="447" 
d="M212 -119q-14 -39 -35 -58q-20 -19 -45 -26.5t-51 -7.5h-31v64h22q37 0 53 13.5t28 47.5l35 96l-177 482h78l135 -395l134 395h78zM244 594h-69l91 153h83z" />
    <glyph glyph-name="thorn" unicode="&#xfe;" horiz-adv-x="546" 
d="M481 246q0 -60 -11.5 -115.5t-48.5 -93.5q-20 -20 -51 -31.5t-69 -11.5q-41 0 -74.5 13t-64.5 51v-278h-72v932h72v-277q31 38 64.5 50.5t74.5 12.5q38 0 69 -11.5t51 -31.5q18 -18 30 -42t18.5 -51t9 -56.5t2.5 -59.5zM409 246q0 36 -4 70t-17 60t-37.5 42t-64.5 16
q-41 0 -65 -16t-37.5 -42t-17.5 -60t-4 -70t4 -70t17.5 -60t37.5 -42t65 -16q40 0 64.5 16t37.5 42t17 60t4 70z" />
    <glyph glyph-name="ydieresis" unicode="&#xff;" horiz-adv-x="447" 
d="M212 -119q-14 -39 -35 -58q-20 -19 -45 -26.5t-51 -7.5h-31v64h22q37 0 53 13.5t28 47.5l35 96l-177 482h78l135 -395l134 395h78zM295 602v89h72v-89h-72zM83 602v89h72v-89h-72z" />
    <glyph glyph-name="Amacron" unicode="&#x100;" horiz-adv-x="611" 
d="M518 0l-57 161h-311l-57 -161h-81l262 712h64l261 -712h-81zM307 603l-134 -376h266zM154 855h301v-57h-301v57z" />
    <glyph glyph-name="amacron" unicode="&#x101;" horiz-adv-x="526" 
d="M369 0v47q-29 -29 -61 -41t-81 -12q-51 0 -82 10t-57 35q-19 18 -28 44.5t-9 55.5q0 66 44 104t127 38h147v47q0 54 -28.5 81t-97.5 27q-47 0 -74 -13t-50 -44l-49 45q32 43 72.5 58.5t101.5 15.5q100 0 148.5 -42t48.5 -122v-334h-72zM369 227h-137q-111 0 -111 -87
q0 -43 27 -63.5t87 -20.5q31 0 58 5.5t51 27.5q25 24 25 85v53zM113 602v56h301v-56h-301z" />
    <glyph glyph-name="Abreve" unicode="&#x102;" horiz-adv-x="611" 
d="M518 0l-57 161h-311l-57 -161h-81l262 712h64l261 -712h-81zM307 603l-134 -376h266zM472 933q-12 -139 -165 -139t-165 139h56q5 -40 34 -61.5t75 -21.5t75 21.5t34 61.5h56v0z" />
    <glyph glyph-name="abreve" unicode="&#x103;" horiz-adv-x="526" 
d="M369 0v47q-29 -29 -61 -41t-81 -12q-51 0 -82 10t-57 35q-19 18 -28 44.5t-9 55.5q0 66 44 104t127 38h147v47q0 54 -28.5 81t-97.5 27q-47 0 -74 -13t-50 -44l-49 45q32 43 72.5 58.5t101.5 15.5q100 0 148.5 -42t48.5 -122v-334h-72zM369 227h-137q-111 0 -111 -87
q0 -43 27 -63.5t87 -20.5q31 0 58 5.5t51 27.5q25 24 25 85v53zM410 710q-12 -139 -165 -139t-165 139h56q5 -40 34 -61.5t75 -21.5t75 21.5t34 61.5h56v0z" />
    <glyph glyph-name="Aogonek" unicode="&#x104;" horiz-adv-x="611" 
d="M518 0l-57 161h-311l-57 -161h-81l262 712h64l261 -712h-81zM307 603l-134 -376h266zM526 -216h-79l71 149h67z" />
    <glyph glyph-name="aogonek" unicode="&#x105;" horiz-adv-x="526" 
d="M369 0v47q-29 -29 -61 -41t-81 -12q-51 0 -82 10t-57 35q-19 18 -28 44.5t-9 55.5q0 66 44 104t127 38h147v47q0 54 -28.5 81t-97.5 27q-47 0 -74 -13t-50 -44l-49 45q32 43 72.5 58.5t101.5 15.5q100 0 148.5 -42t48.5 -122v-334h-72zM369 227h-137q-111 0 -111 -87
q0 -43 27 -63.5t87 -20.5q31 0 58 5.5t51 27.5q25 24 25 85v53zM377 -216h-79l71 149h67z" />
    <glyph glyph-name="Cacute" unicode="&#x106;" horiz-adv-x="637" 
d="M572 206q-19 -100 -84.5 -156t-162.5 -56q-56 0 -100.5 18.5t-77.5 51.5q-25 25 -39.5 51t-21.5 59t-8.5 77t-1.5 105t1.5 105t8.5 77t21.5 59t39.5 51q33 33 77.5 51.5t100.5 18.5q97 0 162.5 -56t84.5 -156h-78q-14 66 -58 105t-111 39q-73 0 -123 -50q-17 -17 -27 -37
t-15 -47.5t-6.5 -66t-1.5 -93.5t1.5 -93.5t6.5 -66t15 -47.5t27 -37q50 -50 123 -50q67 0 112 39t59 105h76zM337 780h-69l91 154h83z" />
    <glyph glyph-name="cacute" unicode="&#x107;" horiz-adv-x="490" 
d="M443 67q-38 -41 -74.5 -57t-87.5 -16q-47 0 -86.5 15.5t-69 47t-46 79t-16.5 110.5t16.5 110t46 78.5t69 47.5t86.5 16q51 0 87.5 -16t74.5 -57l-49 -46q-28 31 -53 43t-60 12q-36 0 -65 -14t-49 -42q-17 -24 -24.5 -54.5t-7.5 -77.5t7.5 -77.5t24.5 -54.5q20 -28 49 -42
t65 -14q35 0 60 12.5t53 43.5zM285 594h-69l91 153h83z" />
    <glyph glyph-name="Ccircumflex" unicode="&#x108;" horiz-adv-x="637" 
d="M572 206q-19 -100 -84.5 -156t-162.5 -56q-56 0 -100.5 18.5t-77.5 51.5q-25 25 -39.5 51t-21.5 59t-8.5 77t-1.5 105t1.5 105t8.5 77t21.5 59t39.5 51q33 33 77.5 51.5t100.5 18.5q97 0 162.5 -56t84.5 -156h-78q-14 66 -58 105t-111 39q-73 0 -123 -50q-17 -17 -27 -37
t-15 -47.5t-6.5 -66t-1.5 -93.5t1.5 -93.5t6.5 -66t15 -47.5t27 -37q50 -50 123 -50q67 0 112 39t59 105h76zM415 780l-90 105l-91 -105h-69l126 153h68l125 -153h-69z" />
    <glyph glyph-name="ccircumflex" unicode="&#x109;" horiz-adv-x="490" 
d="M443 67q-38 -41 -74.5 -57t-87.5 -16q-47 0 -86.5 15.5t-69 47t-46 79t-16.5 110.5t16.5 110t46 78.5t69 47.5t86.5 16q51 0 87.5 -16t74.5 -57l-49 -46q-28 31 -53 43t-60 12q-36 0 -65 -14t-49 -42q-17 -24 -24.5 -54.5t-7.5 -77.5t7.5 -77.5t24.5 -54.5q20 -28 49 -42
t65 -14q35 0 60 12.5t53 43.5zM371 594l-91 104l-90 -104h-69l125 153h68l126 -153h-69z" />
    <glyph glyph-name="Cdotaccent" unicode="&#x10a;" horiz-adv-x="637" 
d="M572 206q-19 -100 -84.5 -156t-162.5 -56q-56 0 -100.5 18.5t-77.5 51.5q-25 25 -39.5 51t-21.5 59t-8.5 77t-1.5 105t1.5 105t8.5 77t21.5 59t39.5 51q33 33 77.5 51.5t100.5 18.5q97 0 162.5 -56t84.5 -156h-78q-14 66 -58 105t-111 39q-73 0 -123 -50q-17 -17 -27 -37
t-15 -47.5t-6.5 -66t-1.5 -93.5t1.5 -93.5t6.5 -66t15 -47.5t27 -37q50 -50 123 -50q67 0 112 39t59 105h76zM286 873h75v-76h-75v76z" />
    <glyph glyph-name="cdotaccent" unicode="&#x10b;" horiz-adv-x="490" 
d="M443 67q-38 -41 -74.5 -57t-87.5 -16q-47 0 -86.5 15.5t-69 47t-46 79t-16.5 110.5t16.5 110t46 78.5t69 47.5t86.5 16q51 0 87.5 -16t74.5 -57l-49 -46q-28 31 -53 43t-60 12q-36 0 -65 -14t-49 -42q-17 -24 -24.5 -54.5t-7.5 -77.5t7.5 -77.5t24.5 -54.5q20 -28 49 -42
t65 -14q35 0 60 12.5t53 43.5zM242 687h75v-77h-75v77z" />
    <glyph glyph-name="Ccaron" unicode="&#x10c;" horiz-adv-x="637" 
d="M572 206q-19 -100 -84.5 -156t-162.5 -56q-56 0 -100.5 18.5t-77.5 51.5q-25 25 -39.5 51t-21.5 59t-8.5 77t-1.5 105t1.5 105t8.5 77t21.5 59t39.5 51q33 33 77.5 51.5t100.5 18.5q97 0 162.5 -56t84.5 -156h-78q-14 66 -58 105t-111 39q-73 0 -123 -50q-17 -17 -27 -37
t-15 -47.5t-6.5 -66t-1.5 -93.5t1.5 -93.5t6.5 -66t15 -47.5t27 -37q50 -50 123 -50q67 0 112 39t59 105h76zM352 780h-68l-125 153h69l90 -104l91 104h69z" />
    <glyph glyph-name="ccaron" unicode="&#x10d;" horiz-adv-x="490" 
d="M443 67q-38 -41 -74.5 -57t-87.5 -16q-47 0 -86.5 15.5t-69 47t-46 79t-16.5 110.5t16.5 110t46 78.5t69 47.5t86.5 16q51 0 87.5 -16t74.5 -57l-49 -46q-28 31 -53 43t-60 12q-36 0 -65 -14t-49 -42q-17 -24 -24.5 -54.5t-7.5 -77.5t7.5 -77.5t24.5 -54.5q20 -28 49 -42
t65 -14q35 0 60 12.5t53 43.5zM315 594h-68l-126 153h69l91 -105l90 105h69z" />
    <glyph glyph-name="Dcaron" unicode="&#x10e;" horiz-adv-x="673" 
d="M597 356q0 -41 -1 -80.5t-7 -75.5t-18.5 -68t-36.5 -57q-36 -39 -81.5 -57t-105.5 -18h-244v712h244q60 0 105.5 -18t81.5 -57q24 -26 36.5 -57.5t18.5 -67.5t7 -75.5t1 -80.5zM521 356q0 37 -1 71.5t-5.5 65t-14 56t-26.5 43.5q-27 30 -63 41t-77 11h-155v-576h155
q41 0 77 11t63 41q17 18 26.5 43.5t14 56t5.5 65t1 71.5zM370 780h-68l-125 153h69l90 -104l91 104h69z" />
    <glyph glyph-name="dcaron" unicode="&#x10f;" horiz-adv-x="545" 
d="M384 0v59q-31 -39 -64.5 -52t-75.5 -13q-38 0 -69 11.5t-51 31.5q-37 38 -48.5 93.5t-11.5 115.5q0 30 2.5 59.5t9 56.5t18.5 51t30 42q20 20 51 31.5t69 11.5q42 0 75 -12.5t64 -50.5v277h72v-712h-71zM383 246q0 36 -4 70t-17 60t-37.5 42t-64.5 16q-41 0 -65 -16
t-37.5 -42t-17.5 -60t-4 -70t4 -70t17.5 -60t37.5 -42t65 -16q40 0 64.5 16t37.5 42t17 60t4 70zM575 567h-58l39 152h70z" />
    <glyph glyph-name="Dcroat" unicode="&#x110;" horiz-adv-x="687" 
d="M611 356q0 -41 -1.5 -80.5t-7.5 -75.5t-18.5 -68t-35.5 -57q-36 -39 -81.5 -57t-105.5 -18h-244v330h-78v59h78v323h244q60 0 105.5 -18t81.5 -57q24 -26 36.5 -57.5t18.5 -67.5t7 -75.5t1 -80.5zM535 356q0 37 -1 71.5t-5.5 65t-14 56t-26.5 43.5q-27 30 -63 41t-77 11
h-155v-255h162v-59h-162v-262h155q41 0 77 11t63 41q17 18 26.5 43.5t14 56t5.5 65t1 71.5z" />
    <glyph glyph-name="dcroat" unicode="&#x111;" horiz-adv-x="545" 
d="M384 0v59q-31 -39 -64.5 -52t-75.5 -13q-38 0 -69 11.5t-51 31.5q-37 38 -48.5 93.5t-11.5 115.5q0 30 2.5 59.5t9 56.5t18.5 51t30 42q20 20 51 31.5t69 11.5q42 0 75 -12.5t64 -50.5v137h-82v48h82v92h72v-92h68v-48h-68v-572h-71zM383 246q0 36 -4 70t-17 60t-37.5 42
t-64.5 16q-41 0 -65 -16t-37.5 -42t-17.5 -60t-4 -70t4 -70t17.5 -60t37.5 -42t65 -16q40 0 64.5 16t37.5 42t17 60t4 70z" />
    <glyph glyph-name="Emacron" unicode="&#x112;" horiz-adv-x="600" 
d="M103 0v712h442v-68h-366v-251h312v-68h-312v-257h366v-68h-442zM161 855h301v-57h-301v57z" />
    <glyph glyph-name="emacron" unicode="&#x113;" 
d="M135 227q0 -81 36.5 -125.5t108.5 -44.5q43 0 71.5 13.5t57.5 42.5l49 -43q-19 -19 -37.5 -33t-40 -23.5t-46.5 -14.5t-56 -5q-49 0 -89 15t-68 46t-43 78.5t-15 112.5q0 121 54 186.5t148 65.5q97 0 149.5 -63.5t52.5 -175.5v-32h-332zM396 281q-1 15 -2 26t-2.5 20
t-4.5 17.5t-7 18.5q-16 34 -45.5 54t-69.5 20t-69.5 -20t-45.5 -54q-5 -10 -7.5 -18.5t-4 -17.5t-2 -20t-1.5 -26h261zM114 602v56h301v-56h-301z" />
    <glyph glyph-name="Ebreve" unicode="&#x114;" horiz-adv-x="600" 
d="M103 0v712h442v-68h-366v-251h312v-68h-312v-257h366v-68h-442zM478 933q-12 -139 -165 -139t-165 139h56q5 -40 34 -61.5t75 -21.5t75 21.5t34 61.5h56v0z" />
    <glyph glyph-name="ebreve" unicode="&#x115;" 
d="M135 227q0 -81 36.5 -125.5t108.5 -44.5q43 0 71.5 13.5t57.5 42.5l49 -43q-19 -19 -37.5 -33t-40 -23.5t-46.5 -14.5t-56 -5q-49 0 -89 15t-68 46t-43 78.5t-15 112.5q0 121 54 186.5t148 65.5q97 0 149.5 -63.5t52.5 -175.5v-32h-332zM396 281q-1 15 -2 26t-2.5 20
t-4.5 17.5t-7 18.5q-16 34 -45.5 54t-69.5 20t-69.5 -20t-45.5 -54q-5 -10 -7.5 -18.5t-4 -17.5t-2 -20t-1.5 -26h261zM432 729q-12 -139 -165 -139t-165 139h56q5 -40 34 -61.5t75 -21.5t75 21.5t34 61.5h56v0z" />
    <glyph glyph-name="Edotaccent" unicode="&#x116;" horiz-adv-x="600" 
d="M103 0v712h442v-68h-366v-251h312v-68h-312v-257h366v-68h-442zM274 873h75v-76h-75v76z" />
    <glyph glyph-name="edotaccent" unicode="&#x117;" 
d="M135 227q0 -81 36.5 -125.5t108.5 -44.5q43 0 71.5 13.5t57.5 42.5l49 -43q-19 -19 -37.5 -33t-40 -23.5t-46.5 -14.5t-56 -5q-49 0 -89 15t-68 46t-43 78.5t-15 112.5q0 121 54 186.5t148 65.5q97 0 149.5 -63.5t52.5 -175.5v-32h-332zM396 281q-1 15 -2 26t-2.5 20
t-4.5 17.5t-7 18.5q-16 34 -45.5 54t-69.5 20t-69.5 -20t-45.5 -54q-5 -10 -7.5 -18.5t-4 -17.5t-2 -20t-1.5 -26h261zM226 687h75v-77h-75v77z" />
    <glyph glyph-name="Eogonek" unicode="&#x118;" horiz-adv-x="600" 
d="M103 0v712h442v-68h-366v-251h312v-68h-312v-257h366v-68h-442zM486 -216h-79l71 149h67z" />
    <glyph glyph-name="eogonek" unicode="&#x119;" 
d="M135 227q0 -81 36.5 -125.5t108.5 -44.5q43 0 71.5 13.5t57.5 42.5l49 -43q-19 -19 -37.5 -33t-40 -23.5t-46.5 -14.5t-56 -5q-49 0 -89 15t-68 46t-43 78.5t-15 112.5q0 121 54 186.5t148 65.5q97 0 149.5 -63.5t52.5 -175.5v-32h-332zM396 281q-1 15 -2 26t-2.5 20
t-4.5 17.5t-7 18.5q-16 34 -45.5 54t-69.5 20t-69.5 -20t-45.5 -54q-5 -10 -7.5 -18.5t-4 -17.5t-2 -20t-1.5 -26h261zM310 -216h-79l71 149h67z" />
    <glyph glyph-name="Ecaron" unicode="&#x11a;" horiz-adv-x="600" 
d="M103 0v712h442v-68h-366v-251h312v-68h-312v-257h366v-68h-442zM345 780h-68l-125 153h69l90 -104l91 104h69z" />
    <glyph glyph-name="ecaron" unicode="&#x11b;" 
d="M135 227q0 -81 36.5 -125.5t108.5 -44.5q43 0 71.5 13.5t57.5 42.5l49 -43q-19 -19 -37.5 -33t-40 -23.5t-46.5 -14.5t-56 -5q-49 0 -89 15t-68 46t-43 78.5t-15 112.5q0 121 54 186.5t148 65.5q97 0 149.5 -63.5t52.5 -175.5v-32h-332zM396 281q-1 15 -2 26t-2.5 20
t-4.5 17.5t-7 18.5q-16 34 -45.5 54t-69.5 20t-69.5 -20t-45.5 -54q-5 -10 -7.5 -18.5t-4 -17.5t-2 -20t-1.5 -26h261zM299 594h-68l-126 153h69l91 -105l90 105h69z" />
    <glyph glyph-name="Gcircumflex" unicode="&#x11c;" horiz-adv-x="650" 
d="M576 259q0 -31 -3 -56t-10 -47t-19 -41.5t-29 -38.5q-38 -42 -86.5 -62t-103.5 -20q-56 0 -100.5 18.5t-77.5 51.5q-25 25 -39.5 51t-21.5 59t-8.5 77t-1.5 105t1.5 105t8.5 77t21.5 59t39.5 51q33 33 77.5 51.5t100.5 18.5q50 0 92.5 -16t74.5 -44.5t53 -67.5t29 -85
h-76q-15 69 -60.5 107t-112.5 38q-75 0 -123 -50q-17 -17 -27 -37t-15 -47.5t-6.5 -66t-1.5 -93.5t1.5 -93.5t6.5 -66t15 -47.5t27 -37q48 -50 123 -50q39 0 74.5 15.5t60.5 45.5q22 27 31 57.5t9 71.5v55h-175v65h251v-113zM415 780l-90 105l-91 -105h-69l126 153h68
l125 -153h-69z" />
    <glyph glyph-name="gcircumflex" unicode="&#x11d;" horiz-adv-x="543" 
d="M453 -15q0 -46 -14 -84.5t-40 -66.5t-64.5 -44t-86.5 -16q-28 0 -50 3.5t-41.5 11.5t-38 20.5t-37.5 30.5l47 46q13 -12 25.5 -21t26 -15.5t29.5 -9.5t37 -3q36 0 61.5 12t42 32t24 47.5t7.5 59.5v77q-30 -38 -64 -51t-74 -13q-38 0 -68.5 12t-50.5 32q-37 37 -48.5 91
t-11.5 114t11.5 114t48.5 91q20 20 51 31.5t69 11.5q41 0 74.5 -12.5t63.5 -51.5v58h71v-507zM381 250q0 34 -4 67.5t-17 59t-37 41.5t-64 16t-64.5 -16t-37.5 -41.5t-17 -59t-4 -67.5q0 -35 4 -68t17 -58.5t37.5 -41.5t64.5 -16t64 16t37 41.5t17 58.5t4 68zM351 594
l-91 104l-90 -104h-69l125 153h68l126 -153h-69z" />
    <glyph glyph-name="Gbreve" unicode="&#x11e;" horiz-adv-x="650" 
d="M576 259q0 -31 -3 -56t-10 -47t-19 -41.5t-29 -38.5q-38 -42 -86.5 -62t-103.5 -20q-56 0 -100.5 18.5t-77.5 51.5q-25 25 -39.5 51t-21.5 59t-8.5 77t-1.5 105t1.5 105t8.5 77t21.5 59t39.5 51q33 33 77.5 51.5t100.5 18.5q50 0 92.5 -16t74.5 -44.5t53 -67.5t29 -85
h-76q-15 69 -60.5 107t-112.5 38q-75 0 -123 -50q-17 -17 -27 -37t-15 -47.5t-6.5 -66t-1.5 -93.5t1.5 -93.5t6.5 -66t15 -47.5t27 -37q48 -50 123 -50q39 0 74.5 15.5t60.5 45.5q22 27 31 57.5t9 71.5v55h-175v65h251v-113zM490 933q-12 -139 -165 -139t-165 139h56
q5 -40 34 -61.5t75 -21.5t75 21.5t34 61.5h56v0z" />
    <glyph glyph-name="gbreve" unicode="&#x11f;" horiz-adv-x="543" 
d="M453 -15q0 -46 -14 -84.5t-40 -66.5t-64.5 -44t-86.5 -16q-28 0 -50 3.5t-41.5 11.5t-38 20.5t-37.5 30.5l47 46q13 -12 25.5 -21t26 -15.5t29.5 -9.5t37 -3q36 0 61.5 12t42 32t24 47.5t7.5 59.5v77q-30 -38 -64 -51t-74 -13q-38 0 -68.5 12t-50.5 32q-37 37 -48.5 91
t-11.5 114t11.5 114t48.5 91q20 20 51 31.5t69 11.5q41 0 74.5 -12.5t63.5 -51.5v58h71v-507zM381 250q0 34 -4 67.5t-17 59t-37 41.5t-64 16t-64.5 -16t-37.5 -41.5t-17 -59t-4 -67.5q0 -35 4 -68t17 -58.5t37.5 -41.5t64.5 -16t64 16t37 41.5t17 58.5t4 68zM424 710
q-12 -139 -165 -139t-165 139h56q5 -40 34 -61.5t75 -21.5t75 21.5t34 61.5h56v0z" />
    <glyph glyph-name="Gdotaccent" unicode="&#x120;" horiz-adv-x="650" 
d="M576 259q0 -31 -3 -56t-10 -47t-19 -41.5t-29 -38.5q-38 -42 -86.5 -62t-103.5 -20q-56 0 -100.5 18.5t-77.5 51.5q-25 25 -39.5 51t-21.5 59t-8.5 77t-1.5 105t1.5 105t8.5 77t21.5 59t39.5 51q33 33 77.5 51.5t100.5 18.5q50 0 92.5 -16t74.5 -44.5t53 -67.5t29 -85
h-76q-15 69 -60.5 107t-112.5 38q-75 0 -123 -50q-17 -17 -27 -37t-15 -47.5t-6.5 -66t-1.5 -93.5t1.5 -93.5t6.5 -66t15 -47.5t27 -37q48 -50 123 -50q39 0 74.5 15.5t60.5 45.5q22 27 31 57.5t9 71.5v55h-175v65h251v-113zM286 873h75v-76h-75v76z" />
    <glyph glyph-name="gdotaccent" unicode="&#x121;" horiz-adv-x="543" 
d="M453 -15q0 -46 -14 -84.5t-40 -66.5t-64.5 -44t-86.5 -16q-28 0 -50 3.5t-41.5 11.5t-38 20.5t-37.5 30.5l47 46q13 -12 25.5 -21t26 -15.5t29.5 -9.5t37 -3q36 0 61.5 12t42 32t24 47.5t7.5 59.5v77q-30 -38 -64 -51t-74 -13q-38 0 -68.5 12t-50.5 32q-37 37 -48.5 91
t-11.5 114t11.5 114t48.5 91q20 20 51 31.5t69 11.5q41 0 74.5 -12.5t63.5 -51.5v58h71v-507zM381 250q0 34 -4 67.5t-17 59t-37 41.5t-64 16t-64.5 -16t-37.5 -41.5t-17 -59t-4 -67.5q0 -35 4 -68t17 -58.5t37.5 -41.5t64.5 -16t64 16t37 41.5t17 58.5t4 68zM220 687h75
v-77h-75v77z" />
    <glyph glyph-name="Gcommaaccent" unicode="&#x122;" horiz-adv-x="650" 
d="M576 259q0 -31 -3 -56t-10 -47t-19 -41.5t-29 -38.5q-38 -42 -86.5 -62t-103.5 -20q-56 0 -100.5 18.5t-77.5 51.5q-25 25 -39.5 51t-21.5 59t-8.5 77t-1.5 105t1.5 105t8.5 77t21.5 59t39.5 51q33 33 77.5 51.5t100.5 18.5q50 0 92.5 -16t74.5 -44.5t53 -67.5t29 -85
h-76q-15 69 -60.5 107t-112.5 38q-75 0 -123 -50q-17 -17 -27 -37t-15 -47.5t-6.5 -66t-1.5 -93.5t1.5 -93.5t6.5 -66t15 -47.5t27 -37q48 -50 123 -50q39 0 74.5 15.5t60.5 45.5q22 27 31 57.5t9 71.5v55h-175v65h251v-113zM251 -216l71 149h66l-59 -149h-78z" />
    <glyph glyph-name="gcommaaccent" unicode="&#x123;" horiz-adv-x="543" 
d="M453 -15q0 -46 -14 -84.5t-40 -66.5t-64.5 -44t-86.5 -16q-28 0 -50 3.5t-41.5 11.5t-38 20.5t-37.5 30.5l47 46q13 -12 25.5 -21t26 -15.5t29.5 -9.5t37 -3q36 0 61.5 12t42 32t24 47.5t7.5 59.5v77q-30 -38 -64 -51t-74 -13q-38 0 -68.5 12t-50.5 32q-37 37 -48.5 91
t-11.5 114t11.5 114t48.5 91q20 20 51 31.5t69 11.5q41 0 74.5 -12.5t63.5 -51.5v58h71v-507zM381 250q0 34 -4 67.5t-17 59t-37 41.5t-64 16t-64.5 -16t-37.5 -41.5t-17 -59t-4 -67.5q0 -35 4 -68t17 -58.5t37.5 -41.5t64.5 -16t64 16t37 41.5t17 58.5t4 68zM288 594h-66
l88 153h86z" />
    <glyph glyph-name="Hcircumflex" unicode="&#x124;" horiz-adv-x="696" 
d="M517 0v325h-338v-325h-76v712h76v-319h338v319h76v-712h-76zM438 780l-90 105l-91 -105h-69l126 153h68l125 -153h-69z" />
    <glyph glyph-name="hcircumflex" unicode="&#x125;" horiz-adv-x="562" 
d="M405 0v304q0 66 -31.5 98t-88.5 32t-90 -32t-33 -98v-304h-72v712h72v-274q54 60 138 60q85 0 131 -49t46 -133v-316h-72zM219 780l-91 104l-90 -104h-69l125 153h68l126 -153h-69z" />
    <glyph glyph-name="Hbar" unicode="&#x126;" horiz-adv-x="718" 
d="M604 515v-515h-76v325h-338v-325h-76v515h-74v58h74v139h76v-139h338v139h76v-139h74v-58h-74zM528 515h-338v-122h338v122z" />
    <glyph glyph-name="hbar" unicode="&#x127;" horiz-adv-x="562" 
d="M405 0v304q0 65 -32 97.5t-88 32.5t-89.5 -33t-33.5 -97v-304h-72v572h-60v48h60v92h72v-92h124v-48h-124v-134q53 60 138 60q84 0 130.5 -49t46.5 -133v-316h-72z" />
    <glyph glyph-name="Itilde" unicode="&#x128;" horiz-adv-x="282" 
d="M103 0v712h76v-712h-76zM299 844q-17 -17 -31 -27t-25 -15t-20.5 -6.5t-18.5 -1.5q-22 0 -37.5 6t-33.5 17q-14 8 -27.5 14.5t-28.5 6.5q-13 0 -25 -5t-34 -27l-37 36q17 17 30.5 27t25 15.5t21 7t18.5 1.5q22 0 37 -6t34 -18q16 -10 28.5 -15t27.5 -5q6 0 11.5 1t12.5 4
t15.5 9.5t19.5 17.5l37 -37v0z" />
    <glyph glyph-name="itilde" unicode="&#x129;" horiz-adv-x="252" 
d="M90 0v492h72v-492h-72zM286 658q-17 -17 -30.5 -27.5t-25 -15.5t-21 -6.5t-18.5 -1.5q-21 0 -37 6.5t-34 17.5q-14 8 -27.5 14t-28.5 6q-13 0 -25 -5t-34 -27l-37 36q17 17 30.5 27t25 15.5t21 7t18.5 1.5q22 0 37 -6t34 -18q16 -9 28.5 -14.5t27.5 -5.5q6 0 11.5 1
t12.5 4t15.5 9.5t19.5 17.5l37 -36v0z" />
    <glyph glyph-name="Imacron" unicode="&#x12a;" horiz-adv-x="282" 
d="M103 0v712h76v-712h-76zM-8 855h301v-57h-301v57z" />
    <glyph glyph-name="imacron" unicode="&#x12b;" horiz-adv-x="252" 
d="M90 0v492h72v-492h-72zM-22 602v56h301v-56h-301z" />
    <glyph glyph-name="Ibreve" unicode="&#x12c;" horiz-adv-x="282" 
d="M103 0v712h76v-712h-76zM306 933q-12 -139 -165 -139t-165 139h56q5 -40 34 -61.5t75 -21.5t75 21.5t34 61.5h56v0z" />
    <glyph glyph-name="ibreve" unicode="&#x12d;" horiz-adv-x="252" 
d="M90 0v492h72v-492h-72zM292 729q-12 -139 -165 -139t-165 139h56q5 -40 34 -61.5t75 -21.5t75 21.5t34 61.5h56v0z" />
    <glyph glyph-name="Iogonek" unicode="&#x12e;" horiz-adv-x="282" 
d="M103 0v712h76v-712h-76zM112 -216h-79l71 149h67z" />
    <glyph glyph-name="iogonek" unicode="&#x12f;" horiz-adv-x="252" 
d="M90 0v492h72v-492h-72zM86 632v81h81v-81h-81zM100 -216h-79l71 149h67z" />
    <glyph glyph-name="Idotaccent" unicode="&#x130;" horiz-adv-x="282" 
d="M103 0v712h76v-712h-76zM104 873h75v-76h-75v76z" />
    <glyph glyph-name="dotlessi" unicode="&#x131;" horiz-adv-x="252" 
d="M90 0v492h72v-492h-72z" />
    <glyph glyph-name="IJ" unicode="&#x132;" horiz-adv-x="783" 
d="M103 0v712h76v-712h-76zM690 216q0 -51 -16.5 -92.5t-46 -70t-70 -44t-89.5 -15.5q-51 0 -90.5 15.5t-72.5 48.5l51 51q19 -20 43.5 -33.5t68.5 -13.5q70 0 108 42.5t38 121.5v486h76v-496z" />
    <glyph glyph-name="ij" unicode="&#x133;" horiz-adv-x="506" 
d="M90 0v492h72v-492h-72zM86 632v81h81v-81h-81zM415 -89q0 -28 -7.5 -52t-23 -42t-39 -28t-55.5 -10h-52v63h39q38 0 52 18t14 54v578h72v-581zM339 632v81h81v-81h-81z" />
    <glyph glyph-name="Jcircumflex" unicode="&#x134;" horiz-adv-x="501" 
d="M408 216q0 -51 -16.5 -92.5t-46 -70t-70 -44t-89.5 -15.5q-51 0 -90.5 15.5t-72.5 48.5l51 51q19 -20 43.5 -33.5t68.5 -13.5q70 0 108 42.5t38 121.5v486h76v-496zM460 780l-90 105l-91 -105h-69l126 153h68l125 -153h-69z" />
    <glyph glyph-name="jcircumflex" unicode="&#x135;" horiz-adv-x="253" 
d="M162 -89q0 -28 -7.5 -52t-23 -42t-39 -28t-55.5 -10h-52v63h39q38 0 52 18t14 54v578h72v-581zM218 594l-91 104l-90 -104h-69l125 153h68l126 -153h-69z" />
    <glyph glyph-name="Kcommaaccent" unicode="&#x136;" horiz-adv-x="650" 
d="M546 0l-217 379l-150 -180v-199h-76v712h76v-409l332 409h93l-224 -275l256 -437h-90zM250 -216l71 149h66l-59 -149h-78z" />
    <glyph glyph-name="kcommaaccent" unicode="&#x137;" horiz-adv-x="536" 
d="M414 0l-156 252l-96 -110v-142h-72v712h72v-476l222 256h90l-167 -188l196 -304h-89zM193 -216l71 149h66l-59 -149h-78z" />
    <glyph glyph-name="kgreenlandic" unicode="&#x138;" horiz-adv-x="536" 
d="M414 0l-156 252l-96 -110v-142h-72v492h72v-256l222 256h90l-167 -188l196 -304h-89z" />
    <glyph glyph-name="Lacute" unicode="&#x139;" horiz-adv-x="573" 
d="M103 0v712h76v-644h364v-68h-440zM171 780h-69l91 154h83z" />
    <glyph glyph-name="lacute" unicode="&#x13a;" horiz-adv-x="294" 
d="M213 0q-65 0 -95 37.5t-30 93.5v581h72v-578q0 -36 14 -54t52 -18h39v-62h-52zM157 780h-69l91 154h83z" />
    <glyph glyph-name="Lcommaaccent" unicode="&#x13b;" horiz-adv-x="573" 
d="M103 0v712h76v-644h364v-68h-440zM211 -216l71 149h66l-59 -149h-78z" />
    <glyph glyph-name="lcommaaccent" unicode="&#x13c;" horiz-adv-x="294" 
d="M213 0q-65 0 -95 37.5t-30 93.5v581h72v-578q0 -36 14 -54t52 -18h39v-62h-52zM74 -216l71 149h66l-59 -149h-78z" />
    <glyph glyph-name="Lcaron" unicode="&#x13d;" horiz-adv-x="573" 
d="M103 0v712h76v-644h364v-68h-440zM355 561h-58l39 152h70z" />
    <glyph glyph-name="lcaron" unicode="&#x13e;" horiz-adv-x="294" 
d="M213 0q-65 0 -95 37.5t-30 93.5v581h72v-578q0 -36 14 -54t52 -18h39v-62h-52zM281 567h-58l39 152h70z" />
    <glyph glyph-name="Ldot" unicode="&#x13f;" horiz-adv-x="573" 
d="M103 0v712h76v-644h364v-68h-440zM389 397h75v-76h-75v76z" />
    <glyph glyph-name="ldot" unicode="&#x140;" horiz-adv-x="294" 
d="M213 0q-65 0 -95 37.5t-30 93.5v581h72v-578q0 -36 14 -54t52 -18h39v-62h-52zM233 309h75v-77h-75v77z" />
    <glyph glyph-name="Lslash" unicode="&#x141;" horiz-adv-x="582" 
d="M112 0v289l-73 -46v67l73 46v356h77v-308l154 98v-66l-154 -98v-270h363v-68h-440z" />
    <glyph glyph-name="lslash" unicode="&#x142;" horiz-adv-x="315" 
d="M226 0q-65 0 -95.5 37.5t-30.5 93.5v211l-63 -39v62l63 39v308h72v-264l81 50v-62l-81 -50v-252q0 -36 14 -54t52 -18h40v-62h-52z" />
    <glyph glyph-name="Nacute" unicode="&#x143;" horiz-adv-x="732" 
d="M557 0l-378 571v-571h-76v712h72l378 -569v569h76v-712h-72zM384 780h-69l91 154h83z" />
    <glyph glyph-name="nacute" unicode="&#x144;" horiz-adv-x="562" 
d="M405 0v303q0 66 -32.5 98.5t-88.5 32.5t-89 -33t-33 -98v-303h-72v492h72v-54q26 30 61 45t77 15q80 0 126 -46q51 -50 51 -137v-315h-72zM300 594h-69l91 153h83z" />
    <glyph glyph-name="Ncommaaccent" unicode="&#x145;" horiz-adv-x="732" 
d="M557 0l-378 571v-571h-76v712h72l378 -569v569h76v-712h-72zM281 -216l71 149h66l-59 -149h-78z" />
    <glyph glyph-name="ncommaaccent" unicode="&#x146;" horiz-adv-x="562" 
d="M405 0v303q0 66 -32.5 98.5t-88.5 32.5t-89 -33t-33 -98v-303h-72v492h72v-54q26 30 61 45t77 15q80 0 126 -46q51 -50 51 -137v-315h-72zM206 -216l71 149h66l-59 -149h-78z" />
    <glyph glyph-name="Ncaron" unicode="&#x147;" horiz-adv-x="732" 
d="M557 0l-378 571v-571h-76v712h72l378 -569v569h76v-712h-72zM400 780h-68l-125 153h69l90 -104l91 104h69z" />
    <glyph glyph-name="ncaron" unicode="&#x148;" horiz-adv-x="562" 
d="M405 0v303q0 66 -32.5 98.5t-88.5 32.5t-89 -33t-33 -98v-303h-72v492h72v-54q26 30 61 45t77 15q80 0 126 -46q51 -50 51 -137v-315h-72zM315 594h-68l-126 153h69l91 -105l90 105h69z" />
    <glyph glyph-name="napostrophe" unicode="&#x149;" horiz-adv-x="562" 
d="M405 0v303q0 66 -32.5 98.5t-88.5 32.5t-89 -33t-33 -98v-303h-72v492h72v-54q26 30 61 45t77 15q80 0 126 -46q51 -50 51 -137v-315h-72zM23 530v190h68v-125z" />
    <glyph glyph-name="Eng" unicode="&#x14a;" horiz-adv-x="732" 
d="M629 -84q0 -28 -7.5 -52t-23 -42t-39 -28t-55.5 -10h-52v63h37q35 0 49.5 17.5t14.5 54.5v87l-374 565v-571h-76v712h72l378 -569v569h76v-796z" />
    <glyph glyph-name="eng" unicode="&#x14b;" horiz-adv-x="562" 
d="M477 -84q0 -28 -7.5 -52t-23 -42t-39 -28t-55.5 -10h-52v63h39q38 0 52 18t14 54v384q0 66 -32.5 98.5t-88.5 32.5t-89 -33t-33 -98v-303h-72v492h72v-54q26 30 61 45t77 15q80 0 126 -46q51 -50 51 -137v-399z" />
    <glyph glyph-name="Omacron" unicode="&#x14c;" horiz-adv-x="650" 
d="M574 356q0 -61 -2 -105t-9 -77t-21.5 -59t-39.5 -51q-33 -33 -77 -51.5t-100 -18.5t-100.5 18.5t-77.5 51.5q-25 25 -39.5 51t-21.5 59t-8.5 77t-1.5 105t1.5 105t8.5 77t21.5 59t39.5 51q33 33 77.5 51.5t100.5 18.5t100 -18.5t77 -51.5q25 -25 39.5 -51t21.5 -59t9 -77
t2 -105zM498 356q0 55 -1.5 93.5t-6.5 66t-15 47.5t-27 37q-50 50 -123 50t-123 -50q-17 -17 -27 -37t-15 -47.5t-6.5 -66t-1.5 -93.5t1.5 -93.5t6.5 -66t15 -47.5t27 -37q50 -50 123 -50t123 50q17 17 27 37t15 47.5t6.5 66t1.5 93.5zM173 855h301v-57h-301v57z" />
    <glyph glyph-name="omacron" unicode="&#x14d;" 
d="M466 246q0 -57 -11.5 -107.5t-48.5 -88.5q-26 -26 -61 -41t-80 -15t-80 15t-61 41q-19 19 -30.5 41.5t-18 47t-9 51.5t-2.5 56q0 57 11 107.5t49 88.5q26 26 61 41t80 15t80 -15t61 -41q38 -38 49 -88.5t11 -107.5zM394 246q0 42 -6 83.5t-33 68.5q-36 36 -90 36
q-53 0 -89 -36q-27 -27 -33.5 -68.5t-6.5 -83.5q0 -21 1 -42t5 -41t12 -37.5t22 -31.5q36 -36 89 -36q54 0 90 36q27 28 33 69t6 83zM115 602v56h301v-56h-301z" />
    <glyph glyph-name="Obreve" unicode="&#x14e;" horiz-adv-x="650" 
d="M574 356q0 -61 -2 -105t-9 -77t-21.5 -59t-39.5 -51q-33 -33 -77 -51.5t-100 -18.5t-100.5 18.5t-77.5 51.5q-25 25 -39.5 51t-21.5 59t-8.5 77t-1.5 105t1.5 105t8.5 77t21.5 59t39.5 51q33 33 77.5 51.5t100.5 18.5t100 -18.5t77 -51.5q25 -25 39.5 -51t21.5 -59t9 -77
t2 -105zM498 356q0 55 -1.5 93.5t-6.5 66t-15 47.5t-27 37q-50 50 -123 50t-123 -50q-17 -17 -27 -37t-15 -47.5t-6.5 -66t-1.5 -93.5t1.5 -93.5t6.5 -66t15 -47.5t27 -37q50 -50 123 -50t123 50q17 17 27 37t15 47.5t6.5 66t1.5 93.5zM490 933q-12 -139 -165 -139t-165 139
h56q5 -40 34 -61.5t75 -21.5t75 21.5t34 61.5h56v0z" />
    <glyph glyph-name="obreve" unicode="&#x14f;" 
d="M466 246q0 -57 -11.5 -107.5t-48.5 -88.5q-26 -26 -61 -41t-80 -15t-80 15t-61 41q-19 19 -30.5 41.5t-18 47t-9 51.5t-2.5 56q0 57 11 107.5t49 88.5q26 26 61 41t80 15t80 -15t61 -41q38 -38 49 -88.5t11 -107.5zM394 246q0 42 -6 83.5t-33 68.5q-36 36 -90 36
q-53 0 -89 -36q-27 -27 -33.5 -68.5t-6.5 -83.5q0 -21 1 -42t5 -41t12 -37.5t22 -31.5q36 -36 89 -36q54 0 90 36q27 28 33 69t6 83zM430 729q-12 -139 -165 -139t-165 139h56q5 -40 34 -61.5t75 -21.5t75 21.5t34 61.5h56v0z" />
    <glyph glyph-name="Ohungarumlaut" unicode="&#x150;" horiz-adv-x="650" 
d="M574 356q0 -61 -2 -105t-9 -77t-21.5 -59t-39.5 -51q-33 -33 -77 -51.5t-100 -18.5t-100.5 18.5t-77.5 51.5q-25 25 -39.5 51t-21.5 59t-8.5 77t-1.5 105t1.5 105t8.5 77t21.5 59t39.5 51q33 33 77.5 51.5t100.5 18.5t100 -18.5t77 -51.5q25 -25 39.5 -51t21.5 -59t9 -77
t2 -105zM498 356q0 55 -1.5 93.5t-6.5 66t-15 47.5t-27 37q-50 50 -123 50t-123 -50q-17 -17 -27 -37t-15 -47.5t-6.5 -66t-1.5 -93.5t1.5 -93.5t6.5 -66t15 -47.5t27 -37q50 -50 123 -50t123 50q17 17 27 37t15 47.5t6.5 66t1.5 93.5zM271 781h-66l89 153h85zM433 781h-65
l89 153h85z" />
    <glyph glyph-name="ohungarumlaut" unicode="&#x151;" 
d="M466 246q0 -57 -11.5 -107.5t-48.5 -88.5q-26 -26 -61 -41t-80 -15t-80 15t-61 41q-19 19 -30.5 41.5t-18 47t-9 51.5t-2.5 56q0 57 11 107.5t49 88.5q26 26 61 41t80 15t80 -15t61 -41q38 -38 49 -88.5t11 -107.5zM394 246q0 42 -6 83.5t-33 68.5q-36 36 -90 36
q-53 0 -89 -36q-27 -27 -33.5 -68.5t-6.5 -83.5q0 -21 1 -42t5 -41t12 -37.5t22 -31.5q36 -36 89 -36q54 0 90 36q27 28 33 69t6 83zM211 594h-66l89 153h85zM373 594h-65l89 153h85z" />
    <glyph glyph-name="OE" unicode="&#x152;" horiz-adv-x="989" 
d="M324 -6q-56 0 -100 18.5t-77 51.5q-25 25 -39.5 51t-21.5 59t-8.5 77t-1.5 105t1.5 105t8.5 77t21.5 59t39.5 51q33 33 77 51.5t100 18.5q53 0 96.5 -19.5t76.5 -60.5v74h434v-67h-358v-254h305v-64h-305v-260h358v-67h-434v74q-33 -41 -78.5 -60.5t-94.5 -19.5zM325 62
q35 0 67.5 13.5t55.5 37.5q17 17 26.5 36.5t14.5 46.5t6.5 65.5t1.5 94.5t-1.5 94.5t-6.5 65.5t-14.5 46.5t-26.5 36.5q-23 24 -55.5 37.5t-67.5 13.5q-36 0 -67.5 -12.5t-55.5 -37.5q-17 -17 -27 -37t-15 -47.5t-6.5 -66t-1.5 -93.5t1.5 -93.5t6.5 -66t15 -47.5t27 -37
q24 -25 55.5 -37.5t67.5 -12.5z" />
    <glyph glyph-name="oe" unicode="&#x153;" horiz-adv-x="861" 
d="M466 227q0 -81 36.5 -125.5t108.5 -44.5q43 0 71.5 13.5t57.5 42.5l49 -43q-19 -19 -37.5 -33t-40 -23.5t-46.5 -14.5t-56 -5q-124 0 -177 95q-23 -46 -67 -70.5t-100 -24.5q-45 0 -80 15t-61 41q-19 19 -30.5 41.5t-18 47t-9 51.5t-2.5 56q0 57 11 107.5t49 88.5
q26 26 61 41t80 15q57 0 100.5 -24.5t67.5 -70.5q24 47 65.5 71t97.5 24q97 0 149.5 -64t52.5 -174v-33h-332zM727 281q-1 15 -2 26t-2.5 20t-4.5 17.5t-7 18.5q-16 34 -45.5 54t-69.5 20t-69.5 -20t-45.5 -54q-5 -10 -7.5 -18.5t-4 -17.5t-2 -20t-1.5 -26h261zM394 246
q0 42 -6 83.5t-33 68.5q-36 36 -90 36q-53 0 -89 -36q-27 -27 -33.5 -68.5t-6.5 -83.5q0 -21 1 -42t5 -41t12 -37.5t22 -31.5q36 -36 89 -36q54 0 90 36q27 28 33 69t6 83z" />
    <glyph glyph-name="Racute" unicode="&#x154;" horiz-adv-x="656" 
d="M512 0l-162 316h-171v-316h-76v712h273q46 0 85 -13.5t67 -39t43.5 -62.5t15.5 -83q0 -78 -43 -127.5t-112 -63.5l169 -323h-89zM511 513q0 66 -39.5 98.5t-102.5 32.5h-190v-261h190q63 0 102.5 32t39.5 98zM346 780h-69l91 154h83z" />
    <glyph glyph-name="racute" unicode="&#x155;" horiz-adv-x="421" 
d="M365 398q-20 20 -38 28t-47 8q-27 0 -49 -10t-37 -28t-23.5 -42t-8.5 -52v-302h-72v492h72v-60q20 31 57.5 48.5t80.5 17.5q35 0 63.5 -10t54.5 -36zM231 594h-69l91 153h83z" />
    <glyph glyph-name="Rcommaaccent" unicode="&#x156;" horiz-adv-x="656" 
d="M512 0l-162 316h-171v-316h-76v712h273q46 0 85 -13.5t67 -39t43.5 -62.5t15.5 -83q0 -78 -43 -127.5t-112 -63.5l169 -323h-89zM511 513q0 66 -39.5 98.5t-102.5 32.5h-190v-261h190q63 0 102.5 32t39.5 98zM253 -216l71 149h66l-59 -149h-78z" />
    <glyph glyph-name="rcommaaccent" unicode="&#x157;" horiz-adv-x="421" 
d="M365 398q-20 20 -38 28t-47 8q-27 0 -49 -10t-37 -28t-23.5 -42t-8.5 -52v-302h-72v492h72v-60q20 31 57.5 48.5t80.5 17.5q35 0 63.5 -10t54.5 -36zM24 -216l71 149h66l-59 -149h-78z" />
    <glyph glyph-name="Rcaron" unicode="&#x158;" horiz-adv-x="656" 
d="M512 0l-162 316h-171v-316h-76v712h273q46 0 85 -13.5t67 -39t43.5 -62.5t15.5 -83q0 -78 -43 -127.5t-112 -63.5l169 -323h-89zM511 513q0 66 -39.5 98.5t-102.5 32.5h-190v-261h190q63 0 102.5 32t39.5 98zM362 780h-68l-125 153h69l90 -104l91 104h69z" />
    <glyph glyph-name="rcaron" unicode="&#x159;" horiz-adv-x="421" 
d="M365 398q-20 20 -38 28t-47 8q-27 0 -49 -10t-37 -28t-23.5 -42t-8.5 -52v-302h-72v492h72v-60q20 31 57.5 48.5t80.5 17.5q35 0 63.5 -10t54.5 -36zM266 594h-68l-126 153h69l91 -105l90 105h69z" />
    <glyph glyph-name="Sacute" unicode="&#x15a;" horiz-adv-x="588" 
d="M532 196q0 -47 -17.5 -84.5t-49.5 -63.5t-77.5 -40t-101.5 -14q-40 0 -73.5 5.5t-63 16.5t-55.5 29t-51 43l51 51q44 -44 89 -60.5t105 -16.5q79 0 124 34.5t45 97.5q0 58 -35 89q-8 7 -16.5 12.5t-19 9.5t-24.5 7t-33 6l-83 12q-84 13 -130 54q-55 49 -55 134
q0 45 16 82t45.5 63.5t71.5 40.5t95 14q68 0 117 -19t95 -59l-49 -49q-32 31 -71 46.5t-95 15.5q-72 0 -111.5 -36.5t-39.5 -96.5q0 -55 32 -83q17 -14 41 -23t52 -14l83 -13q49 -8 77 -18.5t52 -32.5q29 -25 44.5 -60t15.5 -80zM313 780h-69l91 154h83z" />
    <glyph glyph-name="sacute" unicode="&#x15b;" horiz-adv-x="496" 
d="M445 144q0 -71 -55 -110.5t-145 -39.5q-63 0 -112.5 16t-89.5 55l48 48q29 -30 68 -43.5t85 -13.5q62 0 96.5 21.5t34.5 65.5q0 33 -19 50.5t-63 21.5l-81 7q-72 6 -109.5 38t-37.5 94q0 34 13.5 60.5t37.5 45t57 28.5t73 10q54 0 98.5 -13t78.5 -40l-47 -47
q-26 20 -59.5 29.5t-71.5 9.5q-54 0 -82 -21.5t-28 -59.5q0 -33 21 -50t67 -22l77 -7q32 -3 59 -11t46 -23.5t29.5 -39.5t10.5 -59zM268 594h-69l91 153h83z" />
    <glyph glyph-name="Scircumflex" unicode="&#x15c;" horiz-adv-x="588" 
d="M532 196q0 -47 -17.5 -84.5t-49.5 -63.5t-77.5 -40t-101.5 -14q-40 0 -73.5 5.5t-63 16.5t-55.5 29t-51 43l51 51q44 -44 89 -60.5t105 -16.5q79 0 124 34.5t45 97.5q0 58 -35 89q-8 7 -16.5 12.5t-19 9.5t-24.5 7t-33 6l-83 12q-84 13 -130 54q-55 49 -55 134
q0 45 16 82t45.5 63.5t71.5 40.5t95 14q68 0 117 -19t95 -59l-49 -49q-32 31 -71 46.5t-95 15.5q-72 0 -111.5 -36.5t-39.5 -96.5q0 -55 32 -83q17 -14 41 -23t52 -14l83 -13q49 -8 77 -18.5t52 -32.5q29 -25 44.5 -60t15.5 -80zM380 780l-90 105l-91 -105h-69l126 153h68
l125 -153h-69z" />
    <glyph glyph-name="scircumflex" unicode="&#x15d;" horiz-adv-x="496" 
d="M445 144q0 -71 -55 -110.5t-145 -39.5q-63 0 -112.5 16t-89.5 55l48 48q29 -30 68 -43.5t85 -13.5q62 0 96.5 21.5t34.5 65.5q0 33 -19 50.5t-63 21.5l-81 7q-72 6 -109.5 38t-37.5 94q0 34 13.5 60.5t37.5 45t57 28.5t73 10q54 0 98.5 -13t78.5 -40l-47 -47
q-26 20 -59.5 29.5t-71.5 9.5q-54 0 -82 -21.5t-28 -59.5q0 -33 21 -50t67 -22l77 -7q32 -3 59 -11t46 -23.5t29.5 -39.5t10.5 -59zM338 594l-91 104l-90 -104h-69l125 153h68l126 -153h-69z" />
    <glyph glyph-name="Scedilla" unicode="&#x15e;" horiz-adv-x="588" 
d="M532 196q0 -47 -17.5 -84.5t-49.5 -63.5t-77.5 -40t-101.5 -14q-40 0 -73.5 5.5t-63 16.5t-55.5 29t-51 43l51 51q44 -44 89 -60.5t105 -16.5q79 0 124 34.5t45 97.5q0 58 -35 89q-8 7 -16.5 12.5t-19 9.5t-24.5 7t-33 6l-83 12q-84 13 -130 54q-55 49 -55 134
q0 45 16 82t45.5 63.5t71.5 40.5t95 14q68 0 117 -19t95 -59l-49 -49q-32 31 -71 46.5t-95 15.5q-72 0 -111.5 -36.5t-39.5 -96.5q0 -55 32 -83q17 -14 41 -23t52 -14l83 -13q49 -8 77 -18.5t52 -32.5q29 -25 44.5 -60t15.5 -80zM298 -216h-79l71 149h67z" />
    <glyph glyph-name="scedilla" unicode="&#x15f;" horiz-adv-x="496" 
d="M445 144q0 -71 -55 -110.5t-145 -39.5q-63 0 -112.5 16t-89.5 55l48 48q29 -30 68 -43.5t85 -13.5q62 0 96.5 21.5t34.5 65.5q0 33 -19 50.5t-63 21.5l-81 7q-72 6 -109.5 38t-37.5 94q0 34 13.5 60.5t37.5 45t57 28.5t73 10q54 0 98.5 -13t78.5 -40l-47 -47
q-26 20 -59.5 29.5t-71.5 9.5q-54 0 -82 -21.5t-28 -59.5q0 -33 21 -50t67 -22l77 -7q32 -3 59 -11t46 -23.5t29.5 -39.5t10.5 -59zM253 -216h-79l71 149h67z" />
    <glyph glyph-name="Scaron" unicode="&#x160;" horiz-adv-x="588" 
d="M532 196q0 -47 -17.5 -84.5t-49.5 -63.5t-77.5 -40t-101.5 -14q-40 0 -73.5 5.5t-63 16.5t-55.5 29t-51 43l51 51q44 -44 89 -60.5t105 -16.5q79 0 124 34.5t45 97.5q0 58 -35 89q-8 7 -16.5 12.5t-19 9.5t-24.5 7t-33 6l-83 12q-84 13 -130 54q-55 49 -55 134
q0 45 16 82t45.5 63.5t71.5 40.5t95 14q68 0 117 -19t95 -59l-49 -49q-32 31 -71 46.5t-95 15.5q-72 0 -111.5 -36.5t-39.5 -96.5q0 -55 32 -83q17 -14 41 -23t52 -14l83 -13q49 -8 77 -18.5t52 -32.5q29 -25 44.5 -60t15.5 -80zM323 780h-68l-125 153h69l90 -104l91 104h69
z" />
    <glyph glyph-name="scaron" unicode="&#x161;" horiz-adv-x="496" 
d="M445 144q0 -71 -55 -110.5t-145 -39.5q-63 0 -112.5 16t-89.5 55l48 48q29 -30 68 -43.5t85 -13.5q62 0 96.5 21.5t34.5 65.5q0 33 -19 50.5t-63 21.5l-81 7q-72 6 -109.5 38t-37.5 94q0 34 13.5 60.5t37.5 45t57 28.5t73 10q54 0 98.5 -13t78.5 -40l-47 -47
q-26 20 -59.5 29.5t-71.5 9.5q-54 0 -82 -21.5t-28 -59.5q0 -33 21 -50t67 -22l77 -7q32 -3 59 -11t46 -23.5t29.5 -39.5t10.5 -59zM280 594h-68l-126 153h69l91 -105l90 105h69z" />
    <glyph glyph-name="Tcommaaccent" unicode="&#x162;" horiz-adv-x="548" 
d="M312 644v-644h-76v644h-206v68h488v-68h-206zM250 -216h-79l71 149h67z" />
    <glyph glyph-name="tcommaaccent" unicode="&#x163;" horiz-adv-x="332" 
d="M228 0q-32 0 -55.5 10.5t-39 28.5t-23.5 42t-8 51v305h-62v55h62v151h72v-151h105v-55h-105v-303q0 -34 16 -53t51 -19h38v-62h-51zM171 -216h-79l71 149h67z" />
    <glyph glyph-name="Tcaron" unicode="&#x164;" horiz-adv-x="548" 
d="M312 644v-644h-76v644h-206v68h488v-68h-206zM309 780h-68l-125 153h69l90 -104l91 104h69z" />
    <glyph glyph-name="tcaron" unicode="&#x165;" horiz-adv-x="332" 
d="M228 0q-32 0 -55.5 10.5t-39 28.5t-23.5 42t-8 51v305h-62v55h62v151h72v-151h105v-55h-105v-303q0 -34 16 -53t51 -19h38v-62h-51zM295 567h-58l39 152h70z" />
    <glyph glyph-name="Tbar" unicode="&#x166;" horiz-adv-x="548" 
d="M312 644v-255h120v-59h-120v-330h-76v330h-120v59h120v255h-206v68h488v-68h-206z" />
    <glyph glyph-name="tbar" unicode="&#x167;" horiz-adv-x="332" 
d="M228 0q-32 0 -55.5 10.5t-39 28.5t-23.5 42t-8 51v111h-62v55h62v139h-62v55h62v151h72v-151h105v-55h-105v-139h105v-55h-105v-109q0 -34 16 -53t51 -19h38v-62h-51z" />
    <glyph glyph-name="Utilde" unicode="&#x168;" horiz-adv-x="683" 
d="M590 235q0 -53 -18.5 -97.5t-52 -76.5t-79 -49.5t-99.5 -17.5t-99.5 17.5t-78.5 49.5t-51.5 76.5t-18.5 97.5v477h76v-471q0 -41 12 -74t34.5 -56t54.5 -36t71 -13t71 13t54.5 36t35 56t12.5 74v471h76v-477zM500 844q-17 -17 -31 -27t-25 -15t-20.5 -6.5t-18.5 -1.5
q-22 0 -37.5 6t-33.5 17q-14 8 -27.5 14.5t-28.5 6.5q-13 0 -25 -5t-34 -27l-37 36q17 17 30.5 27t25 15.5t21 7t18.5 1.5q22 0 37 -6t34 -18q16 -10 28.5 -15t27.5 -5q6 0 11.5 1t12.5 4t15.5 9.5t19.5 17.5l37 -37v0z" />
    <glyph glyph-name="utilde" unicode="&#x169;" horiz-adv-x="562" 
d="M401 0v55q-26 -30 -61.5 -45.5t-77.5 -15.5q-81 0 -127 46q-26 26 -38 60.5t-12 77.5v314h72v-303q0 -66 32 -98.5t88 -32.5t89.5 33t33.5 98v303h72v-492h-71zM436 658q-17 -17 -30.5 -27.5t-25 -15.5t-21 -6.5t-18.5 -1.5q-21 0 -37 6.5t-34 17.5q-14 8 -27.5 14
t-28.5 6q-13 0 -25 -5t-34 -27l-37 36q17 17 30.5 27t25 15.5t21 7t18.5 1.5q22 0 37 -6t34 -18q16 -9 28.5 -14.5t27.5 -5.5q6 0 11.5 1t12.5 4t15.5 9.5t19.5 17.5l37 -36v0z" />
    <glyph glyph-name="Umacron" unicode="&#x16a;" horiz-adv-x="683" 
d="M590 235q0 -53 -18.5 -97.5t-52 -76.5t-79 -49.5t-99.5 -17.5t-99.5 17.5t-78.5 49.5t-51.5 76.5t-18.5 97.5v477h76v-471q0 -41 12 -74t34.5 -56t54.5 -36t71 -13t71 13t54.5 36t35 56t12.5 74v471h76v-477zM190 855h301v-57h-301v57z" />
    <glyph glyph-name="umacron" unicode="&#x16b;" horiz-adv-x="562" 
d="M401 0v55q-26 -30 -61.5 -45.5t-77.5 -15.5q-81 0 -127 46q-26 26 -38 60.5t-12 77.5v314h72v-303q0 -66 32 -98.5t88 -32.5t89.5 33t33.5 98v303h72v-492h-71zM130 602v56h301v-56h-301z" />
    <glyph glyph-name="Ubreve" unicode="&#x16c;" horiz-adv-x="683" 
d="M590 235q0 -53 -18.5 -97.5t-52 -76.5t-79 -49.5t-99.5 -17.5t-99.5 17.5t-78.5 49.5t-51.5 76.5t-18.5 97.5v477h76v-471q0 -41 12 -74t34.5 -56t54.5 -36t71 -13t71 13t54.5 36t35 56t12.5 74v471h76v-477zM506 933q-12 -139 -165 -139t-165 139h56q5 -40 34 -61.5
t75 -21.5t75 21.5t34 61.5h56v0z" />
    <glyph glyph-name="ubreve" unicode="&#x16d;" horiz-adv-x="562" 
d="M401 0v55q-26 -30 -61.5 -45.5t-77.5 -15.5q-81 0 -127 46q-26 26 -38 60.5t-12 77.5v314h72v-303q0 -66 32 -98.5t88 -32.5t89.5 33t33.5 98v303h72v-492h-71zM442 729q-12 -139 -165 -139t-165 139h56q5 -40 34 -61.5t75 -21.5t75 21.5t34 61.5h56v0z" />
    <glyph glyph-name="Uring" unicode="&#x16e;" horiz-adv-x="683" 
d="M590 235q0 -53 -18.5 -97.5t-52 -76.5t-79 -49.5t-99.5 -17.5t-99.5 17.5t-78.5 49.5t-51.5 76.5t-18.5 97.5v477h76v-471q0 -41 12 -74t34.5 -56t54.5 -36t71 -13t71 13t54.5 36t35 56t12.5 74v471h76v-477zM459 874q0 -24 -9.5 -46t-25.5 -38t-37.5 -25.5t-45.5 -9.5
t-45.5 9.5t-37.5 25.5t-25.5 38t-9.5 46t9.5 45.5t25.5 37.5t37.5 25.5t45.5 9.5t45.5 -9t37.5 -25t25.5 -37.5t9.5 -46.5zM410 874q0 29 -20 48.5t-49 19.5t-49 -19.5t-20 -48.5t20 -49t49 -20t49 20t20 49z" />
    <glyph glyph-name="uring" unicode="&#x16f;" horiz-adv-x="562" 
d="M401 0v55q-26 -30 -61.5 -45.5t-77.5 -15.5q-81 0 -127 46q-26 26 -38 60.5t-12 77.5v314h72v-303q0 -66 32 -98.5t88 -32.5t89.5 33t33.5 98v303h72v-492h-71zM399 687q0 -24 -9.5 -46t-25.5 -38t-37.5 -25.5t-45.5 -9.5t-45.5 9.5t-37.5 25.5t-25.5 38t-9.5 46
t9.5 45.5t25.5 37.5t37.5 25.5t45.5 9.5t45.5 -9t37.5 -25t25.5 -37.5t9.5 -46.5zM350 687q0 29 -20 48.5t-49 19.5t-49 -19.5t-20 -48.5t20 -49t49 -20t49 20t20 49z" />
    <glyph glyph-name="Uhungarumlaut" unicode="&#x170;" horiz-adv-x="683" 
d="M590 235q0 -53 -18.5 -97.5t-52 -76.5t-79 -49.5t-99.5 -17.5t-99.5 17.5t-78.5 49.5t-51.5 76.5t-18.5 97.5v477h76v-471q0 -41 12 -74t34.5 -56t54.5 -36t71 -13t71 13t54.5 36t35 56t12.5 74v471h76v-477zM287 781h-66l89 153h85zM449 781h-65l89 153h85z" />
    <glyph glyph-name="uhungarumlaut" unicode="&#x171;" horiz-adv-x="562" 
d="M401 0v55q-26 -30 -61.5 -45.5t-77.5 -15.5q-81 0 -127 46q-26 26 -38 60.5t-12 77.5v314h72v-303q0 -66 32 -98.5t88 -32.5t89.5 33t33.5 98v303h72v-492h-71zM227 594h-66l89 153h85zM389 594h-65l89 153h85z" />
    <glyph glyph-name="Uogonek" unicode="&#x172;" horiz-adv-x="683" 
d="M590 235q0 -53 -18.5 -97.5t-52 -76.5t-79 -49.5t-99.5 -17.5t-99.5 17.5t-78.5 49.5t-51.5 76.5t-18.5 97.5v477h76v-471q0 -41 12 -74t34.5 -56t54.5 -36t71 -13t71 13t54.5 36t35 56t12.5 74v471h76v-477zM419 -216h-79l71 149h67z" />
    <glyph glyph-name="uogonek" unicode="&#x173;" horiz-adv-x="562" 
d="M401 0v55q-26 -30 -61.5 -45.5t-77.5 -15.5q-81 0 -127 46q-26 26 -38 60.5t-12 77.5v314h72v-303q0 -66 32 -98.5t88 -32.5t89.5 33t33.5 98v303h72v-492h-71zM409 -216h-79l71 149h67z" />
    <glyph glyph-name="Wcircumflex" unicode="&#x174;" horiz-adv-x="854" 
d="M656 0h-71l-158 570l-158 -570h-71l-182 712h81l139 -574l157 574h68l157 -574l139 574h81zM517 780l-90 105l-91 -105h-69l126 153h68l125 -153h-69z" />
    <glyph glyph-name="wcircumflex" unicode="&#x175;" horiz-adv-x="724" 
d="M558 0h-67l-129 382l-128 -382h-67l-156 492h78l113 -395l129 395h62l130 -395l112 395h78zM453 594l-91 104l-90 -104h-69l125 153h68l126 -153h-69z" />
    <glyph glyph-name="Ycircumflex" unicode="&#x176;" horiz-adv-x="514" 
d="M296 294v-294h-76v294l-212 418h82l168 -341l166 341h82zM348 780l-90 105l-91 -105h-69l126 153h68l125 -153h-69z" />
    <glyph glyph-name="ycircumflex" unicode="&#x177;" horiz-adv-x="447" 
d="M212 -119q-14 -39 -35 -58q-20 -19 -45 -26.5t-51 -7.5h-31v64h22q37 0 53 13.5t28 47.5l35 96l-177 482h78l135 -395l134 395h78zM315 594l-91 104l-90 -104h-69l125 153h68l126 -153h-69z" />
    <glyph glyph-name="Ydieresis" unicode="&#x178;" horiz-adv-x="514" 
d="M296 294v-294h-76v294l-212 418h82l168 -341l166 341h82zM328 789v89h72v-89h-72zM116 789v89h72v-89h-72z" />
    <glyph glyph-name="Zacute" unicode="&#x179;" horiz-adv-x="556" 
d="M57 0v72l356 572h-342v68h428v-64l-359 -580h359v-68h-442zM297 780h-69l91 154h83z" />
    <glyph glyph-name="zacute" unicode="&#x17a;" horiz-adv-x="459" 
d="M50 0v62l274 366h-259v64h342v-61l-275 -367h275v-64h-357zM250 594h-69l91 153h83z" />
    <glyph glyph-name="Zdotaccent" unicode="&#x17b;" horiz-adv-x="556" 
d="M57 0v72l356 572h-342v68h428v-64l-359 -580h359v-68h-442zM239 873h75v-76h-75v76z" />
    <glyph glyph-name="zdotaccent" unicode="&#x17c;" horiz-adv-x="459" 
d="M50 0v62l274 366h-259v64h342v-61l-275 -367h275v-64h-357zM193 687h75v-77h-75v77z" />
    <glyph glyph-name="Zcaron" unicode="&#x17d;" horiz-adv-x="556" 
d="M57 0v72l356 572h-342v68h428v-64l-359 -580h359v-68h-442zM318 780h-68l-125 153h69l90 -104l91 104h69z" />
    <glyph glyph-name="zcaron" unicode="&#x17e;" horiz-adv-x="459" 
d="M50 0v62l274 366h-259v64h342v-61l-275 -367h275v-64h-357zM270 594h-68l-126 153h69l91 -105l90 105h69z" />
    <glyph glyph-name="longs" unicode="&#x17f;" horiz-adv-x="252" 
d="M267 712v-62h-39q-38 0 -52 -18t-14 -54v-578h-72v581q0 56 30 93.5t95 37.5h52z" />
    <glyph glyph-name="uni018F" unicode="&#x18f;" horiz-adv-x="650" 
d="M74 373h424q0 51 -2 86.5t-7.5 61t-15 43.5t-25.5 35q-23 24 -55.5 37.5t-67.5 13.5q-67 0 -112.5 -38.5t-60.5 -106.5h-76q8 47 28.5 86t52.5 67.5t74.5 44t93.5 15.5q108 0 182 -74q25 -25 38.5 -52t20 -60.5t7.5 -76t1 -99.5t-1 -99.5t-7.5 -76t-20 -60.5t-38.5 -52
q-36 -36 -82.5 -55t-99.5 -19q-55 0 -103.5 20.5t-86.5 61.5q-33 35 -47 78.5t-14 105.5v113zM150 252q0 -42 9 -72.5t31 -56.5q25 -30 60.5 -45.5t74.5 -15.5q35 0 67.5 13t55.5 37q15 15 24 31.5t14.5 39t8 52t3.5 71.5h-348v-54z" />
    <glyph glyph-name="florin" unicode="&#x192;" horiz-adv-x="403" 
d="M323 652q-35 0 -54 -19t-25 -53l-34 -196h105v-54h-115l-97 -550h-72l97 550h-98v54h108l34 198q5 27 17 51t31 42t44 28.5t57 10.5h52v-62h-50z" />
    <glyph glyph-name="uni01B5" unicode="&#x1b5;" horiz-adv-x="556" 
d="M57 0v72l160 258h-97v59h134l159 255h-342v68h428v-64l-161 -259h98v-59h-134l-162 -262h359v-68h-442z" />
    <glyph glyph-name="uni01B6" unicode="&#x1b6;" horiz-adv-x="459" 
d="M50 0v62l120 160h-52v48h88l118 158h-259v64h342v-61l-121 -161h53v-48h-89l-118 -158h275v-64h-357z" />
    <glyph glyph-name="uni01C4" unicode="&#x1c4;" horiz-adv-x="1229" 
d="M597 356q0 -41 -1 -80.5t-7 -75.5t-18.5 -68t-36.5 -57q-36 -39 -81.5 -57t-105.5 -18h-244v712h244q60 0 105.5 -18t81.5 -57q24 -26 36.5 -57.5t18.5 -67.5t7 -75.5t1 -80.5zM521 356q0 37 -1 71.5t-5.5 65t-14 56t-26.5 43.5q-27 30 -63 41t-77 11h-155v-576h155
q41 0 77 11t63 41q17 18 26.5 43.5t14 56t5.5 65t1 71.5zM730 0v72l356 572h-342v68h428v-64l-359 -580h359v-68h-442zM991 780h-68l-125 153h69l90 -104l91 104h69z" />
    <glyph glyph-name="uni01C5" unicode="&#x1c5;" horiz-adv-x="1132" 
d="M597 356q0 -41 -1 -80.5t-7 -75.5t-18.5 -68t-36.5 -57q-36 -39 -81.5 -57t-105.5 -18h-244v712h244q60 0 105.5 -18t81.5 -57q24 -26 36.5 -57.5t18.5 -67.5t7 -75.5t1 -80.5zM521 356q0 37 -1 71.5t-5.5 65t-14 56t-26.5 43.5q-27 30 -63 41t-77 11h-155v-576h155
q41 0 77 11t63 41q17 18 26.5 43.5t14 56t5.5 65t1 71.5zM723 0v62l274 366h-259v64h342v-61l-275 -367h275v-64h-357zM943 594h-68l-126 153h69l91 -105l90 105h69z" />
    <glyph glyph-name="uni01C6" unicode="&#x1c6;" horiz-adv-x="1004" 
d="M384 0v59q-31 -39 -64.5 -52t-75.5 -13q-38 0 -69 11.5t-51 31.5q-37 38 -48.5 93.5t-11.5 115.5q0 30 2.5 59.5t9 56.5t18.5 51t30 42q20 20 51 31.5t69 11.5q42 0 75 -12.5t64 -50.5v277h72v-712h-71zM383 246q0 36 -4 70t-17 60t-37.5 42t-64.5 16q-41 0 -65 -16
t-37.5 -42t-17.5 -60t-4 -70t4 -70t17.5 -60t37.5 -42t65 -16q40 0 64.5 16t37.5 42t17 60t4 70zM595 0v62l274 366h-259v64h342v-61l-275 -367h275v-64h-357zM815 594h-68l-126 153h69l91 -105l90 105h69z" />
    <glyph glyph-name="uni01C7" unicode="&#x1c7;" horiz-adv-x="1074" 
d="M103 0v712h76v-644h364v-68h-440zM981 216q0 -51 -16.5 -92.5t-46 -70t-70 -44t-89.5 -15.5q-51 0 -90.5 15.5t-72.5 48.5l51 51q19 -20 43.5 -33.5t68.5 -13.5q70 0 108 42.5t38 121.5v486h76v-496z" />
    <glyph glyph-name="uni01C8" unicode="&#x1c8;" horiz-adv-x="826" 
d="M103 0v712h76v-644h364v-68h-440zM735 -89q0 -28 -7.5 -52t-23 -42t-39 -28t-55.5 -10h-52v63h39q38 0 52 18t14 54v578h72v-581zM659 632v81h81v-81h-81z" />
    <glyph glyph-name="uni01C9" unicode="&#x1c9;" horiz-adv-x="550" 
d="M213 0q-65 0 -95 37.5t-30 93.5v581h72v-578q0 -36 14 -54t52 -18h39v-62h-52zM459 -89q0 -28 -7.5 -52t-23 -42t-39 -28t-55.5 -10h-52v63h39q38 0 52 18t14 54v578h72v-581zM383 632v81h81v-81h-81z" />
    <glyph glyph-name="uni01CA" unicode="&#x1ca;" horiz-adv-x="1233" 
d="M557 0l-378 571v-571h-76v712h72l378 -569v569h76v-712h-72zM1140 216q0 -51 -16.5 -92.5t-46 -70t-70 -44t-89.5 -15.5q-51 0 -90.5 15.5t-72.5 48.5l51 51q19 -20 43.5 -33.5t68.5 -13.5q70 0 108 42.5t38 121.5v486h76v-496z" />
    <glyph glyph-name="uni01CB" unicode="&#x1cb;" horiz-adv-x="985" 
d="M557 0l-378 571v-571h-76v712h72l378 -569v569h76v-712h-72zM894 -89q0 -28 -7.5 -52t-23 -42t-39 -28t-55.5 -10h-52v63h39q38 0 52 18t14 54v578h72v-581zM818 632v81h81v-81h-81z" />
    <glyph glyph-name="uni01CC" unicode="&#x1cc;" horiz-adv-x="815" 
d="M405 0v303q0 66 -32.5 98.5t-88.5 32.5t-89 -33t-33 -98v-303h-72v492h72v-54q26 30 61 45t77 15q80 0 126 -46q51 -50 51 -137v-315h-72zM724 -89q0 -28 -7.5 -52t-23 -42t-39 -28t-55.5 -10h-52v63h39q38 0 52 18t14 54v578h72v-581zM648 632v81h81v-81h-81z" />
    <glyph glyph-name="uni01F1" unicode="&#x1f1;" horiz-adv-x="1229" 
d="M597 356q0 -41 -1 -80.5t-7 -75.5t-18.5 -68t-36.5 -57q-36 -39 -81.5 -57t-105.5 -18h-244v712h244q60 0 105.5 -18t81.5 -57q24 -26 36.5 -57.5t18.5 -67.5t7 -75.5t1 -80.5zM521 356q0 37 -1 71.5t-5.5 65t-14 56t-26.5 43.5q-27 30 -63 41t-77 11h-155v-576h155
q41 0 77 11t63 41q17 18 26.5 43.5t14 56t5.5 65t1 71.5zM730 0v72l356 572h-342v68h428v-64l-359 -580h359v-68h-442z" />
    <glyph glyph-name="uni01F2" unicode="&#x1f2;" horiz-adv-x="1132" 
d="M597 356q0 -41 -1 -80.5t-7 -75.5t-18.5 -68t-36.5 -57q-36 -39 -81.5 -57t-105.5 -18h-244v712h244q60 0 105.5 -18t81.5 -57q24 -26 36.5 -57.5t18.5 -67.5t7 -75.5t1 -80.5zM521 356q0 37 -1 71.5t-5.5 65t-14 56t-26.5 43.5q-27 30 -63 41t-77 11h-155v-576h155
q41 0 77 11t63 41q17 18 26.5 43.5t14 56t5.5 65t1 71.5zM723 0v62l274 366h-259v64h342v-61l-275 -367h275v-64h-357z" />
    <glyph glyph-name="uni01F3" unicode="&#x1f3;" horiz-adv-x="1004" 
d="M384 0v59q-31 -39 -64.5 -52t-75.5 -13q-38 0 -69 11.5t-51 31.5q-37 38 -48.5 93.5t-11.5 115.5q0 30 2.5 59.5t9 56.5t18.5 51t30 42q20 20 51 31.5t69 11.5q42 0 75 -12.5t64 -50.5v277h72v-712h-71zM383 246q0 36 -4 70t-17 60t-37.5 42t-64.5 16q-41 0 -65 -16
t-37.5 -42t-17.5 -60t-4 -70t4 -70t17.5 -60t37.5 -42t65 -16q40 0 64.5 16t37.5 42t17 60t4 70zM595 0v62l274 366h-259v64h342v-61l-275 -367h275v-64h-357z" />
    <glyph glyph-name="Aringacute" unicode="&#x1fa;" horiz-adv-x="611" 
d="M518 0l-57 161h-311l-57 -161h-81l262 712h64l261 -712h-81zM307 603l-134 -376h266zM420 867q0 -24 -9.5 -46t-25.5 -38t-37.5 -25.5t-45.5 -9.5t-45.5 9.5t-37.5 25.5t-25.5 38t-9.5 46t9.5 45.5t25.5 37.5t37.5 25.5t45.5 9.5t45.5 -9t37.5 -25t25.5 -37.5t9.5 -46.5z
M371 867q0 29 -20 48.5t-49 19.5t-49 -19.5t-20 -48.5t20 -49t49 -20t49 20t20 49zM321 994h-69l91 154h83z" />
    <glyph glyph-name="aringacute" unicode="&#x1fb;" horiz-adv-x="526" 
d="M369 0v47q-29 -29 -61 -41t-81 -12q-51 0 -82 10t-57 35q-19 18 -28 44.5t-9 55.5q0 66 44 104t127 38h147v47q0 54 -28.5 81t-97.5 27q-47 0 -74 -13t-50 -44l-49 45q32 43 72.5 58.5t101.5 15.5q100 0 148.5 -42t48.5 -122v-334h-72zM369 227h-137q-111 0 -111 -87
q0 -43 27 -63.5t87 -20.5q31 0 58 5.5t51 27.5q25 24 25 85v53zM370 687q0 -24 -9.5 -46t-25.5 -38t-37.5 -25.5t-45.5 -9.5t-45.5 9.5t-37.5 25.5t-25.5 38t-9.5 46t9.5 45.5t25.5 37.5t37.5 25.5t45.5 9.5t45.5 -9t37.5 -25t25.5 -37.5t9.5 -46.5zM321 687q0 29 -20 48.5
t-49 19.5t-49 -19.5t-20 -48.5t20 -49t49 -20t49 20t20 49zM272 815h-69l91 153h83z" />
    <glyph glyph-name="AEacute" unicode="&#x1fc;" horiz-adv-x="922" 
d="M426 0v169h-247l-88 -169h-83l376 712h483v-68h-366v-253h312v-68h-312v-255h366v-68h-441zM426 644l-214 -409h214v409zM493 780h-69l91 154h83z" />
    <glyph glyph-name="aeacute" unicode="&#x1fd;" horiz-adv-x="835" 
d="M440 227q0 -81 37 -125.5t109 -44.5q43 0 71 13.5t57 42.5l50 -43q-19 -19 -38 -33t-40.5 -23.5t-47 -14.5t-56.5 -5q-59 0 -103 20.5t-72 64.5q-33 -48 -74.5 -66.5t-105.5 -18.5q-49 0 -81 9.5t-58 35.5q-19 18 -28 44.5t-9 55.5q0 66 44 104t127 38h147v47
q0 54 -28.5 81t-97.5 27q-47 0 -74 -13t-50 -44l-49 45q32 43 72.5 58.5t101.5 15.5q132 0 173 -77q51 77 154 77q96 0 149 -63.5t53 -175.5v-32h-333zM232 227q-111 0 -111 -87q0 -43 27 -63.5t87 -20.5q31 0 58 5.5t51 27.5q25 24 25 85v53h-137zM701 281q-1 15 -2 26
t-2.5 20t-4 17.5t-6.5 18.5q-14 35 -45 54.5t-70 19.5q-40 0 -70.5 -19.5t-44.5 -54.5q-4 -11 -6.5 -19t-4.5 -17t-3 -20t-2 -26h261zM437 594h-69l91 153h83z" />
    <glyph glyph-name="Oslashacute" unicode="&#x1fe;" horiz-adv-x="650" 
d="M574 356q0 -61 -1.5 -104.5t-8.5 -76.5t-21.5 -59t-40.5 -52q-33 -33 -77 -51.5t-100 -18.5q-37 0 -68 8t-58 23l-33 -69h-65l50 104q-27 26 -42 52t-22.5 59.5t-9 78t-1.5 106.5q0 61 1.5 105t8.5 77t21.5 59t39.5 51q33 33 77.5 51.5t100.5 18.5q74 0 125 -31l34 69h65
l-50 -105q27 -26 42 -52.5t22.5 -60t9 -77.5t1.5 -105zM152 356q0 -48 1 -83t5 -61.5t10.5 -46t18.5 -35.5l234 492q-40 28 -96 28q-36 0 -67.5 -12.5t-55.5 -37.5q-17 -17 -27 -37t-15 -47.5t-6.5 -66t-1.5 -93.5zM498 356q0 48 -1 83t-5 61.5t-10.5 46t-18.5 35.5
l-234 -492q42 -28 96 -28q73 0 123 50q17 17 27 37t15 47.5t6.5 66t1.5 93.5zM343 780h-69l91 154h83z" />
    <glyph glyph-name="oslashacute" unicode="&#x1ff;" 
d="M466 246q0 -57 -11.5 -107.5t-48.5 -88.5q-26 -26 -61 -41t-80 -15q-31 0 -57 7t-48 20l-38 -65h-57l57 96q-36 38 -47 87.5t-11 106.5q0 28 2.5 55.5t9 52t18 47t30.5 41.5q26 26 61 41t80 15q31 0 57 -7t48 -20l39 65h56l-57 -96q36 -38 47 -87.5t11 -106.5zM394 246
q0 35 -3.5 70.5t-20.5 62.5l-177 -299q31 -22 72 -22q54 0 90 36q13 13 21 31t12 38t5 41t1 42zM337 413q-30 21 -72 21q-53 0 -89 -36q-14 -14 -21.5 -31.5t-12 -37.5t-5.5 -41t-1 -42q0 -35 4 -70.5t21 -62.5zM284 594h-69l91 153h83z" />
    <glyph glyph-name="Scommaaccent" unicode="&#x218;" horiz-adv-x="588" 
d="M532 196q0 -47 -17.5 -84.5t-49.5 -63.5t-77.5 -40t-101.5 -14q-40 0 -73.5 5.5t-63 16.5t-55.5 29t-51 43l51 51q44 -44 89 -60.5t105 -16.5q79 0 124 34.5t45 97.5q0 58 -35 89q-8 7 -16.5 12.5t-19 9.5t-24.5 7t-33 6l-83 12q-84 13 -130 54q-55 49 -55 134
q0 45 16 82t45.5 63.5t71.5 40.5t95 14q68 0 117 -19t95 -59l-49 -49q-32 31 -71 46.5t-95 15.5q-72 0 -111.5 -36.5t-39.5 -96.5q0 -55 32 -83q17 -14 41 -23t52 -14l83 -13q49 -8 77 -18.5t52 -32.5q29 -25 44.5 -60t15.5 -80zM205 -216l71 149h66l-59 -149h-78z" />
    <glyph glyph-name="scommaaccent" unicode="&#x219;" horiz-adv-x="496" 
d="M445 144q0 -71 -55 -110.5t-145 -39.5q-63 0 -112.5 16t-89.5 55l48 48q29 -30 68 -43.5t85 -13.5q62 0 96.5 21.5t34.5 65.5q0 33 -19 50.5t-63 21.5l-81 7q-72 6 -109.5 38t-37.5 94q0 34 13.5 60.5t37.5 45t57 28.5t73 10q54 0 98.5 -13t78.5 -40l-47 -47
q-26 20 -59.5 29.5t-71.5 9.5q-54 0 -82 -21.5t-28 -59.5q0 -33 21 -50t67 -22l77 -7q32 -3 59 -11t46 -23.5t29.5 -39.5t10.5 -59zM161 -216l71 149h66l-59 -149h-78z" />
    <glyph glyph-name="uni021A" unicode="&#x21a;" horiz-adv-x="548" 
d="M312 644v-644h-76v644h-206v68h488v-68h-206zM171 -216l71 149h66l-59 -149h-78z" />
    <glyph glyph-name="uni021B" unicode="&#x21b;" horiz-adv-x="332" 
d="M228 0q-32 0 -55.5 10.5t-39 28.5t-23.5 42t-8 51v305h-62v55h62v151h72v-151h105v-55h-105v-303q0 -34 16 -53t51 -19h38v-62h-51zM91 -216l71 149h66l-59 -149h-78z" />
    <glyph glyph-name="uni0237" unicode="&#x237;" horiz-adv-x="253" 
d="M162 -89q0 -28 -7.5 -52t-23 -42t-39 -28t-55.5 -10h-52v63h39q38 0 52 18t14 54v578h72v-581z" />
    <glyph glyph-name="uni0259" unicode="&#x259;" 
d="M395 265q0 81 -36.5 125.5t-108.5 44.5q-43 0 -71.5 -13.5t-57.5 -42.5l-49 43q37 37 77.5 56.5t102.5 19.5q49 0 89 -15t68 -46t43 -78.5t15 -112.5q0 -121 -54 -186.5t-148 -65.5q-97 0 -149.5 63.5t-52.5 175.5v32h332zM134 211q2 -30 4.5 -46.5t11.5 -35.5
q16 -34 45.5 -54t69.5 -20t69.5 20t45.5 54q9 19 11 35.5t4 46.5h-261z" />
    <glyph glyph-name="uni02BB" unicode="&#x2bb;" horiz-adv-x="263" 
d="M88 628v84l87 79v-163h-87z" />
    <glyph glyph-name="afii57929" unicode="&#x2bc;" horiz-adv-x="263" 
d="M88 549v163h87v-84z" />
    <glyph glyph-name="circumflex" unicode="&#x2c6;" horiz-adv-x="500" 
d="M342 594l-91 104l-90 -104h-69l125 153h68l126 -153h-69z" />
    <glyph glyph-name="caron" unicode="&#x2c7;" horiz-adv-x="500" 
d="M285 594h-68l-126 153h69l91 -105l90 105h69z" />
    <glyph glyph-name="breve" unicode="&#x2d8;" horiz-adv-x="500" 
d="M415 729q-12 -139 -165 -139t-165 139h56q5 -40 34 -61.5t75 -21.5t75 21.5t34 61.5h56v0z" />
    <glyph glyph-name="dotaccent" unicode="&#x2d9;" horiz-adv-x="500" 
d="M212 687h75v-77h-75v77z" />
    <glyph glyph-name="ring" unicode="&#x2da;" horiz-adv-x="500" 
d="M368 687q0 -24 -9.5 -46t-25.5 -38t-37.5 -25.5t-45.5 -9.5t-45.5 9.5t-37.5 25.5t-25.5 38t-9.5 46t9.5 45.5t25.5 37.5t37.5 25.5t45.5 9.5t45.5 -9t37.5 -25t25.5 -37.5t9.5 -46.5zM319 687q0 29 -20 48.5t-49 19.5t-49 -19.5t-20 -48.5t20 -49t49 -20t49 20t20 49z
" />
    <glyph glyph-name="ogonek" unicode="&#x2db;" horiz-adv-x="500" 
d="M310 -216h-79l71 149h67z" />
    <glyph glyph-name="tilde" unicode="&#x2dc;" 
d="M422 658q-17 -17 -30.5 -27.5t-25 -15.5t-21 -6.5t-18.5 -1.5q-21 0 -37 6.5t-34 17.5q-14 8 -27.5 14t-28.5 6q-13 0 -25 -5t-34 -27l-37 36q17 17 30.5 27t25 15.5t21 7t18.5 1.5q22 0 37 -6t34 -18q16 -9 28.5 -14.5t27.5 -5.5q6 0 11.5 1t12.5 4t15.5 9.5t19.5 17.5
l37 -36v0z" />
    <glyph glyph-name="hungarumlaut" unicode="&#x2dd;" horiz-adv-x="500" 
d="M196 594h-66l89 153h85zM358 594h-65l89 153h85z" />
    <glyph glyph-name="uni037E" unicode="&#x37e;" horiz-adv-x="297" 
d="M117 -144v232h88v-153zM115 301v94h94v-94h-94z" />
    <glyph glyph-name="tonos" unicode="&#x384;" horiz-adv-x="255" 
d="M89 575v137h76v-99z" />
    <glyph glyph-name="dieresistonos" unicode="&#x385;" horiz-adv-x="488" 
d="M206 575v137h76v-99zM326 589v90h72v-90h-72zM90 589v90h71v-90h-71z" />
    <glyph glyph-name="Alphatonos" unicode="&#x386;" horiz-adv-x="611" 
d="M518 0l-57 161h-311l-57 -161h-81l262 712h64l261 -712h-81zM307 603l-134 -376h266zM3 575v137h76v-99z" />
    <glyph glyph-name="anoteleia" unicode="&#x387;" horiz-adv-x="270" 
d="M88 223v94h94v-94h-94z" />
    <glyph glyph-name="Epsilontonos" unicode="&#x388;" horiz-adv-x="600" 
d="M103 0v712h442v-68h-366v-251h312v-68h-312v-257h366v-68h-442zM-57 575v137h76v-99z" />
    <glyph glyph-name="Etatonos" unicode="&#x389;" horiz-adv-x="696" 
d="M517 0v325h-338v-325h-76v712h76v-319h338v319h76v-712h-76zM-57 575v137h76v-99z" />
    <glyph glyph-name="Iotatonos" unicode="&#x38a;" horiz-adv-x="282" 
d="M103 0v712h76v-712h-76zM-57 575v137h76v-99z" />
    <glyph glyph-name="Omicrontonos" unicode="&#x38c;" horiz-adv-x="650" 
d="M574 356q0 -61 -2 -105t-9 -77t-21.5 -59t-39.5 -51q-33 -33 -77 -51.5t-100 -18.5t-100.5 18.5t-77.5 51.5q-25 25 -39.5 51t-21.5 59t-8.5 77t-1.5 105t1.5 105t8.5 77t21.5 59t39.5 51q33 33 77.5 51.5t100.5 18.5t100 -18.5t77 -51.5q25 -25 39.5 -51t21.5 -59t9 -77
t2 -105zM498 356q0 55 -1.5 93.5t-6.5 66t-15 47.5t-27 37q-50 50 -123 50t-123 -50q-17 -17 -27 -37t-15 -47.5t-6.5 -66t-1.5 -93.5t1.5 -93.5t6.5 -66t15 -47.5t27 -37q50 -50 123 -50t123 50q17 17 27 37t15 47.5t6.5 66t1.5 93.5zM-37 575v137h76v-99z" />
    <glyph glyph-name="Upsilontonos" unicode="&#x38e;" horiz-adv-x="514" 
d="M296 294v-294h-76v294l-212 418h82l168 -341l166 341h82zM-107 575v137h76v-99z" />
    <glyph glyph-name="Omegatonos" unicode="&#x38f;" horiz-adv-x="650" 
d="M574 356q0 -78 -4 -131t-24 -91q-9 -19 -22 -34.5t-33 -32.5h83v-67h-195v63q30 14 52.5 31.5t39.5 45.5t22 79t5 135q0 55 -1.5 94t-6.5 67t-15 47.5t-27 36.5q-50 51 -123 51q-72 0 -123 -51q-17 -17 -27 -36.5t-15 -47.5t-6.5 -67t-1.5 -94q0 -84 5 -135t22 -79
t39 -45.5t53 -31.5v-63h-195v67h83q-20 17 -33 32.5t-23 34.5q-19 38 -23 91t-4 131q0 61 1.5 105t8.5 77t21.5 59t39.5 51q33 33 77.5 51.5t100.5 18.5t100 -18.5t77 -51.5q25 -25 39.5 -51t21.5 -59t9 -77t2 -105zM-37 575v137h76v-99z" />
    <glyph glyph-name="iotadieresistonos" unicode="&#x390;" horiz-adv-x="297" 
d="M213 0q-65 0 -95 37t-30 94v361h72v-358q0 -36 14 -54t52 -18h39v-62h-52zM89 575v137h76v-99zM209 589v90h72v-90h-72zM-27 589v90h71v-90h-71z" />
    <glyph glyph-name="Alpha" unicode="&#x391;" horiz-adv-x="611" 
d="M518 0l-57 161h-311l-57 -161h-81l262 712h64l261 -712h-81zM307 603l-134 -376h266z" />
    <glyph glyph-name="Beta" unicode="&#x392;" horiz-adv-x="668" 
d="M592 197q0 -48 -15.5 -85t-43.5 -62t-67 -37.5t-86 -12.5h-277v712h268q46 0 85 -13t66.5 -37.5t43 -59.5t15.5 -80q0 -57 -30 -98t-75 -58q51 -19 83.5 -62t32.5 -107zM516 199q0 60 -38.5 95t-104.5 35h-194v-261h194q66 0 104.5 35.5t38.5 95.5zM505 521q0 32 -11 55
t-29.5 38t-44 22.5t-55.5 7.5h-186v-247h186q30 0 55.5 7.5t44 22.5t29.5 38.5t11 55.5z" />
    <glyph glyph-name="Gamma" unicode="&#x393;" horiz-adv-x="549" 
d="M179 644v-644h-76v712h426v-68h-350z" />
    <glyph glyph-name="uni0394" unicode="&#x394;" horiz-adv-x="603" 
d="M8 0l262 712h63l261 -712h-586zM302 603l-194 -537h387z" />
    <glyph glyph-name="Epsilon" unicode="&#x395;" horiz-adv-x="600" 
d="M103 0v712h442v-68h-366v-251h312v-68h-312v-257h366v-68h-442z" />
    <glyph glyph-name="Zeta" unicode="&#x396;" horiz-adv-x="556" 
d="M57 0v72l356 572h-342v68h428v-64l-359 -580h359v-68h-442z" />
    <glyph glyph-name="Eta" unicode="&#x397;" horiz-adv-x="696" 
d="M517 0v325h-338v-325h-76v712h76v-319h338v319h76v-712h-76z" />
    <glyph glyph-name="Theta" unicode="&#x398;" horiz-adv-x="650" 
d="M574 356q0 -61 -1.5 -104.5t-8.5 -76.5t-21.5 -59t-40.5 -52q-33 -33 -77 -51.5t-100 -18.5t-100.5 18.5t-77.5 51.5q-25 25 -39.5 51t-21.5 59t-8.5 77t-1.5 105t1.5 105t8.5 77t21.5 59t39.5 51q33 33 77.5 51.5t100.5 18.5t100 -18.5t77 -51.5q26 -26 40.5 -52
t21.5 -59t8.5 -76.5t1.5 -104.5zM448 112q15 16 25 34t15 42t7.5 57t2.5 79h-346q0 -46 2 -79t7.5 -57t15 -42t25.5 -34q24 -25 55.5 -37.5t67.5 -12.5q73 0 123 50zM202 600q-15 -16 -25 -34t-15 -42t-7.5 -56t-2.5 -77h346q0 45 -2.5 77t-7.5 56t-15 42t-25 34
q-50 50 -123 50q-36 0 -67.5 -12.5t-55.5 -37.5z" />
    <glyph glyph-name="Iota" unicode="&#x399;" horiz-adv-x="282" 
d="M103 0v712h76v-712h-76z" />
    <glyph glyph-name="Kappa" unicode="&#x39a;" horiz-adv-x="650" 
d="M546 0l-217 379l-150 -180v-199h-76v712h76v-409l332 409h93l-224 -275l256 -437h-90z" />
    <glyph glyph-name="Lambda" unicode="&#x39b;" horiz-adv-x="598" 
d="M488 0l-188 604l-190 -604h-80l234 712h70l234 -712h-80z" />
    <glyph glyph-name="Mu" unicode="&#x39c;" horiz-adv-x="816" 
d="M637 0v541l-195 -429h-65l-198 429v-541h-76v712h76l232 -505l226 505h76v-712h-76z" />
    <glyph glyph-name="Nu" unicode="&#x39d;" horiz-adv-x="732" 
d="M557 0l-378 571v-571h-76v712h72l378 -569v569h76v-712h-72z" />
    <glyph glyph-name="Xi" unicode="&#x39e;" horiz-adv-x="573" 
d="M55 0v68h193v257h-139v68h139v251h-193v68h463v-68h-194v-251h140v-68h-140v-257h194v-68h-463z" />
    <glyph glyph-name="Omicron" unicode="&#x39f;" horiz-adv-x="650" 
d="M574 356q0 -61 -2 -105t-9 -77t-21.5 -59t-39.5 -51q-33 -33 -77 -51.5t-100 -18.5t-100.5 18.5t-77.5 51.5q-25 25 -39.5 51t-21.5 59t-8.5 77t-1.5 105t1.5 105t8.5 77t21.5 59t39.5 51q33 33 77.5 51.5t100.5 18.5t100 -18.5t77 -51.5q25 -25 39.5 -51t21.5 -59t9 -77
t2 -105zM498 356q0 55 -1.5 93.5t-6.5 66t-15 47.5t-27 37q-50 50 -123 50t-123 -50q-17 -17 -27 -37t-15 -47.5t-6.5 -66t-1.5 -93.5t1.5 -93.5t6.5 -66t15 -47.5t27 -37q50 -50 123 -50t123 50q17 17 27 37t15 47.5t6.5 66t1.5 93.5z" />
    <glyph glyph-name="Pi" unicode="&#x3a0;" horiz-adv-x="681" 
d="M502 0v644h-323v-644h-76v712h475v-712h-76z" />
    <glyph glyph-name="Rho" unicode="&#x3a1;" horiz-adv-x="630" 
d="M588 503q0 -48 -16 -86.5t-45.5 -66t-70 -42.5t-88.5 -15h-189v-293h-76v712h265q48 0 88.5 -15t70 -42t45.5 -65.5t16 -86.5zM512 503q0 71 -41.5 106t-108.5 35h-183v-283h183q67 0 108.5 35.5t41.5 106.5z" />
    <glyph glyph-name="Sigma" unicode="&#x3a3;" horiz-adv-x="557" 
d="M161 644l168 -261l-189 -315h359v-68h-442v71l187 310l-172 269v62h428v-68h-339z" />
    <glyph glyph-name="Tau" unicode="&#x3a4;" horiz-adv-x="548" 
d="M312 644v-644h-76v644h-206v68h488v-68h-206z" />
    <glyph glyph-name="Upsilon" unicode="&#x3a5;" horiz-adv-x="514" 
d="M296 294v-294h-76v294l-212 418h82l168 -341l166 341h82z" />
    <glyph glyph-name="Phi" unicode="&#x3a6;" horiz-adv-x="732" 
d="M670 361q0 -30 -1.5 -60t-8 -58.5t-19.5 -54.5t-36 -49q-44 -44 -92.5 -60.5t-108.5 -16.5v-62h-76v62q-60 0 -108.5 16.5t-92.5 60.5q-23 23 -36 49t-19.5 54.5t-8 58.5t-1.5 60t1.5 60t8 58.5t19.5 54.5t36 49q44 44 92.5 60.5t108.5 16.5v52h76v-52q60 0 108.5 -16.5
t92.5 -60.5q23 -23 36 -49t19.5 -54.5t8 -58.5t1.5 -60zM594 361q0 23 -1 47t-5.5 47t-14 44.5t-26.5 39.5q-30 31 -65.5 42t-77.5 11v-462q42 0 77.5 10.5t65.5 42.5q17 18 26.5 39.5t14 44.5t5.5 47t1 47zM328 592q-42 0 -77 -11t-65 -42q-17 -18 -27 -39.5t-14.5 -44.5
t-5.5 -47t-1 -47t1 -47t5.5 -47t14.5 -44.5t27 -39.5q30 -32 65 -42.5t77 -10.5v462z" />
    <glyph glyph-name="Chi" unicode="&#x3a7;" horiz-adv-x="551" 
d="M448 0l-173 299l-174 -299h-86l218 365l-204 347h88l158 -281l158 281h88l-205 -347l220 -365h-88z" />
    <glyph glyph-name="Psi" unicode="&#x3a8;" horiz-adv-x="675" 
d="M623 370q0 -54 -14.5 -91t-48.5 -71q-36 -36 -82 -55t-100 -19h-2v-134h-76v134h-3q-108 0 -182 74q-34 34 -48.5 71t-14.5 91v342h76v-342q0 -44 12 -70t34 -48q23 -24 55.5 -37t67.5 -13h3v510h76v-510h2q35 0 67.5 13t55.5 37q22 22 34 48t12 70v342h76v-342z" />
    <glyph glyph-name="uni03A9" unicode="&#x3a9;" horiz-adv-x="650" 
d="M574 356q0 -78 -4 -131t-24 -91q-9 -19 -22 -34.5t-33 -32.5h83v-67h-195v63q30 14 52.5 31.5t39.5 45.5t22 79t5 135q0 55 -1.5 94t-6.5 67t-15 47.5t-27 36.5q-50 51 -123 51q-72 0 -123 -51q-17 -17 -27 -36.5t-15 -47.5t-6.5 -67t-1.5 -94q0 -84 5 -135t22 -79
t39 -45.5t53 -31.5v-63h-195v67h83q-20 17 -33 32.5t-23 34.5q-19 38 -23 91t-4 131q0 61 1.5 105t8.5 77t21.5 59t39.5 51q33 33 77.5 51.5t100.5 18.5t100 -18.5t77 -51.5q25 -25 39.5 -51t21.5 -59t9 -77t2 -105z" />
    <glyph glyph-name="Iotadieresis" unicode="&#x3aa;" horiz-adv-x="282" 
d="M103 0v712h76v-712h-76zM214 789v89h72v-89h-72zM2 789v89h72v-89h-72z" />
    <glyph glyph-name="Upsilondieresis" unicode="&#x3ab;" horiz-adv-x="514" 
d="M296 294v-294h-76v294l-212 418h82l168 -341l166 341h82zM328 789v89h72v-89h-72zM116 789v89h72v-89h-72z" />
    <glyph glyph-name="alphatonos" unicode="&#x3ac;" horiz-adv-x="545" 
d="M384 0v59q-31 -39 -64.5 -52t-75.5 -13q-38 0 -69 11.5t-51 31.5q-37 38 -48.5 93.5t-11.5 115.5q0 30 2.5 59.5t9 56.5t18.5 51t30 42q20 20 51 31.5t69 11.5q42 0 75.5 -13t64.5 -51v58h71v-492h-71zM383 246q0 36 -4 70t-17 60t-37.5 42t-64.5 16q-41 0 -65 -16
t-37.5 -42t-17.5 -60t-4 -70t4 -70t17.5 -60t37.5 -42t65 -16q40 0 64.5 16t37.5 42t17 60t4 70zM228 575v137h76v-99z" />
    <glyph glyph-name="epsilontonos" unicode="&#x3ad;" horiz-adv-x="493" 
d="M450 73q-50 -47 -100 -63t-110 -16q-35 0 -67 9t-57 26.5t-39.5 44t-14.5 62.5q0 46 21.5 73.5t58.5 42.5q-32 13 -51.5 39.5t-19.5 67.5q0 33 15 59t39.5 44t56 27t64.5 9q32 0 58 -3.5t49 -12t43.5 -22t41.5 -33.5l-45 -48q-33 30 -67 44t-77 14q-19 0 -37.5 -6
t-33.5 -16.5t-24 -25t-9 -32.5q0 -35 23 -56.5t68 -21.5h87v-57h-85q-29 0 -48.5 -7t-31 -18.5t-16.5 -26.5t-5 -31q0 -37 30.5 -60t75.5 -23q35 0 76 12t81 49zM218 575v137h76v-99z" />
    <glyph glyph-name="etatonos" unicode="&#x3ae;" horiz-adv-x="562" 
d="M405 0v303q0 66 -32.5 98.5t-88.5 32.5t-89 -33t-33 -98v-303h-72v492h72v-54q26 30 61 45t77 15q80 0 126 -46q51 -50 51 -137v-315h-72zM248 575v137h76v-99z" />
    <glyph glyph-name="iotatonos" unicode="&#x3af;" horiz-adv-x="297" 
d="M213 0q-65 0 -95 37t-30 94v361h72v-358q0 -36 14 -54t52 -18h39v-62h-52zM89 575v137h76v-99z" />
    <glyph glyph-name="upsilondieresistonos" unicode="&#x3b0;" horiz-adv-x="521" 
d="M453 245q0 -26 -1.5 -52t-7 -51t-17 -48.5t-31.5 -43.5q-28 -28 -60.5 -42t-75.5 -14t-75 14t-60 42q-20 20 -31.5 43.5t-17 48.5t-7 51t-1.5 52v247h71v-257q0 -37 4.5 -75t30.5 -64q19 -19 39 -28.5t47 -9.5t47 9.5t39 28.5q26 26 30.5 64t4.5 75v257h72v-247zM222 575
v137h76v-99zM342 589v90h72v-90h-72zM106 589v90h71v-90h-71z" />
    <glyph glyph-name="alpha" unicode="&#x3b1;" horiz-adv-x="545" 
d="M384 0v59q-31 -39 -64.5 -52t-75.5 -13q-38 0 -69 11.5t-51 31.5q-37 38 -48.5 93.5t-11.5 115.5q0 30 2.5 59.5t9 56.5t18.5 51t30 42q20 20 51 31.5t69 11.5q42 0 75.5 -13t64.5 -51v58h71v-492h-71zM383 246q0 36 -4 70t-17 60t-37.5 42t-64.5 16q-41 0 -65 -16
t-37.5 -42t-17.5 -60t-4 -70t4 -70t17.5 -60t37.5 -42t65 -16q40 0 64.5 16t37.5 42t17 60t4 70z" />
    <glyph glyph-name="beta" unicode="&#x3b2;" horiz-adv-x="553" 
d="M505 202q0 -42 -14.5 -79.5t-39.5 -66t-59 -45.5t-74 -17q-48 0 -86 12t-71 53v-59h-71v533q0 39 14 71.5t39 56.5t60.5 37.5t77.5 13.5q41 0 75.5 -10.5t59 -32t38.5 -53.5t14 -74q0 -24 -5 -48.5t-16 -46t-30 -38t-46 -23.5q61 -10 97.5 -53t36.5 -131zM435 205
q0 47 -13.5 75.5t-36 43.5t-52 20t-61.5 5h-59v57h61q43 0 68 13t37.5 32t16 41t3.5 40q0 33 -9 56t-25 37.5t-37 21t-45 6.5q-63 0 -92 -39.5t-29 -99.5v-309q0 -28 7.5 -54.5t23.5 -47.5t41.5 -34t61.5 -13q37 0 63.5 13.5t43 34.5t24.5 47.5t8 53.5z" />
    <glyph glyph-name="gamma" unicode="&#x3b3;" horiz-adv-x="447" 
d="M259 5v-225h-71v225l-176 487h77l135 -398l134 398h77z" />
    <glyph glyph-name="delta" unicode="&#x3b4;" horiz-adv-x="531" 
d="M467 253q0 -58 -12.5 -112.5t-49.5 -92.5q-52 -54 -141 -54q-86 0 -138 54q-37 38 -49.5 89.5t-12.5 108.5q0 53 12.5 103t47.5 86q51 53 130 53q14 0 29 -2.5t28 -8.5l-193 175v60h306v-60h-217l158 -146q31 -29 51 -59.5t31 -62t15.5 -64.5t4.5 -67zM394 246
q0 40 -6.5 80t-30.5 67q-34 39 -89 39q-57 0 -92 -37q-26 -27 -33 -67.5t-7 -81.5q0 -20 1 -40.5t5 -40t11.5 -37t20.5 -31.5q17 -19 39.5 -29t51.5 -10q57 0 92 38q25 28 31 68.5t6 81.5z" />
    <glyph glyph-name="epsilon" unicode="&#x3b5;" horiz-adv-x="493" 
d="M450 73q-50 -47 -100 -63t-110 -16q-35 0 -67 9t-57 26.5t-39.5 44t-14.5 62.5q0 46 21.5 73.5t58.5 42.5q-32 13 -51.5 39.5t-19.5 67.5q0 33 15 59t39.5 44t56 27t64.5 9q32 0 58 -3.5t49 -12t43.5 -22t41.5 -33.5l-45 -48q-33 30 -67 44t-77 14q-19 0 -37.5 -6
t-33.5 -16.5t-24 -25t-9 -32.5q0 -35 23 -56.5t68 -21.5h87v-57h-85q-29 0 -48.5 -7t-31 -18.5t-16.5 -26.5t-5 -31q0 -37 30.5 -60t75.5 -23q35 0 76 12t81 49z" />
    <glyph glyph-name="zeta" unicode="&#x3b6;" horiz-adv-x="470" 
d="M434 -45q0 -22 -7 -43t-22.5 -37t-42 -25.5t-65.5 -9.5v56q31 0 51.5 12t20.5 42q0 28 -18.5 39t-56.5 11h-48q-96 0 -145 28t-49 103q0 40 15 71.5t52 62.5q2 2 15.5 13.5t33 28.5t42.5 36.5t43.5 37t37 30.5t23.5 17h-232v64h343v-64l-152 -126q-36 -30 -63 -51.5
t-45 -40t-27.5 -37t-9.5 -41.5q0 -41 34 -53.5t96 -12.5h39q28 0 53 -6t44 -19t29.5 -34.5t10.5 -51.5z" />
    <glyph glyph-name="eta" unicode="&#x3b7;" horiz-adv-x="562" 
d="M405 0v303q0 66 -32.5 98.5t-88.5 32.5t-89 -33t-33 -98v-303h-72v492h72v-54q26 30 61 45t77 15q80 0 126 -46q51 -50 51 -137v-315h-72z" />
    <glyph glyph-name="theta" unicode="&#x3b8;" horiz-adv-x="552" 
d="M481 356q0 -42 -1 -85.5t-7 -83.5t-19.5 -75t-38.5 -60q-28 -29 -61 -43.5t-78 -14.5t-78.5 14.5t-60.5 43.5q-25 25 -38.5 60t-19.5 75t-7 83.5t-1 85.5t1 85.5t7 83.5t19.5 75t38.5 60q27 29 60.5 43.5t78.5 14.5t78 -14.5t61 -43.5q25 -25 38.5 -60t19.5 -75t7 -83.5
t1 -85.5zM144 342q0 -41 1 -78.5t5.5 -69t13 -56.5t24.5 -41q18 -19 38.5 -29t49.5 -10q28 0 49 10t39 29q15 16 24 41t13.5 56.5t5.5 69t1 78.5h-264zM408 404q0 28 -1 59t-5.5 59.5t-13.5 52.5t-24 40q-18 19 -39 29t-49 10q-29 0 -49.5 -10t-38.5 -29q-15 -16 -24 -40
t-13.5 -52.5t-5.5 -59.5t-1 -59h264z" />
    <glyph glyph-name="iota" unicode="&#x3b9;" horiz-adv-x="297" 
d="M213 0q-65 0 -95 37t-30 94v361h72v-358q0 -36 14 -54t52 -18h39v-62h-52z" />
    <glyph glyph-name="kappa" unicode="&#x3ba;" horiz-adv-x="536" 
d="M414 0l-156 252l-96 -109v-143h-72v492h72v-256l222 256h89l-166 -188l196 -304h-89z" />
    <glyph glyph-name="lambda" unicode="&#x3bb;" horiz-adv-x="479" 
d="M459 0q-26 0 -46.5 7t-39.5 24q-11 10 -20 25t-16 36l-97 302l-146 -394h-78l191 483l-37 117q-10 31 -25 41.5t-47 10.5h-18v62h23q48 0 79 -18.5t48 -68.5l167 -507q19 -58 67 -58h23v-62h-28z" />
    <glyph glyph-name="uni03BC" unicode="&#x3bc;" horiz-adv-x="561" 
d="M399 0v55q-53 -61 -138 -61q-66 0 -106 37v-251h-72v712h72v-303q0 -66 32.5 -98.5t88.5 -32.5t89.5 33t33.5 98v303h72v-492h-72z" />
    <glyph glyph-name="nu" unicode="&#x3bd;" horiz-adv-x="447" 
d="M256 0h-64l-180 492h78l134 -395l135 395h78z" />
    <glyph glyph-name="xi" unicode="&#x3be;" horiz-adv-x="492" 
d="M426 570q-30 32 -63.5 50t-76.5 18q-57 0 -90.5 -33.5t-33.5 -91.5q0 -57 32 -85t90 -28h120v-63h-118q-24 0 -51 -8.5t-49 -25.5t-36.5 -44.5t-14.5 -64.5q0 -36 12 -60.5t32.5 -40t48 -22.5t57.5 -7h53q24 0 46 -6.5t38.5 -20t26 -34t9.5 -48.5q0 -22 -7 -43t-22.5 -37
t-42 -25.5t-65.5 -9.5v56q31 0 51 12t20 42q0 28 -18 39t-56 11h-55q-44 0 -81 14t-64 39t-42.5 60t-15.5 78q0 69 35 116t89 64q-43 13 -69.5 52t-26.5 90q0 41 14.5 75.5t41 59t62.5 38.5t80 14q50 0 97 -19t89 -66z" />
    <glyph glyph-name="omicron" unicode="&#x3bf;" 
d="M466 246q0 -57 -11.5 -107.5t-48.5 -88.5q-26 -26 -61 -41t-80 -15t-80 15t-61 41q-19 19 -30.5 41.5t-18 47t-9 51.5t-2.5 56q0 57 11 107.5t49 88.5q26 26 61 41t80 15t80 -15t61 -41q38 -38 49 -88.5t11 -107.5zM394 246q0 42 -6 83.5t-33 68.5q-36 36 -90 36
q-53 0 -89 -36q-27 -27 -33.5 -68.5t-6.5 -83.5q0 -21 1 -42t5 -41t12 -37.5t22 -31.5q36 -36 89 -36q54 0 90 36q27 28 33 69t6 83z" />
    <glyph glyph-name="pi" unicode="&#x3c0;" horiz-adv-x="564" 
d="M410 0v427h-250v-427h-70v492h389v-492h-69z" />
    <glyph glyph-name="rho" unicode="&#x3c1;" horiz-adv-x="517" 
d="M453 245q0 -58 -14 -114.5t-52 -93.5q-20 -20 -51 -31.5t-70 -11.5q-36 0 -67 13t-63 49v-276h-72v495q0 58 13.5 98.5t44.5 71.5q22 22 54 37.5t81 15.5q54 0 89 -18.5t57 -44.5q28 -34 39 -79t11 -111zM381 246q0 49 -5.5 85t-24.5 62q-14 18 -37.5 29t-55.5 11
q-31 0 -52 -10.5t-35 -27.5q-21 -26 -28 -61.5t-7 -84.5q0 -39 4 -76t21 -63q15 -23 37 -37t60 -14q40 0 64 16.5t37 43t17.5 60t4.5 67.5z" />
    <glyph glyph-name="sigma1" unicode="&#x3c2;" horiz-adv-x="490" 
d="M394 379q-28 31 -53 43t-60 12q-36 0 -65 -14t-49 -42q-17 -24 -24.5 -54t-7.5 -78q0 -42 7 -71.5t24 -53.5q22 -32 52 -43.5t71 -12.5q29 0 56 -5.5t47.5 -18.5t32.5 -34t12 -52q0 -22 -7 -43t-23 -37t-42.5 -25.5t-65.5 -9.5v56q31 0 51.5 12t20.5 42q0 18 -7 28
t-19 15t-27 6t-30 1q-103 1 -164 62t-61 184q0 63 16.5 110t45.5 78.5t69 47.5t87 16q51 0 87.5 -16t74.5 -57z" />
    <glyph glyph-name="sigma" unicode="&#x3c3;" horiz-adv-x="549" 
d="M394 430q37 -29 55 -78.5t18 -105.5q0 -57 -11.5 -107.5t-48.5 -88.5q-26 -26 -60.5 -41t-80.5 -15q-45 0 -80 15t-61 41q-19 19 -30.5 41.5t-18 47t-9 51.5t-2.5 56q0 28 2 54.5t8 50.5t17.5 46t30.5 41q26 26 61 40t80 14h220v-62h-90zM395 246q0 42 -7 81.5t-34 67.5
q-35 35 -90 35q-53 0 -89 -36q-27 -28 -32.5 -67t-5.5 -81t6 -83t33 -69q36 -36 90 -36t89 36q14 14 22 31.5t12 37.5t5 41t1 42z" />
    <glyph glyph-name="tau" unicode="&#x3c4;" horiz-adv-x="378" 
d="M225 428v-428h-72v428h-121v64h314v-64h-121z" />
    <glyph glyph-name="upsilon" unicode="&#x3c5;" horiz-adv-x="521" 
d="M453 245q0 -26 -1.5 -52t-7 -51t-17 -48.5t-31.5 -43.5q-28 -28 -60.5 -42t-75.5 -14t-75 14t-60 42q-20 20 -31.5 43.5t-17 48.5t-7 51t-1.5 52v247h71v-257q0 -37 4.5 -75t30.5 -64q19 -19 39 -28.5t47 -9.5t47 9.5t39 28.5q26 26 30.5 64t4.5 75v257h72v-247z" />
    <glyph glyph-name="phi" unicode="&#x3c6;" horiz-adv-x="659" 
d="M595 250q0 -59 -11 -106.5t-37.5 -80.5t-70.5 -51t-111 -18v-214h-72v214q-66 1 -110.5 21t-70.5 54.5t-37 80.5t-11 98q0 87 31.5 147.5t98.5 95.5l22 -60q-25 -16 -40.5 -37t-24.5 -45t-12 -50.5t-3 -53.5q0 -36 5.5 -69t22 -58.5t47.5 -41.5t82 -18v434h83
q118 0 168.5 -60.5t50.5 -181.5zM522 253q0 39 -5 71t-21.5 55.5t-47.5 36t-83 12.5v-370q54 1 85.5 17t47.5 42t20 61t4 75z" />
    <glyph glyph-name="chi" unicode="&#x3c7;" horiz-adv-x="478" 
d="M358 0l-118 191l-120 -191h-87l167 251l-160 241h87l113 -182l111 182h87l-160 -241l167 -251h-87z" />
    <glyph glyph-name="psi" unicode="&#x3c8;" horiz-adv-x="641" 
d="M573 246q0 -60 -11.5 -106t-37 -78t-67 -49t-101.5 -18v-215h-73v215q-60 1 -101.5 18t-66.5 48.5t-36 78t-11 106.5v246h72v-246q0 -44 5.5 -78t21 -57.5t43.5 -36t73 -13.5v431h73v-431q45 1 73.5 13.5t44 36t21 57.5t5.5 78v246h73v-246z" />
    <glyph glyph-name="omega" unicode="&#x3c9;" horiz-adv-x="723" 
d="M659 242q0 -47 -7.5 -93.5t-27.5 -81.5q-20 -34 -53 -53.5t-83 -19.5q-48 0 -80 27.5t-47 65.5q-15 -38 -46.5 -65.5t-79.5 -27.5q-50 0 -83 19.5t-53 53.5q-20 35 -27.5 81.5t-7.5 93.5q0 25 3 51.5t9.5 52t16 47t21.5 36.5q9 10 20.5 21.5t27.5 21.5t36 17t44 9v-66
q-25 -2 -46.5 -19t-32.5 -34q-7 -12 -12.5 -23.5t-9 -27t-5 -36t-1.5 -50.5q0 -14 0.5 -31.5t3 -36.5t7 -37.5t13.5 -33.5q11 -20 30.5 -32.5t45.5 -12.5q36 0 55 23.5t27 55.5q6 26 7 52t1 46v126h73v-143q0 -18 1 -39.5t6 -41.5q8 -32 27 -55.5t56 -23.5q26 0 45.5 12.5
t30.5 32.5q9 15 13.5 33.5t6.5 37.5t2.5 36.5t0.5 31.5q0 30 -1.5 50.5t-5 36t-8.5 27t-12 23.5q-11 17 -33 34t-47 19v66q24 -2 44 -9t35.5 -17t27.5 -21.5t21 -21.5q12 -15 21.5 -36.5t16 -47t10 -52t3.5 -51.5z" />
    <glyph glyph-name="iotadieresis" unicode="&#x3ca;" horiz-adv-x="297" 
d="M213 0q-65 0 -95 37t-30 94v361h72v-358q0 -36 14 -54t52 -18h39v-62h-52zM198 602v89h72v-89h-72zM-14 602v89h72v-89h-72z" />
    <glyph glyph-name="upsilondieresis" unicode="&#x3cb;" horiz-adv-x="521" 
d="M453 245q0 -26 -1.5 -52t-7 -51t-17 -48.5t-31.5 -43.5q-28 -28 -60.5 -42t-75.5 -14t-75 14t-60 42q-20 20 -31.5 43.5t-17 48.5t-7 51t-1.5 52v247h71v-257q0 -37 4.5 -75t30.5 -64q19 -19 39 -28.5t47 -9.5t47 9.5t39 28.5q26 26 30.5 64t4.5 75v257h72v-247zM335 602
v89h72v-89h-72zM123 602v89h72v-89h-72z" />
    <glyph glyph-name="omicrontonos" unicode="&#x3cc;" 
d="M466 246q0 -57 -11.5 -107.5t-48.5 -88.5q-26 -26 -61 -41t-80 -15t-80 15t-61 41q-19 19 -30.5 41.5t-18 47t-9 51.5t-2.5 56q0 57 11 107.5t49 88.5q26 26 61 41t80 15t80 -15t61 -41q38 -38 49 -88.5t11 -107.5zM394 246q0 42 -6 83.5t-33 68.5q-36 36 -90 36
q-53 0 -89 -36q-27 -27 -33.5 -68.5t-6.5 -83.5q0 -21 1 -42t5 -41t12 -37.5t22 -31.5q36 -36 89 -36q54 0 90 36q27 28 33 69t6 83zM228 575v137h76v-99z" />
    <glyph glyph-name="upsilontonos" unicode="&#x3cd;" horiz-adv-x="521" 
d="M453 245q0 -26 -1.5 -52t-7 -51t-17 -48.5t-31.5 -43.5q-28 -28 -60.5 -42t-75.5 -14t-75 14t-60 42q-20 20 -31.5 43.5t-17 48.5t-7 51t-1.5 52v247h71v-257q0 -37 4.5 -75t30.5 -64q19 -19 39 -28.5t47 -9.5t47 9.5t39 28.5q26 26 30.5 64t4.5 75v257h72v-247zM218 575
v137h76v-99z" />
    <glyph glyph-name="omegatonos" unicode="&#x3ce;" horiz-adv-x="723" 
d="M659 242q0 -47 -7.5 -93.5t-27.5 -81.5q-20 -34 -53 -53.5t-83 -19.5q-48 0 -80 27.5t-47 65.5q-15 -38 -46.5 -65.5t-79.5 -27.5q-50 0 -83 19.5t-53 53.5q-20 35 -27.5 81.5t-7.5 93.5q0 25 3 51.5t9.5 52t16 47t21.5 36.5q9 10 20.5 21.5t27.5 21.5t36 17t44 9v-66
q-25 -2 -46.5 -19t-32.5 -34q-7 -12 -12.5 -23.5t-9 -27t-5 -36t-1.5 -50.5q0 -14 0.5 -31.5t3 -36.5t7 -37.5t13.5 -33.5q11 -20 30.5 -32.5t45.5 -12.5q36 0 55 23.5t27 55.5q6 26 7 52t1 46v126h73v-143q0 -18 1 -39.5t6 -41.5q8 -32 27 -55.5t56 -23.5q26 0 45.5 12.5
t30.5 32.5q9 15 13.5 33.5t6.5 37.5t2.5 36.5t0.5 31.5q0 30 -1.5 50.5t-5 36t-8.5 27t-12 23.5q-11 17 -33 34t-47 19v66q24 -2 44 -9t35.5 -17t27.5 -21.5t21 -21.5q12 -15 21.5 -36.5t16 -47t10 -52t3.5 -51.5zM318 575v137h76v-99z" />
    <glyph glyph-name="uni03D0" unicode="&#x3d0;" horiz-adv-x="553" 
d="M505 202q0 -42 -14.5 -79.5t-39.5 -66t-59 -45.5t-74 -17q-24 0 -45 2.5t-40.5 9.5t-37 19.5t-33.5 32.5v-278h-72v753q0 39 14 71.5t39 56.5t60.5 37.5t77.5 13.5q41 0 75.5 -10.5t59 -32t38.5 -53.5t14 -74q0 -24 -5 -48.5t-16 -46t-30 -38t-46 -23.5q61 -10 97.5 -53
t36.5 -131zM435 205q0 47 -13.5 75.5t-36 43.5t-52 20t-61.5 5h-59v57h61q43 0 68 13t37.5 32t16 41t3.5 40q0 33 -9 56t-25 37.5t-37 21t-45 6.5q-63 0 -92 -39.5t-29 -99.5v-309q0 -28 7.5 -54.5t23.5 -47.5t41.5 -34t61.5 -13q37 0 63.5 13.5t43 34.5t24.5 47.5t8 53.5z
" />
    <glyph glyph-name="uni0400" unicode="&#x400;" horiz-adv-x="600" 
d="M296 780l-105 154h83l91 -154h-69zM103 0v712h442v-68h-366v-251h312v-68h-312v-257h366v-68h-442z" />
    <glyph glyph-name="afii10023" unicode="&#x401;" horiz-adv-x="600" 
d="M103 0v712h442v-68h-366v-251h312v-68h-312v-257h366v-68h-442zM384 789v89h72v-89h-72zM172 789v89h72v-89h-72z" />
    <glyph glyph-name="afii10051" unicode="&#x402;" horiz-adv-x="744" 
d="M656 218q0 -52 -15.5 -92.5t-44.5 -68.5t-69.5 -42.5t-89.5 -14.5h-41v67h33q72 0 111.5 36.5t39.5 113.5t-39.5 114t-111.5 37h-152v-368h-76v644h-175v68h487v-68h-236v-209h160q49 0 89.5 -14.5t69.5 -42.5t44.5 -68t15.5 -92z" />
    <glyph glyph-name="afii10052" unicode="&#x403;" horiz-adv-x="569" 
d="M186 644v-644h-76v712h428v-68h-352zM335 780h-69l91 154h83z" />
    <glyph glyph-name="afii10053" unicode="&#x404;" horiz-adv-x="637" 
d="M572 206q-19 -100 -85 -156t-162 -56q-56 0 -100.5 18.5t-77.5 51.5q-25 25 -39.5 51t-21.5 59t-8.5 77t-1.5 105t1.5 105t8.5 77t21.5 59t39.5 51q33 33 77.5 51.5t100.5 18.5q97 0 162.5 -56t84.5 -156h-77q-14 67 -58.5 106t-111.5 39q-75 0 -124 -51q-15 -16 -25 -34
t-15 -42t-7 -56t-2 -76h268v-67h-268q0 -46 1.5 -79t7 -57.5t15 -42.5t25.5 -34q49 -51 124 -51q67 0 112 39t60 106h75z" />
    <glyph glyph-name="afii10054" unicode="&#x405;" horiz-adv-x="588" 
d="M532 196q0 -47 -17.5 -84.5t-49.5 -63.5t-77.5 -40t-101.5 -14q-40 0 -73.5 5.5t-63 16.5t-55.5 29t-51 43l51 51q44 -44 89 -60.5t105 -16.5q79 0 124 34.5t45 97.5q0 58 -35 89q-8 7 -16.5 12.5t-19 9.5t-24.5 7t-33 6l-83 12q-84 13 -130 54q-55 49 -55 134
q0 45 16 82t45.5 63.5t71.5 40.5t95 14q68 0 117 -19t95 -59l-49 -49q-32 31 -71 46.5t-95 15.5q-72 0 -111.5 -36.5t-39.5 -96.5q0 -55 32 -83q17 -14 41 -23t52 -14l83 -13q49 -8 77 -18.5t52 -32.5q29 -25 44.5 -60t15.5 -80z" />
    <glyph glyph-name="afii10055" unicode="&#x406;" horiz-adv-x="282" 
d="M103 0v712h76v-712h-76z" />
    <glyph glyph-name="afii10056" unicode="&#x407;" horiz-adv-x="282" 
d="M103 0v712h76v-712h-76zM212 789v89h72v-89h-72zM0 789v89h72v-89h-72z" />
    <glyph glyph-name="afii10057" unicode="&#x408;" horiz-adv-x="501" 
d="M408 216q0 -51 -16.5 -92.5t-46 -70t-70 -44t-89.5 -15.5q-51 0 -90.5 15.5t-72.5 48.5l51 51q19 -20 43.5 -33.5t68.5 -13.5q70 0 108 42.5t38 121.5v486h76v-496z" />
    <glyph glyph-name="afii10058" unicode="&#x409;" horiz-adv-x="1025" 
d="M909 209q0 68 -39.5 105t-111.5 37h-184v-283h184q72 0 111.5 37t39.5 104zM574 712v-293h192q49 0 89.5 -15t69.5 -42.5t44.5 -66.5t15.5 -86t-15.5 -85.5t-44.5 -66t-69.5 -42.5t-89.5 -15h-268v644h-242v-244q0 -113 -13.5 -189.5t-39.5 -123t-65 -67t-90 -20.5h-36
v68h19q33 0 60.5 14t48 52.5t31.5 108t11 180.5v289h392z" />
    <glyph glyph-name="afii10059" unicode="&#x40a;" horiz-adv-x="1043" 
d="M1003 209q0 -47 -15.5 -85.5t-44.5 -66t-69.5 -42.5t-89.5 -15h-268v351h-337v-351h-76v712h76v-293h337v293h76v-293h192q49 0 89.5 -15t69.5 -42.5t44.5 -66.5t15.5 -86zM927 209q0 68 -39.5 105t-111.5 37h-184v-283h184q72 0 111.5 37t39.5 104z" />
    <glyph glyph-name="afii10060" unicode="&#x40b;" horiz-adv-x="744" 
d="M580 0v227q0 67 -39.5 104t-111.5 37h-152v-368h-76v644h-175v68h487v-68h-236v-209h160q49 0 89.5 -15t69.5 -42t44.5 -65.5t15.5 -85.5v-227h-76z" />
    <glyph glyph-name="afii10061" unicode="&#x40c;" horiz-adv-x="611" 
d="M107 0v712h76v-712h-76zM511 0l-327 372l305 340h96l-312 -338l339 -374h-101zM346 780h-69l91 154h83z" />
    <glyph glyph-name="uni040D" unicode="&#x40d;" horiz-adv-x="716" 
d="M537 0v581l-362 -581h-72v712h76v-580l362 580h72v-712h-76zM327 780l-105 154h83l91 -154h-69z" />
    <glyph glyph-name="afii10062" unicode="&#x40e;" horiz-adv-x="546" 
d="M429 883q-5 -67 -44 -96.5t-102 -29.5t-102 29.5t-44 96.5h64q6 -74 82 -74t82 74h64zM279 111q-21 -49 -54 -80t-86 -31h-62v68h45q37 0 57.5 17t36.5 54l29 67l-235 506h81l192 -421l173 421h81z" />
    <glyph glyph-name="afii10145" unicode="&#x40f;" horiz-adv-x="696" 
d="M386 0v-172h-75v172h-208v712h76v-644h337v644h76v-712h-206z" />
    <glyph glyph-name="afii10017" unicode="&#x410;" horiz-adv-x="611" 
d="M518 0l-57 161h-311l-57 -161h-81l262 712h64l261 -712h-81zM307 603l-134 -376h266z" />
    <glyph glyph-name="afii10018" unicode="&#x411;" horiz-adv-x="656" 
d="M591 209q0 -47 -15.5 -85.5t-44 -66t-69 -42.5t-90.5 -15h-269v712h444v-68h-368v-225h193q50 0 90.5 -15t69 -42.5t44 -66.5t15.5 -86zM515 209q0 68 -39 105t-111 37h-186v-283h186q72 0 111 37t39 104z" />
    <glyph glyph-name="afii10019" unicode="&#x412;" horiz-adv-x="668" 
d="M592 197q0 -48 -15.5 -85t-43.5 -62t-67 -37.5t-86 -12.5h-277v712h268q46 0 85 -13t66.5 -37.5t43 -59.5t15.5 -80q0 -57 -30 -98t-75 -58q51 -19 83.5 -62t32.5 -107zM516 199q0 60 -38.5 95t-104.5 35h-194v-261h194q66 0 104.5 35.5t38.5 95.5zM505 521q0 32 -11 55
t-29.5 38t-44 22.5t-55.5 7.5h-186v-247h186q30 0 55.5 7.5t44 22.5t29.5 38.5t11 55.5z" />
    <glyph glyph-name="afii10020" unicode="&#x413;" horiz-adv-x="569" 
d="M186 644v-644h-76v712h428v-68h-352z" />
    <glyph glyph-name="afii10021" unicode="&#x414;" horiz-adv-x="694" 
d="M89 68q49 77 69.5 175t20.5 229v240h389v-644h85v-240h-75v172h-477v-172h-75v240h63zM492 68v576h-241v-219q0 -100 -17 -191t-60 -166h318z" />
    <glyph glyph-name="afii10022" unicode="&#x415;" horiz-adv-x="600" 
d="M103 0v712h442v-68h-366v-251h312v-68h-312v-257h366v-68h-442z" />
    <glyph glyph-name="afii10024" unicode="&#x416;" horiz-adv-x="902" 
d="M803 0l-313 372l290 340h96l-299 -338l326 -374h-100zM-1 0l326 374l-300 338h96l291 -340l-313 -372h-100zM413 0v712h76v-712h-76z" />
    <glyph glyph-name="afii10025" unicode="&#x417;" horiz-adv-x="616" 
d="M303 -6q-46 0 -86.5 14.5t-72 41.5t-53 66.5t-30.5 89.5h75q14 -66 59 -105.5t112 -39.5q34 0 62.5 9.5t49.5 27t33 43t12 57.5q0 67 -37.5 100t-107.5 33h-90v66h93q63 0 97 33t34 96q0 61 -39.5 93.5t-105.5 32.5q-67 0 -111 -40t-59 -106h-76q9 50 30.5 89.5
t53.5 66.5t73.5 41.5t89.5 14.5t88 -13t69.5 -38t46 -60t16.5 -78q0 -115 -103 -162q56 -20 85 -62.5t29 -108.5q0 -47 -18 -84t-50 -63.5t-75 -40.5t-94 -14z" />
    <glyph glyph-name="afii10026" unicode="&#x418;" horiz-adv-x="716" 
d="M537 0v581l-362 -581h-72v712h76v-580l362 580h72v-712h-76z" />
    <glyph glyph-name="afii10027" unicode="&#x419;" horiz-adv-x="716" 
d="M504 883q-5 -67 -44 -96.5t-102 -29.5t-102 29.5t-44 96.5h64q6 -74 82 -74t82 74h64zM537 0v581l-362 -581h-72v712h76v-580l362 580h72v-712h-76z" />
    <glyph glyph-name="afii10028" unicode="&#x41a;" horiz-adv-x="611" 
d="M107 0v712h76v-712h-76zM511 0l-327 372l305 340h96l-312 -338l339 -374h-101z" />
    <glyph glyph-name="afii10029" unicode="&#x41b;" horiz-adv-x="677" 
d="M498 0v644h-242v-244q0 -113 -13.5 -189.5t-39.5 -123t-65 -67t-90 -20.5h-36v68h19q33 0 60.5 14t48 52.5t31.5 108t11 180.5v289h392v-712h-76z" />
    <glyph glyph-name="afii10030" unicode="&#x41c;" horiz-adv-x="816" 
d="M637 0v541l-195 -429h-65l-198 429v-541h-76v712h76l232 -505l226 505h76v-712h-76z" />
    <glyph glyph-name="afii10031" unicode="&#x41d;" horiz-adv-x="696" 
d="M517 0v325h-338v-325h-76v712h76v-319h338v319h76v-712h-76z" />
    <glyph glyph-name="afii10032" unicode="&#x41e;" horiz-adv-x="650" 
d="M574 356q0 -61 -2 -105t-9 -77t-21.5 -59t-39.5 -51q-33 -33 -77 -51.5t-100 -18.5t-100.5 18.5t-77.5 51.5q-25 25 -39.5 51t-21.5 59t-8.5 77t-1.5 105t1.5 105t8.5 77t21.5 59t39.5 51q33 33 77.5 51.5t100.5 18.5t100 -18.5t77 -51.5q25 -25 39.5 -51t21.5 -59t9 -77
t2 -105zM498 356q0 55 -1.5 93.5t-6.5 66t-15 47.5t-27 37q-50 50 -123 50t-123 -50q-17 -17 -27 -37t-15 -47.5t-6.5 -66t-1.5 -93.5t1.5 -93.5t6.5 -66t15 -47.5t27 -37q50 -50 123 -50t123 50q17 17 27 37t15 47.5t6.5 66t1.5 93.5z" />
    <glyph glyph-name="afii10033" unicode="&#x41f;" horiz-adv-x="696" 
d="M516 0v644h-337v-644h-76v712h489v-712h-76z" />
    <glyph glyph-name="afii10034" unicode="&#x420;" horiz-adv-x="630" 
d="M588 503q0 -48 -16 -86.5t-45.5 -66t-70 -42.5t-88.5 -15h-189v-293h-76v712h265q48 0 88.5 -15t70 -42t45.5 -65.5t16 -86.5zM512 503q0 71 -41.5 106t-108.5 35h-183v-283h183q67 0 108.5 35.5t41.5 106.5z" />
    <glyph glyph-name="afii10035" unicode="&#x421;" horiz-adv-x="637" 
d="M572 206q-19 -100 -84.5 -156t-162.5 -56q-56 0 -100.5 18.5t-77.5 51.5q-25 25 -39.5 51t-21.5 59t-8.5 77t-1.5 105t1.5 105t8.5 77t21.5 59t39.5 51q33 33 77.5 51.5t100.5 18.5q97 0 162.5 -56t84.5 -156h-78q-14 66 -58 105t-111 39q-73 0 -123 -50q-17 -17 -27 -37
t-15 -47.5t-6.5 -66t-1.5 -93.5t1.5 -93.5t6.5 -66t15 -47.5t27 -37q50 -50 123 -50q67 0 112 39t59 105h76z" />
    <glyph glyph-name="afii10036" unicode="&#x422;" horiz-adv-x="548" 
d="M312 644v-644h-76v644h-206v68h488v-68h-206z" />
    <glyph glyph-name="afii10037" unicode="&#x423;" horiz-adv-x="546" 
d="M279 111q-21 -49 -54 -80t-86 -31h-62v68h45q37 0 57.5 17t36.5 54l29 67l-235 506h81l192 -421l173 421h81z" />
    <glyph glyph-name="afii10038" unicode="&#x424;" horiz-adv-x="779" 
d="M428 153q62 1 104.5 17t68 45t36.5 70.5t11 93.5t-10.5 93.5t-35.5 70.5t-67.5 45t-106.5 18v-453zM352 606q-65 -2 -107.5 -18t-67.5 -45t-35.5 -70.5t-10.5 -93.5t11 -93.5t37 -70.5t68 -45t105 -17v453zM352 -4v92q-79 3 -135 23t-92 57t-53 90.5t-17 123.5
q0 140 71 212t226 77v67h76v-67q155 -5 225.5 -77t70.5 -212t-69.5 -214.5t-226.5 -79.5v-92h-76z" />
    <glyph glyph-name="afii10039" unicode="&#x425;" horiz-adv-x="551" 
d="M448 0l-173 299l-174 -299h-86l218 365l-204 347h88l158 -281l158 281h88l-205 -347l220 -365h-88z" />
    <glyph glyph-name="afii10040" unicode="&#x426;" horiz-adv-x="718" 
d="M602 -172v172h-499v712h76v-644h337v644h76v-644h85v-240h-75z" />
    <glyph glyph-name="afii10041" unicode="&#x427;" horiz-adv-x="645" 
d="M466 0v291q-17 -3 -41 -8t-52 -9t-56 -7t-52 -3q-36 0 -70.5 9t-60.5 30t-42 55t-16 84v270h76v-256q0 -39 11.5 -63t30 -37.5t42 -18.5t48.5 -5q19 0 43.5 2.5t49.5 6.5t48.5 8.5t40.5 7.5v355h76v-712h-76z" />
    <glyph glyph-name="afii10042" unicode="&#x428;" horiz-adv-x="997" 
d="M103 0v712h76v-644h281v644h77v-644h281v644h76v-712h-791z" />
    <glyph glyph-name="afii10043" unicode="&#x429;" horiz-adv-x="1019" 
d="M903 -172v172h-800v712h76v-644h281v644h77v-644h281v644h76v-644h84v-240h-75z" />
    <glyph glyph-name="afii10044" unicode="&#x42a;" horiz-adv-x="727" 
d="M687 209q0 -47 -15.5 -85.5t-44.5 -66t-69.5 -42.5t-89.5 -15h-268v644h-170v68h247v-293h191q49 0 89.5 -15t69.5 -42.5t44.5 -66.5t15.5 -86zM611 209q0 68 -39.5 105t-110.5 37h-184v-283h184q71 0 110.5 37t39.5 104z" />
    <glyph glyph-name="afii10045" unicode="&#x42b;" horiz-adv-x="864" 
d="M590 209q0 -47 -16 -85.5t-44.5 -66t-69.5 -42.5t-90 -15h-267v712h76v-293h191q50 0 90.5 -15t69.5 -42.5t44.5 -66.5t15.5 -86zM513 209q0 68 -39 105t-111 37h-184v-283h184q72 0 111 37t39 104zM685 0v712h76v-712h-76z" />
    <glyph glyph-name="afii10046" unicode="&#x42c;" horiz-adv-x="630" 
d="M590 209q0 -47 -16 -85.5t-44.5 -66t-69.5 -42.5t-90 -15h-267v712h76v-293h191q50 0 90.5 -15t69.5 -42.5t44.5 -66.5t15.5 -86zM513 209q0 68 -39 105t-111 37h-184v-283h184q72 0 111 37t39 104z" />
    <glyph glyph-name="afii10047" unicode="&#x42d;" horiz-adv-x="637" 
d="M141 206q14 -66 59 -105t112 -39q73 0 123 50q16 16 25.5 34t15 42.5t7.5 57.5t2 79h-269v67h269q0 44 -2.5 76t-7.5 56t-15 42t-25 34q-50 50 -123 50q-67 0 -111 -39t-58 -105h-78q19 100 84.5 156t162.5 56q56 0 100.5 -18.5t77.5 -51.5q25 -25 39.5 -51t21.5 -59
t8.5 -77t1.5 -105t-1.5 -105t-8.5 -77t-21.5 -59t-39.5 -51q-33 -33 -77.5 -51.5t-100.5 -18.5q-97 0 -162.5 56t-84.5 156h76z" />
    <glyph glyph-name="afii10048" unicode="&#x42e;" horiz-adv-x="903" 
d="M828 356q0 -61 -1.5 -104.5t-8.5 -76.5t-21.5 -59t-40.5 -52q-33 -33 -77 -51.5t-100 -18.5t-100.5 18.5t-77.5 51.5q-24 23 -37.5 47t-21 54t-10 68.5t-2.5 91.5h-151v-325h-76v712h76v-319h151q0 51 2.5 88.5t10 66.5t21.5 53t37 47q33 33 77.5 51.5t100.5 18.5
t100 -18.5t77 -51.5q26 -26 40.5 -52t21.5 -59t8.5 -76.5t1.5 -104.5zM752 356q0 55 -1.5 93.5t-6.5 66t-15 47.5t-27 37q-50 50 -123 50q-36 0 -67.5 -12.5t-55.5 -37.5q-17 -17 -27 -37t-15 -47.5t-6.5 -66t-1.5 -93.5t1.5 -93.5t6.5 -66t15 -47.5t27 -37
q24 -25 55.5 -37.5t67.5 -12.5q73 0 123 50q17 17 27 37t15 47.5t6.5 66t1.5 93.5z" />
    <glyph glyph-name="afii10049" unicode="&#x42f;" horiz-adv-x="655" 
d="M145 0h-89l164 304q-71 17 -112 69.5t-41 129.5q0 48 16 86.5t44.5 65.5t69 42t90.5 15h265v-712h-76v293h-176zM476 645h-182q-72 0 -111.5 -37.5t-39.5 -104.5t39.5 -104.5t111.5 -37.5h182v284z" />
    <glyph glyph-name="afii10065" unicode="&#x430;" horiz-adv-x="526" 
d="M369 0v47q-29 -29 -61 -41t-81 -12q-51 0 -82 10t-57 35q-19 18 -28 44.5t-9 55.5q0 66 44 104t127 38h147v47q0 54 -28.5 81t-97.5 27q-47 0 -74 -13t-50 -44l-49 45q32 43 72.5 58.5t101.5 15.5q100 0 148.5 -42t48.5 -122v-334h-72zM369 227h-137q-111 0 -111 -87
q0 -43 27 -63.5t87 -20.5q31 0 58 5.5t51 27.5q25 24 25 85v53z" />
    <glyph glyph-name="afii10066" unicode="&#x431;" horiz-adv-x="533" 
d="M273 58q25 0 48 9.5t40 26.5q20 22 29.5 56t9.5 92q0 60 -8.5 96t-29.5 58q-17 17 -40 27.5t-49 10.5q-54 0 -90 -38q-20 -21 -30.5 -57t-10.5 -95q0 -60 10.5 -94t31.5 -56q17 -17 40 -26.5t49 -9.5zM273 -6q-69 0 -116.5 34.5t-67.5 96.5q-6 20 -10 46.5t-5.5 56t-2 59
t-0.5 56.5q0 73 2 121.5t9 82t21 56.5t37 45q27 26 62.5 39t74.5 19t79.5 7t77.5 4v-65q-25 -3 -58 -4t-67 -5t-65.5 -13t-52.5 -27q-35 -30 -45 -74t-10 -107q18 33 59 53t89 20q76 0 123 -44q33 -31 48.5 -83.5t15.5 -120.5q0 -74 -14 -120.5t-46 -78.5q-25 -26 -60.5 -40
t-77.5 -14z" />
    <glyph glyph-name="afii10067" unicode="&#x432;" horiz-adv-x="539" 
d="M472 136q0 -63 -39 -99.5t-108 -36.5h-234v492h228q66 0 105.5 -35t39.5 -94q0 -40 -20 -67t-58 -41q40 -15 63 -44.5t23 -74.5zM393 357q0 35 -22.5 54t-64.5 19h-144v-147h144q43 0 65 19.5t22 54.5zM401 143q0 37 -23.5 59t-65.5 22h-150v-162h150q42 0 65.5 22
t23.5 59z" />
    <glyph glyph-name="afii10068" unicode="&#x433;" horiz-adv-x="417" 
d="M166 430v-430h-72v492h312v-62h-240z" />
    <glyph glyph-name="afii10069" unicode="&#x434;" horiz-adv-x="556" 
d="M453 -147v147h-366v-147h-69v209h58q14 31 26 62t20.5 69.5t13.5 88t5 116.5v94h309v-430h73v-209h-70zM378 430h-168v-93q0 -49 -4.5 -87.5t-12 -71t-17.5 -61t-22 -55.5h224v368z" />
    <glyph glyph-name="afii10070" unicode="&#x435;" 
d="M135 227q0 -81 36.5 -125.5t108.5 -44.5q43 0 71.5 13.5t57.5 42.5l49 -43q-19 -19 -37.5 -33t-40 -23.5t-46.5 -14.5t-56 -5q-49 0 -89 15t-68 46t-43 78.5t-15 112.5q0 121 54 186.5t148 65.5q97 0 149.5 -63.5t52.5 -175.5v-32h-332zM396 281q-1 15 -2 26t-2.5 20
t-4.5 17.5t-7 18.5q-16 34 -45.5 54t-69.5 20t-69.5 -20t-45.5 -54q-5 -10 -7.5 -18.5t-4 -17.5t-2 -20t-1.5 -26h261z" />
    <glyph glyph-name="afii10072" unicode="&#x436;" horiz-adv-x="717" 
d="M620 0l-225 255l209 237h87l-211 -232l231 -260h-91zM323 0v492h71v-492h-71zM6 0l231 260l-211 232h88l208 -237l-225 -255h-91z" />
    <glyph glyph-name="afii10073" unicode="&#x437;" horiz-adv-x="482" 
d="M415 139q0 -33 -15 -60t-40.5 -45.5t-59.5 -28.5t-71 -10q-60 0 -106.5 15t-90.5 55l45 47q33 -31 65.5 -43t78.5 -12q22 0 44 5.5t40 16.5t29 27t11 36q0 42 -28 62t-73 20h-72v60h73q41 0 66.5 20.5t25.5 58.5t-30 56.5t-81 18.5q-73 0 -132 -41l-41 48q41 29 85 41
t95 12q36 0 68 -8.5t55.5 -25.5t37 -42t13.5 -57q0 -37 -20 -66.5t-58 -43.5q39 -12 62.5 -43t23.5 -73z" />
    <glyph glyph-name="afii10074" unicode="&#x438;" horiz-adv-x="577" 
d="M415 0v381l-253 -381h-71v492h71v-379l253 379h72v-492h-72z" />
    <glyph glyph-name="afii10075" unicode="&#x439;" horiz-adv-x="577" 
d="M435 704q-5 -68 -44 -97t-102 -29t-102 29t-44 97h64q6 -75 82 -75t82 75h64zM415 0v381l-253 -381h-71v492h71v-379l253 379h72v-492h-72z" />
    <glyph glyph-name="afii10076" unicode="&#x43a;" horiz-adv-x="499" 
d="M94 0v492h72v-492h-72zM400 0l-233 255l217 237h89l-221 -232l241 -260h-93z" />
    <glyph glyph-name="afii10077" unicode="&#x43b;" horiz-adv-x="546" 
d="M384 0v430h-174v-170q0 -77 -11.5 -127.5t-32.5 -80t-49.5 -41t-62.5 -11.5h-33v62h16q16 0 34.5 5.5t34 27t25.5 65.5t10 121v211h315v-492h-72z" />
    <glyph glyph-name="afii10078" unicode="&#x43c;" horiz-adv-x="656" 
d="M493 0v350l-137 -272h-55l-139 272v-350h-71v492h71l167 -331l165 331h71v-492h-72z" />
    <glyph glyph-name="afii10079" unicode="&#x43d;" horiz-adv-x="561" 
d="M399 0v223h-238v-223h-71v492h71v-207h238v207h72v-492h-72z" />
    <glyph glyph-name="afii10080" unicode="&#x43e;" 
d="M466 246q0 -57 -11.5 -107.5t-48.5 -88.5q-26 -26 -61 -41t-80 -15t-80 15t-61 41q-19 19 -30.5 41.5t-18 47t-9 51.5t-2.5 56q0 57 11 107.5t49 88.5q26 26 61 41t80 15t80 -15t61 -41q38 -38 49 -88.5t11 -107.5zM394 246q0 42 -6 83.5t-33 68.5q-36 36 -90 36
q-53 0 -89 -36q-27 -27 -33.5 -68.5t-6.5 -83.5q0 -21 1 -42t5 -41t12 -37.5t22 -31.5q36 -36 89 -36q54 0 90 36q27 28 33 69t6 83z" />
    <glyph glyph-name="afii10081" unicode="&#x43f;" horiz-adv-x="556" 
d="M399 0v430h-238v-430h-71v492h381v-492h-72z" />
    <glyph glyph-name="afii10082" unicode="&#x440;" horiz-adv-x="545" 
d="M481 246q0 -60 -11.5 -115.5t-48.5 -93.5q-20 -20 -51 -31.5t-69 -11.5q-41 0 -74.5 13t-64.5 51v-278h-72v712h72v-58q31 38 64 51t75 13q38 0 69 -11.5t51 -31.5q18 -18 30 -42t18.5 -51t9 -56.5t2.5 -59.5zM409 246q0 36 -4 70t-17 60t-37.5 42t-64.5 16
q-41 0 -65 -16t-37.5 -42t-17.5 -60t-4 -70t4 -70t17.5 -60t37.5 -42t65 -16q40 0 64.5 16t37.5 42t17 60t4 70z" />
    <glyph glyph-name="afii10083" unicode="&#x441;" horiz-adv-x="490" 
d="M443 67q-38 -41 -74.5 -57t-87.5 -16q-47 0 -86.5 15.5t-69 47t-46 79t-16.5 110.5t16.5 110t46 78.5t69 47.5t86.5 16q51 0 87.5 -16t74.5 -57l-49 -46q-28 31 -53 43t-60 12q-36 0 -65 -14t-49 -42q-17 -24 -24.5 -54.5t-7.5 -77.5t7.5 -77.5t24.5 -54.5q20 -28 49 -42
t65 -14q35 0 60 12.5t53 43.5z" />
    <glyph glyph-name="afii10084" unicode="&#x442;" horiz-adv-x="423" 
d="M252 430v-430h-72v430h-169v62h402v-62h-161z" />
    <glyph glyph-name="afii10085" unicode="&#x443;" horiz-adv-x="447" 
d="M212 -119q-14 -39 -35 -58q-20 -19 -45 -26.5t-51 -7.5h-31v64h22q37 0 53 13.5t28 47.5l35 96l-177 482h78l135 -395l134 395h78z" />
    <glyph glyph-name="afii10086" unicode="&#x444;" horiz-adv-x="690" 
d="M630 247q0 -122 -66 -184.5t-183 -68.5v-214h-72v214q-117 6 -183 68.5t-66 184.5q0 121 65.5 183t183.5 68v214h72v-214q118 -6 183.5 -68t65.5 -183zM558 246q0 40 -10 74t-31 58.5t-54.5 39t-81.5 16.5v-376q88 2 132.5 52.5t44.5 135.5zM309 434q-47 -2 -80.5 -16.5
t-55 -39t-31.5 -58.5t-10 -74q0 -85 44.5 -135.5t132.5 -52.5v376z" />
    <glyph glyph-name="afii10087" unicode="&#x445;" horiz-adv-x="478" 
d="M358 0l-118 191l-120 -191h-87l167 251l-160 241h87l113 -182l111 182h87l-160 -241l167 -251h-87z" />
    <glyph glyph-name="afii10088" unicode="&#x446;" horiz-adv-x="579" 
d="M476 -147v147h-385v492h71v-430h238v430h72v-430h74v-209h-70z" />
    <glyph glyph-name="afii10089" unicode="&#x447;" horiz-adv-x="523" 
d="M361 0v192q-28 -6 -66.5 -12.5t-81.5 -6.5q-65 0 -104 33.5t-39 106.5v179h72v-166q0 -49 21.5 -68.5t63.5 -19.5q38 0 73 5.5t61 10.5v238h72v-492h-72z" />
    <glyph glyph-name="afii10090" unicode="&#x448;" horiz-adv-x="801" 
d="M91 0v492h71v-430h202v430h72v-430h202v430h72v-492h-619z" />
    <glyph glyph-name="afii10091" unicode="&#x449;" horiz-adv-x="816" 
d="M714 -147v147h-623v492h71v-430h202v430h72v-430h202v430h72v-430h74v-209h-70z" />
    <glyph glyph-name="afii10092" unicode="&#x44a;" horiz-adv-x="563" 
d="M523 148q0 -67 -42.5 -107.5t-113.5 -40.5h-219v430h-137v62h208v-195h148q71 0 113.5 -40.5t42.5 -108.5zM451 148q0 42 -23.5 64t-68.5 22h-140v-172h140q45 0 68.5 22t23.5 64z" />
    <glyph glyph-name="afii10093" unicode="&#x44b;" horiz-adv-x="718" 
d="M466 148q0 -67 -42.5 -107.5t-113.5 -40.5h-219v492h71v-195h148q71 0 113.5 -40.5t42.5 -108.5zM394 148q0 42 -23.5 64t-68.5 22h-140v-172h140q45 0 68.5 22t23.5 64zM545 0v492h72v-492h-72z" />
    <glyph glyph-name="afii10094" unicode="&#x44c;" horiz-adv-x="506" 
d="M466 148q0 -67 -42.5 -107.5t-113.5 -40.5h-219v492h71v-195h148q71 0 113.5 -40.5t42.5 -108.5zM394 148q0 42 -23.5 64t-68.5 22h-140v-172h140q45 0 68.5 22t23.5 64z" />
    <glyph glyph-name="afii10095" unicode="&#x44d;" horiz-adv-x="490" 
d="M426 247q0 -120 -58 -186.5t-162 -66.5q-27 0 -48.5 4t-40 13t-35.5 23t-35 33l48 46q26 -28 50.5 -42t62.5 -14q39 0 66.5 13.5t45 36.5t26 54t9.5 66h-202v54h201q-2 33 -12 61t-28 49t-44.5 32.5t-62.5 11.5q-37 0 -61.5 -14.5t-50.5 -41.5l-48 46q18 19 35 33
t35.5 23t40 13t48.5 4q104 0 162 -66.5t58 -184.5z" />
    <glyph glyph-name="afii10096" unicode="&#x44e;" horiz-adv-x="728" 
d="M664 246q0 -57 -11.5 -107.5t-48.5 -88.5q-26 -26 -61 -41t-80 -15t-80 15t-61 41q-34 34 -46 77.5t-14 94.5h-100v-222h-71v492h71v-209h101q2 46 14.5 86.5t44.5 72.5q26 26 61 41t80 15t80 -15t61 -41q38 -38 49 -88.5t11 -107.5zM592 246q0 42 -6 83.5t-33 68.5
q-36 36 -90 36q-53 0 -89 -36q-27 -27 -33.5 -68.5t-6.5 -83.5q0 -21 1 -42t5 -41t12 -37.5t22 -31.5q34 -36 89 -36q54 0 90 36q27 28 33 69t6 83z" />
    <glyph glyph-name="afii10097" unicode="&#x44f;" horiz-adv-x="527" 
d="M365 433h-139q-48 0 -73 -23.5t-25 -67.5q0 -43 25 -66.5t73 -23.5h139v181zM57 0l115 202q-53 11 -84 48.5t-31 94.5q0 66 42.5 106.5t112.5 40.5h224v-492h-71v193h-118l-107 -193h-83z" />
    <glyph glyph-name="uni0450" unicode="&#x450;" 
d="M135 227q0 -81 36.5 -125.5t108.5 -44.5q43 0 71.5 13.5t57.5 42.5l49 -43q-19 -19 -37.5 -33t-40 -23.5t-46.5 -14.5t-56 -5q-49 0 -89 15t-68 46t-43 78.5t-15 112.5q0 121 54 186.5t148 65.5q97 0 149.5 -63.5t52.5 -175.5v-32h-332zM396 281q-1 15 -2 26t-2.5 20
t-4.5 17.5t-7 18.5q-16 34 -45.5 54t-69.5 20t-69.5 -20t-45.5 -54q-5 -10 -7.5 -18.5t-4 -17.5t-2 -20t-1.5 -26h261zM249 594l-105 153h83l91 -153h-69z" />
    <glyph glyph-name="afii10071" unicode="&#x451;" 
d="M135 227q0 -81 36.5 -125.5t108.5 -44.5q43 0 71.5 13.5t57.5 42.5l49 -43q-19 -19 -37.5 -33t-40 -23.5t-46.5 -14.5t-56 -5q-49 0 -89 15t-68 46t-43 78.5t-15 112.5q0 121 54 186.5t148 65.5q97 0 149.5 -63.5t52.5 -175.5v-32h-332zM396 281q-1 15 -2 26t-2.5 20
t-4.5 17.5t-7 18.5q-16 34 -45.5 54t-69.5 20t-69.5 -20t-45.5 -54q-5 -10 -7.5 -18.5t-4 -17.5t-2 -20t-1.5 -26h261zM338 602v89h72v-89h-72zM126 602v89h72v-89h-72z" />
    <glyph glyph-name="afii10099" unicode="&#x452;" horiz-adv-x="562" 
d="M477 -70q0 -30 -8.5 -57.5t-26 -48.5t-45 -33t-66.5 -12h-48v62h36q42 0 64 27t22 65v365q0 63 -29 97t-87 34t-92.5 -34.5t-34.5 -96.5v-298h-71v562h-58v54h58v96h71v-96h248v-54h-248v-130q32 32 65 46.5t78 14.5q81 0 126.5 -49t45.5 -134v-380z" />
    <glyph glyph-name="afii10100" unicode="&#x453;" horiz-adv-x="417" 
d="M166 430v-430h-72v492h312v-62h-240zM240 594h-69l91 153h83z" />
    <glyph glyph-name="afii10101" unicode="&#x454;" horiz-adv-x="490" 
d="M443 67q-18 -19 -35 -33t-36 -23t-40.5 -13t-48.5 -4q-104 0 -162 66.5t-58 186.5q0 118 58.5 184.5t161.5 66.5q27 0 48.5 -4t40 -13t35.5 -23t36 -33l-48 -46q-26 27 -50.5 41.5t-62.5 14.5q-35 0 -61.5 -11.5t-44.5 -32.5t-28 -49t-12 -61h209v-54h-210q1 -35 9.5 -66
t26 -54t45 -36.5t66.5 -13.5q38 0 62.5 14t50.5 42z" />
    <glyph glyph-name="afii10102" unicode="&#x455;" horiz-adv-x="496" 
d="M445 144q0 -71 -55 -110.5t-145 -39.5q-63 0 -112.5 16t-89.5 55l48 48q29 -30 68 -43.5t85 -13.5q62 0 96.5 21.5t34.5 65.5q0 33 -19 50.5t-63 21.5l-81 7q-72 6 -109.5 38t-37.5 94q0 34 13.5 60.5t37.5 45t57 28.5t73 10q54 0 98.5 -13t78.5 -40l-47 -47
q-26 20 -59.5 29.5t-71.5 9.5q-54 0 -82 -21.5t-28 -59.5q0 -33 21 -50t67 -22l77 -7q32 -3 59 -11t46 -23.5t29.5 -39.5t10.5 -59z" />
    <glyph glyph-name="afii10103" unicode="&#x456;" horiz-adv-x="253" 
d="M90 0v492h72v-492h-72zM86 632v81h81v-81h-81z" />
    <glyph glyph-name="afii10104" unicode="&#x457;" horiz-adv-x="253" 
d="M90 0v492h72v-492h-72zM198 602v89h72v-89h-72zM-14 602v89h72v-89h-72z" />
    <glyph glyph-name="afii10105" unicode="&#x458;" horiz-adv-x="253" 
d="M162 -89q0 -28 -7.5 -52t-23 -42t-39 -28t-55.5 -10h-52v63h39q38 0 52 18t14 54v578h72v-581zM86 632v81h81v-81h-81z" />
    <glyph glyph-name="afii10106" unicode="&#x459;" horiz-adv-x="801" 
d="M689 148q0 42 -23.5 64t-68.5 22h-140v-172h140q45 0 68.5 22t23.5 64zM457 492v-195h148q71 0 113.5 -40.5t42.5 -108.5q0 -67 -42.5 -107.5t-113.5 -40.5h-219v430h-176v-170q0 -77 -11.5 -127.5t-32.5 -80t-49.5 -41t-62.5 -11.5h-33v62h16q16 0 34.5 5.5t34 27
t25.5 65.5t10 121v211h316z" />
    <glyph glyph-name="afii10107" unicode="&#x45a;" horiz-adv-x="816" 
d="M776 148q0 -67 -42.5 -107.5t-113.5 -40.5h-220v234h-238v-234h-71v492h71v-195h238v195h72v-195h148q71 0 113.5 -40.5t42.5 -108.5zM704 148q0 42 -23.5 64t-68.5 22h-140v-172h140q45 0 68.5 22t23.5 64z" />
    <glyph glyph-name="afii10108" unicode="&#x45b;" horiz-adv-x="562" 
d="M405 0v298q0 63 -31 97t-89 34t-90.5 -34.5t-32.5 -96.5v-298h-71v562h-58v54h58v96h71v-96h248v-54h-248v-130q32 32 63 46.5t76 14.5q81 0 128.5 -49.5t47.5 -133.5v-310h-72z" />
    <glyph glyph-name="afii10109" unicode="&#x45c;" horiz-adv-x="499" 
d="M94 0v492h72v-492h-72zM400 0l-233 255l217 237h89l-221 -232l241 -260h-93zM282 594h-69l91 153h83z" />
    <glyph glyph-name="uni045D" unicode="&#x45d;" horiz-adv-x="577" 
d="M415 0v381l-253 -381h-71v492h71v-379l253 379h72v-492h-72zM259 594l-105 153h83l91 -153h-69z" />
    <glyph glyph-name="afii10110" unicode="&#x45e;" horiz-adv-x="447" 
d="M371 704q-5 -68 -44 -97t-102 -29t-102 29t-44 97h64q6 -75 82 -75t82 75h64zM212 -119q-14 -39 -35 -58q-20 -19 -45 -26.5t-51 -7.5h-31v64h22q37 0 53 13.5t28 47.5l35 96l-177 482h78l135 -395l134 395h78z" />
    <glyph glyph-name="afii10193" unicode="&#x45f;" horiz-adv-x="563" 
d="M316 0v-147h-70v147h-155v492h71v-430h238v430h72v-492h-156z" />
    <glyph glyph-name="afii10146" unicode="&#x462;" horiz-adv-x="644" 
d="M604 209q0 -47 -16 -85.5t-44.5 -66t-69.5 -42.5t-90 -15h-267v552h-78v59h78v101h76v-101h162v-59h-162v-133h191q50 0 90.5 -15t69.5 -42.5t44.5 -66.5t15.5 -86zM527 209q0 68 -39 105t-111 37h-184v-283h184q72 0 111 37t39 104z" />
    <glyph glyph-name="afii10194" unicode="&#x463;" horiz-adv-x="506" 
d="M466 148q0 -67 -42.5 -107.5t-113.5 -40.5h-219v390h-68v48h68v54h71v-54h83v-48h-83v-93h148q71 0 113.5 -40.5t42.5 -108.5zM394 148q0 42 -23.5 64t-68.5 22h-140v-172h140q45 0 68.5 22t23.5 64z" />
    <glyph glyph-name="afii10147" unicode="&#x472;" horiz-adv-x="650" 
d="M574 356q0 -61 -1.5 -104.5t-8.5 -76.5t-21.5 -59t-40.5 -52q-33 -33 -77 -51.5t-100 -18.5t-100.5 18.5t-77.5 51.5q-25 25 -39.5 51t-21.5 59t-8.5 77t-1.5 105t1.5 105t8.5 77t21.5 59t39.5 51q33 33 77.5 51.5t100.5 18.5t100 -18.5t77 -51.5q26 -26 40.5 -52
t21.5 -59t8.5 -76.5t1.5 -104.5zM448 112q15 16 25 34t15 42t7.5 57t2.5 79h-346q0 -46 2 -79t7.5 -57t15 -42t25.5 -34q24 -25 55.5 -37.5t67.5 -12.5q73 0 123 50zM202 600q-15 -16 -25 -34t-15 -42t-7.5 -56t-2.5 -77h346q0 45 -2.5 77t-7.5 56t-15 42t-25 34
q-50 50 -123 50q-36 0 -67.5 -12.5t-55.5 -37.5z" />
    <glyph glyph-name="afii10195" unicode="&#x473;" 
d="M466 246q0 -57 -11.5 -107.5t-48.5 -88.5q-26 -26 -61 -41t-80 -15t-80 15t-61 41q-19 19 -30.5 41.5t-18 47t-9 51.5t-2.5 56q0 28 2.5 55.5t9 52t18 47t30.5 41.5q26 26 61 41t80 15t80 -15t61 -41q37 -38 48.5 -88.5t11.5 -107.5zM355 94q24 24 31 59.5t8 73.5h-258
q1 -38 8.5 -73.5t31.5 -59.5q36 -36 89 -36q54 0 90 36zM176 398q-22 -22 -30 -53t-10 -64h257q-2 33 -9.5 64t-28.5 53q-36 36 -90 36q-53 0 -89 -36z" />
    <glyph glyph-name="afii10148" unicode="&#x474;" horiz-adv-x="546" 
d="M422 601q17 51 51.5 81t88.5 30h62v-68h-37q-37 0 -59 -16.5t-35 -54.5l-189 -573h-62l-234 712h80l185 -576z" />
    <glyph glyph-name="afii10196" unicode="&#x475;" horiz-adv-x="447" 
d="M255 0h-64l-180 492h78l134 -395l104 303q32 92 131 92h31v-64h-18q-17 0 -29.5 -2.5t-21.5 -9.5t-16 -19t-14 -30z" />
    <glyph glyph-name="afii10050" unicode="&#x490;" horiz-adv-x="569" 
d="M186 644v-644h-76v712h353v172h75v-240h-352z" />
    <glyph glyph-name="afii10098" unicode="&#x491;" horiz-adv-x="417" 
d="M166 430v-430h-72v492h242v142h70v-204h-240z" />
    <glyph glyph-name="uni0492" unicode="&#x492;" horiz-adv-x="576" 
d="M193 644v-255h162v-59h-162v-330h-76v330h-78v59h78v323h428v-68h-352z" />
    <glyph glyph-name="uni0493" unicode="&#x493;" horiz-adv-x="417" 
d="M166 430v-136h82v-48h-82v-246h-72v246h-68v48h68v198h312v-62h-240z" />
    <glyph glyph-name="uni0496" unicode="&#x496;" horiz-adv-x="902" 
d="M577 374l266 -306h60v-240h-75v172h-25l-313 372l290 340h96zM-1 0l326 374l-300 338h96l291 -340l-313 -372h-100zM413 0v712h76v-712h-76z" />
    <glyph glyph-name="uni0497" unicode="&#x497;" horiz-adv-x="715" 
d="M480 260l176 -198h55v-209h-70v147h-21l-225 255l209 237h87zM6 0l231 260l-211 232h88l208 -237l-225 -255h-91zM323 0v492h71v-492h-71z" />
    <glyph glyph-name="uni049A" unicode="&#x49a;" horiz-adv-x="610" 
d="M273 374l277 -306h62v-240h-75v172h-26l-327 372l305 340h96zM107 0v712h76v-712h-76z" />
    <glyph glyph-name="uni049B" unicode="&#x49b;" horiz-adv-x="498" 
d="M252 260l183 -198h58v-209h-70v147h-23l-233 255l217 237h89zM94 0v492h72v-492h-72z" />
    <glyph glyph-name="uni049C" unicode="&#x49c;" horiz-adv-x="662" 
d="M564 0l-246 334h-29v-156h-63v156h-43v-334h-76v712h76v-311h43v156h63v-156h27l226 311h95l-257 -342l283 -370h-99z" />
    <glyph glyph-name="uni049D" unicode="&#x49d;" horiz-adv-x="552" 
d="M453 0l-161 224h-26v-130h-61v130h-39v-224h-72v492h72v-208h39v130h61v-130h25l146 208h89l-170 -232l190 -260h-93z" />
    <glyph glyph-name="uni04A2" unicode="&#x4a2;" horiz-adv-x="696" 
d="M593 68h37v-240h-75v172h-38v325h-338v-325h-76v712h76v-319h338v319h76v-644z" />
    <glyph glyph-name="uni04A3" unicode="&#x4a3;" horiz-adv-x="562" 
d="M472 62h34v-209h-70v147h-36v223h-238v-223h-71v492h71v-207h238v207h72v-430z" />
    <glyph glyph-name="uni04AE" unicode="&#x4ae;" horiz-adv-x="514" 
d="M296 294v-294h-76v294l-212 418h82l168 -341l166 341h82z" />
    <glyph glyph-name="uni04AF" unicode="&#x4af;" horiz-adv-x="447" 
d="M259 5v-225h-71v225l-176 487h77l135 -398l134 398h77z" />
    <glyph glyph-name="uni04B0" unicode="&#x4b0;" horiz-adv-x="514" 
d="M296 294h72v-48h-72v-246h-76v246h-74v48h74l-212 418h82l168 -341l166 341h82z" />
    <glyph glyph-name="uni04B1" unicode="&#x4b1;" horiz-adv-x="447" 
d="M259 5h75v-48h-75v-177h-71v177h-76v48h76l-176 487h77l135 -398l134 398h77z" />
    <glyph glyph-name="uni04B2" unicode="&#x4b2;" horiz-adv-x="551" 
d="M316 365l179 -297h41v-240h-75v172h-13l-173 299l-174 -299h-86l218 365l-204 347h88l158 -281l158 281h88z" />
    <glyph glyph-name="uni04B3" unicode="&#x4b3;" horiz-adv-x="478" 
d="M278 251l125 -189h42v-209h-70v147h-17l-118 191l-120 -191h-87l167 251l-160 241h87l113 -182l111 182h87z" />
    <glyph glyph-name="uni04B6" unicode="&#x4b6;" horiz-adv-x="645" 
d="M542 68h37v-240h-75v172h-38v291q-17 -3 -41 -8t-52 -9t-56 -7t-52 -3q-36 0 -70.5 9t-60.5 30t-42 55t-16 84v270h76v-256q0 -39 11.5 -63t30 -37.5t42 -18.5t48.5 -5q19 0 43.5 2.5t49.5 6.5t48.5 8.5t40.5 7.5v355h76v-644z" />
    <glyph glyph-name="uni04B7" unicode="&#x4b7;" horiz-adv-x="523" 
d="M433 62h34v-209h-70v147h-36v192q-28 -6 -66.5 -12.5t-81.5 -6.5q-65 0 -104 33.5t-39 106.5v179h72v-166q0 -49 21.5 -68.5t63.5 -19.5q38 0 73 5.5t61 10.5v238h72v-430z" />
    <glyph glyph-name="uni04B8" unicode="&#x4b8;" horiz-adv-x="649" 
d="M279 108v156h-12q-37 0 -71.5 9t-61 30t-42.5 55t-16 84v270h76v-256q0 -38 11 -61.5t28.5 -37.5t40.5 -19.5t47 -5.5v156h65v-152q34 4 68.5 10t57.5 11v355h76v-712h-76v291q-22 -5 -56 -10.5t-70 -10.5v-162h-65z" />
    <glyph glyph-name="uni04B9" unicode="&#x4b9;" horiz-adv-x="536" 
d="M229 46v127h-10q-67 0 -108 33.5t-41 106.5v179h72v-166q0 -47 23.5 -66t63.5 -21v127h58v-125q25 2 47.5 5.5t39.5 7.5v238h72v-492h-72v192q-17 -4 -39.5 -8t-47.5 -7v-131h-58z" />
    <glyph glyph-name="uni04BA" unicode="&#x4ba;" horiz-adv-x="645" 
d="M179 712v-291q16 3 40.5 8t52.5 9t56 7t52 3q36 0 70.5 -9t60.5 -30t42 -55t16 -84v-270h-76v256q0 39 -11.5 63t-30 37.5t-42 18.5t-48.5 5q-19 0 -43.5 -2.5t-49.5 -6.5t-48.5 -8.5t-40.5 -7.5v-355h-76v712h76z" />
    <glyph glyph-name="uni04BB" unicode="&#x4bb;" horiz-adv-x="523" 
d="M162 492v-192q28 6 66.5 12.5t81.5 6.5q65 0 104 -33.5t39 -106.5v-179h-72v166q0 49 -21.5 68.5t-63.5 19.5q-38 0 -73 -5.5t-61 -10.5v-238h-72v492h72z" />
    <glyph glyph-name="uni04C0" unicode="&#x4c0;" horiz-adv-x="282" 
d="M103 0v712h76v-712h-76z" />
    <glyph glyph-name="uni04CF" unicode="&#x4cf;" horiz-adv-x="248" 
d="M88 0v712h72v-712h-72z" />
    <glyph glyph-name="uni04D8" unicode="&#x4d8;" horiz-adv-x="650" 
d="M74 373h424q0 51 -2 86.5t-7.5 61t-15 43.5t-25.5 35q-23 24 -55.5 37.5t-67.5 13.5q-67 0 -112.5 -38.5t-60.5 -106.5h-76q8 47 28.5 86t52.5 67.5t74.5 44t93.5 15.5q108 0 182 -74q25 -25 38.5 -52t20 -60.5t7.5 -76t1 -99.5t-1 -99.5t-7.5 -76t-20 -60.5t-38.5 -52
q-36 -36 -82.5 -55t-99.5 -19q-55 0 -103.5 20.5t-86.5 61.5q-33 35 -47 78.5t-14 105.5v113zM150 252q0 -42 9 -72.5t31 -56.5q25 -30 60.5 -45.5t74.5 -15.5q35 0 67.5 13t55.5 37q15 15 24 31.5t14.5 39t8 52t3.5 71.5h-348v-54z" />
    <glyph glyph-name="afii10846" unicode="&#x4d9;" 
d="M395 265q0 81 -36.5 125.5t-108.5 44.5q-43 0 -71.5 -13.5t-57.5 -42.5l-49 43q37 37 77.5 56.5t102.5 19.5q49 0 89 -15t68 -46t43 -78.5t15 -112.5q0 -121 -54 -186.5t-148 -65.5q-97 0 -149.5 63.5t-52.5 175.5v32h332zM134 211q2 -30 4.5 -45.5t11.5 -36.5
q15 -35 45 -54.5t70 -19.5t70.5 19.5t44.5 54.5q4 10 6.5 19t4 18t2.5 20t2 25h-261z" />
    <glyph glyph-name="uni04E2" unicode="&#x4e2;" horiz-adv-x="716" 
d="M537 0v581l-362 -581h-72v712h76v-580l362 580h72v-712h-76zM208 855h301v-57h-301v57z" />
    <glyph glyph-name="uni04E3" unicode="&#x4e3;" horiz-adv-x="577" 
d="M415 0v381l-253 -381h-71v492h71v-379l253 379h72v-492h-72zM139 602v56h301v-56h-301z" />
    <glyph glyph-name="uni04E8" unicode="&#x4e8;" horiz-adv-x="650" 
d="M574 356q0 -61 -1.5 -104.5t-8.5 -76.5t-21.5 -59t-40.5 -52q-33 -33 -77 -51.5t-100 -18.5t-100.5 18.5t-77.5 51.5q-25 25 -39.5 51t-21.5 59t-8.5 77t-1.5 105t1.5 105t8.5 77t21.5 59t39.5 51q33 33 77.5 51.5t100.5 18.5t100 -18.5t77 -51.5q26 -26 40.5 -52
t21.5 -59t8.5 -76.5t1.5 -104.5zM448 112q15 16 25 34t15 42t7.5 57t2.5 79h-346q0 -46 2 -79t7.5 -57t15 -42t25.5 -34q24 -25 55.5 -37.5t67.5 -12.5q73 0 123 50zM202 600q-15 -16 -25 -34t-15 -42t-7.5 -56t-2.5 -77h346q0 45 -2.5 77t-7.5 56t-15 42t-25 34
q-50 50 -123 50q-36 0 -67.5 -12.5t-55.5 -37.5z" />
    <glyph glyph-name="uni04E9" unicode="&#x4e9;" 
d="M466 246q0 -57 -11.5 -107.5t-48.5 -88.5q-26 -26 -61 -41t-80 -15t-80 15t-61 41q-19 19 -30.5 41.5t-18 47t-9 51.5t-2.5 56q0 28 2.5 55.5t9 52t18 47t30.5 41.5q26 26 61 41t80 15t80 -15t61 -41q37 -38 48.5 -88.5t11.5 -107.5zM355 94q24 24 31 59.5t8 73.5h-258
q1 -38 8.5 -73.5t31.5 -59.5q36 -36 89 -36q54 0 90 36zM176 398q-22 -22 -30 -53t-10 -64h257q-2 33 -9.5 64t-28.5 53q-36 36 -90 36q-53 0 -89 -36z" />
    <glyph glyph-name="uni04EE" unicode="&#x4ee;" horiz-adv-x="546" 
d="M279 111q-21 -49 -54 -80t-86 -31h-62v68h45q37 0 57.5 17t36.5 54l29 67l-235 506h81l192 -421l173 421h81zM132 855h301v-57h-301v57z" />
    <glyph glyph-name="uni04EF" unicode="&#x4ef;" horiz-adv-x="447" 
d="M212 -119q-14 -39 -35 -58q-20 -19 -45 -26.5t-51 -7.5h-31v64h22q37 0 53 13.5t28 47.5l35 96l-177 482h78l135 -395l134 395h78zM74 602v56h301v-56h-301z" />
    <glyph glyph-name="Wgrave" unicode="&#x1e80;" horiz-adv-x="854" 
d="M656 0h-71l-158 570l-158 -570h-71l-182 712h81l139 -574l157 574h68l157 -574l139 574h81zM395 780l-105 154h83l91 -154h-69z" />
    <glyph glyph-name="wgrave" unicode="&#x1e81;" horiz-adv-x="724" 
d="M558 0h-67l-129 382l-128 -382h-67l-156 492h78l113 -395l129 395h62l130 -395l112 395h78zM327 594l-105 153h83l91 -153h-69z" />
    <glyph glyph-name="Wacute" unicode="&#x1e82;" horiz-adv-x="854" 
d="M656 0h-71l-158 570l-158 -570h-71l-182 712h81l139 -574l157 574h68l157 -574l139 574h81zM456 780h-69l91 154h83z" />
    <glyph glyph-name="wacute" unicode="&#x1e83;" horiz-adv-x="724" 
d="M558 0h-67l-129 382l-128 -382h-67l-156 492h78l113 -395l129 395h62l130 -395l112 395h78zM397 594h-69l91 153h83z" />
    <glyph glyph-name="Wdieresis" unicode="&#x1e84;" horiz-adv-x="854" 
d="M656 0h-71l-158 570l-158 -570h-71l-182 712h81l139 -574l157 574h68l157 -574l139 574h81zM497 789v89h72v-89h-72zM285 789v89h72v-89h-72z" />
    <glyph glyph-name="wdieresis" unicode="&#x1e85;" horiz-adv-x="724" 
d="M558 0h-67l-129 382l-128 -382h-67l-156 492h78l113 -395l129 395h62l130 -395l112 395h78zM432 602v89h72v-89h-72zM220 602v89h72v-89h-72z" />
    <glyph glyph-name="uni1E8A" unicode="&#x1e8a;" horiz-adv-x="551" 
d="M448 0l-173 299l-174 -299h-86l218 365l-204 347h88l158 -281l158 281h88l-205 -347l220 -365h-88zM238 873h75v-76h-75v76z" />
    <glyph glyph-name="uni1E8B" unicode="&#x1e8b;" horiz-adv-x="478" 
d="M358 0l-118 191l-120 -191h-87l167 251l-160 241h87l113 -182l111 182h87l-160 -241l167 -251h-87zM204 687h75v-77h-75v77z" />
    <glyph glyph-name="Ygrave" unicode="&#x1ef2;" horiz-adv-x="514" 
d="M296 294v-294h-76v294l-212 418h82l168 -341l166 341h82zM228 780l-105 154h83l91 -154h-69z" />
    <glyph glyph-name="ygrave" unicode="&#x1ef3;" horiz-adv-x="447" 
d="M212 -119q-14 -39 -35 -58q-20 -19 -45 -26.5t-51 -7.5h-31v64h22q37 0 53 13.5t28 47.5l35 96l-177 482h78l135 -395l134 395h78zM187 594l-105 153h83l91 -153h-69z" />
    <glyph glyph-name="uni2007" unicode="&#x2007;" horiz-adv-x="522" 
 />
    <glyph glyph-name="uni2008" unicode="&#x2008;" horiz-adv-x="270" 
 />
    <glyph glyph-name="uni200B" unicode="&#x200b;" horiz-adv-x="0" 
 />
    <glyph glyph-name="endash" unicode="&#x2013;" horiz-adv-x="522" 
d="M52 236v67h418v-67h-418z" />
    <glyph glyph-name="emdash" unicode="&#x2014;" horiz-adv-x="914" 
d="M76 236v68h762v-68h-762z" />
    <glyph glyph-name="afii00208" unicode="&#x2015;" horiz-adv-x="914" 
d="M76 236v68h762v-68h-762z" />
    <glyph glyph-name="quoteleft" unicode="&#x2018;" horiz-adv-x="263" 
d="M88 628v84l87 79v-163h-87z" />
    <glyph glyph-name="quoteright" unicode="&#x2019;" horiz-adv-x="263" 
d="M88 549v163h87v-84z" />
    <glyph glyph-name="quotesinglbase" unicode="&#x201a;" horiz-adv-x="263" 
d="M88 -79v163h87v-84z" />
    <glyph glyph-name="quotedblleft" unicode="&#x201c;" horiz-adv-x="434" 
d="M258 628v84l88 79v-163h-88zM88 628v84l87 79v-163h-87z" />
    <glyph glyph-name="quotedblright" unicode="&#x201d;" horiz-adv-x="434" 
d="M258 549v163h88v-84zM88 549v163h87v-84z" />
    <glyph glyph-name="quotedblbase" unicode="&#x201e;" horiz-adv-x="434" 
d="M258 -79v163h88v-84zM88 -79v163h87v-84z" />
    <glyph glyph-name="dagger" unicode="&#x2020;" horiz-adv-x="605" 
d="M337 445v-445h-72v445h-191v64h191v203h72v-203h194v-64h-194z" />
    <glyph glyph-name="daggerdbl" unicode="&#x2021;" horiz-adv-x="605" 
d="M337 -16v-204h-72v204h-191v64h191v397h-191v64h191v203h72v-203h194v-64h-194v-397h194v-64h-194z" />
    <glyph glyph-name="bullet" unicode="&#x2022;" horiz-adv-x="532" 
d="M429 334q0 -34 -13 -63.5t-35 -51.5t-51.5 -35t-63.5 -13t-63.5 13t-51.5 35t-35 51.5t-13 63.5t13 63.5t35 51.5t51.5 35t63.5 13t63.5 -13t51.5 -35t35 -51.5t13 -63.5z" />
    <glyph glyph-name="ellipsis" unicode="&#x2026;" horiz-adv-x="757" 
d="M577 0v92h92v-92h-92zM88 0v92h92v-92h-92zM332 0v92h92v-92h-92z" />
    <glyph glyph-name="perthousand" unicode="&#x2030;" horiz-adv-x="1179" 
d="M1115 128q0 -62 -38.5 -98.5t-96.5 -36.5q-59 0 -97 36.5t-38 98.5v105q0 62 38 98.5t97 36.5q58 0 96.5 -36.5t38.5 -98.5v-105zM769 128q0 -62 -38.5 -98.5t-96.5 -36.5q-59 0 -97 36.5t-38 98.5v105q0 62 38 98.5t97 36.5q58 0 96.5 -36.5t38.5 -98.5v-105zM335 479
q0 -61 -38.5 -97.5t-96.5 -36.5q-59 0 -97 36.5t-38 97.5v105q0 62 38 98.5t97 36.5q58 0 96.5 -36.5t38.5 -98.5v-105zM280 0h-60l334 712h60zM712 231q0 40 -18.5 63.5t-59.5 23.5q-42 0 -60 -23t-18 -64v-101q0 -41 18 -64t60 -23q41 0 59.5 23.5t18.5 63.5v101z
M1058 231q0 40 -18.5 63.5t-59.5 23.5q-42 0 -60 -23t-18 -64v-101q0 -41 18 -64t60 -23q41 0 59.5 23.5t18.5 63.5v101zM278 582q0 40 -18.5 63.5t-59.5 23.5q-42 0 -60 -23t-18 -64v-101q0 -41 18.5 -63.5t59.5 -22.5t59.5 23t18.5 63v101z" />
    <glyph glyph-name="guilsinglleft" unicode="&#x2039;" horiz-adv-x="328" 
d="M40 268l210 210v-90l-120 -120l120 -121v-89z" />
    <glyph glyph-name="guilsinglright" unicode="&#x203a;" horiz-adv-x="328" 
d="M78 58v89l121 121l-121 120v90l210 -210z" />
    <glyph glyph-name="fraction" unicode="&#x2044;" horiz-adv-x="185" 
d="M-44 0h-60l333 712h60z" />
    <glyph glyph-name="uni2070" unicode="&#x2070;" horiz-adv-x="318" 
d="M281 403q0 -28 -9.5 -50.5t-26 -38.5t-39 -24.5t-47.5 -8.5q-26 0 -48 8.5t-38.5 24.5t-26 38.5t-9.5 50.5v191q0 28 9.5 50.5t26 38.5t38.5 24.5t48 8.5q25 0 47.5 -8.5t39 -24.5t26 -38.5t9.5 -50.5v-191zM224 593q0 32 -17 52t-48 20q-30 0 -47 -20t-17 -52v-189
q0 -32 17 -51.5t47 -19.5q31 0 48 19.5t17 51.5v189z" />
    <glyph glyph-name="uni2074" unicode="&#x2074;" horiz-adv-x="318" 
d="M251 350v-65h-57v65h-172v52l151 310h62l-151 -310h110v105h57v-105h47v-52h-47z" />
    <glyph glyph-name="uni2075" unicode="&#x2075;" horiz-adv-x="318" 
d="M285 427q0 -34 -6 -62t-29 -51q-15 -15 -37.5 -24t-51.5 -9q-31 0 -53.5 9t-36.5 23q-17 17 -23.5 36.5t-8.5 43.5h57q4 -29 19 -44.5t46 -15.5q14 0 26 4t21 13q14 14 17 34.5t3 42.5q0 38 -13 65.5t-51 27.5q-26 0 -42 -11t-21 -29h-53v232h227v-52h-174v-117
q23 25 71 25q50 0 76 -27q24 -24 30.5 -54t6.5 -60z" />
    <glyph glyph-name="uni2076" unicode="&#x2076;" horiz-adv-x="318" 
d="M284 411q0 -59 -34 -94.5t-90 -35.5t-90.5 34t-34.5 93q0 23 6 45.5t23 55.5l100 203h61l-92 -185q17 7 39 7q24 0 44.5 -9t35.5 -25t23.5 -39t8.5 -50zM226 409q0 33 -17.5 55t-49.5 22q-30 0 -48.5 -20.5t-18.5 -56.5q0 -35 18.5 -55.5t48.5 -20.5t48.5 20.5t18.5 55.5
z" />
    <glyph glyph-name="uni2077" unicode="&#x2077;" horiz-adv-x="318" 
d="M146 285h-57l144 375h-140v-70h-54v122h251v-51z" />
    <glyph glyph-name="uni2078" unicode="&#x2078;" horiz-adv-x="318" 
d="M290 405q0 -29 -10 -51.5t-28 -39t-42 -25t-51 -8.5t-50.5 8.5t-41.5 25t-28 39t-10 51.5q0 37 17.5 62t42.5 39q-23 14 -38 36.5t-15 55.5q0 53 35.5 85.5t87.5 32.5q53 0 88.5 -32.5t35.5 -85.5q0 -33 -15 -55.5t-38 -36.5q24 -14 42 -39t18 -62zM232 406
q0 32 -20.5 53t-52.5 21q-31 0 -51.5 -21t-20.5 -53t20.5 -52.5t51.5 -20.5q32 0 52.5 20.5t20.5 52.5zM225 597q0 29 -18 48t-48 19q-29 0 -47 -19t-18 -48t18 -48t47 -19t47.5 19t18.5 48z" />
    <glyph glyph-name="uni2079" unicode="&#x2079;" horiz-adv-x="318" 
d="M284 589q0 -24 -7 -45t-23 -55l-100 -204h-61l93 185q-9 -3 -19 -5t-21 -2q-24 0 -44.5 9t-35.5 25t-23.5 39t-8.5 50q0 59 34.5 94.5t90.5 35.5t90.5 -34t34.5 -93zM226 588q0 35 -18 55.5t-49 20.5q-30 0 -48.5 -20.5t-18.5 -55.5q0 -32 17.5 -54.5t49.5 -22.5
q30 0 48.5 20.5t18.5 56.5z" />
    <glyph glyph-name="uni2080" unicode="&#x2080;" horiz-adv-x="318" 
d="M281 -32q0 -28 -9.5 -50.5t-26 -38.5t-39 -24.5t-47.5 -8.5q-26 0 -48 8.5t-38.5 24.5t-26 38.5t-9.5 50.5v191q0 28 9.5 50.5t26 38.5t38.5 24.5t48 8.5q25 0 47.5 -8.5t39 -24.5t26 -38.5t9.5 -50.5v-191zM224 158q0 32 -17 52t-48 20q-30 0 -47 -20t-17 -52v-189
q0 -32 17 -51.5t47 -19.5q31 0 48 19.5t17 51.5v189z" />
    <glyph glyph-name="uni2081" unicode="&#x2081;" horiz-adv-x="318" 
d="M150 -150v363l-83 -73v66l83 71h57v-427h-57z" />
    <glyph glyph-name="uni2082" unicode="&#x2082;" horiz-adv-x="318" 
d="M41 -150v52l165 202q12 15 17.5 28t5.5 30q0 30 -17 48.5t-48 18.5q-26 0 -45.5 -15t-19.5 -52h-58q0 54 34.5 86.5t88.5 32.5t88.5 -32t34.5 -87q0 -28 -9.5 -48t-29.5 -44l-138 -168h177v-52h-246z" />
    <glyph glyph-name="uni2083" unicode="&#x2083;" horiz-adv-x="318" 
d="M293 -30q0 -30 -10 -53.5t-27.5 -39t-41 -23.5t-50.5 -8q-26 0 -49 7t-41 21.5t-29 37t-12 53.5h58q2 -36 23.5 -51.5t49.5 -15.5q30 0 51 19t21 54q0 33 -18.5 52.5t-56.5 19.5h-9v51h9q34 0 51 18.5t17 48.5q0 33 -20 50.5t-46 17.5q-29 0 -47 -17t-20 -46h-57
q3 54 38 84.5t86 30.5q55 0 89 -32.5t34 -86.5q0 -35 -14 -57t-40 -34q29 -12 45 -36.5t16 -64.5z" />
    <glyph glyph-name="uni2084" unicode="&#x2084;" horiz-adv-x="318" 
d="M251 -85v-65h-57v65h-172v52l151 310h62l-151 -310h110v105h57v-105h47v-52h-47z" />
    <glyph glyph-name="uni2085" unicode="&#x2085;" horiz-adv-x="318" 
d="M285 -8q0 -34 -6 -62t-29 -51q-15 -15 -37.5 -24t-51.5 -9q-31 0 -53.5 9t-36.5 23q-17 17 -23.5 36.5t-8.5 43.5h57q4 -29 19 -44.5t46 -15.5q14 0 26 4t21 13q14 14 17 34.5t3 42.5q0 38 -13 65.5t-51 27.5q-26 0 -42 -11t-21 -29h-53v232h227v-52h-174v-117
q23 25 71 25q50 0 76 -27q24 -24 30.5 -54t6.5 -60z" />
    <glyph glyph-name="uni2086" unicode="&#x2086;" horiz-adv-x="318" 
d="M284 -24q0 -59 -34 -94.5t-90 -35.5t-90.5 34t-34.5 93q0 23 6 45.5t23 55.5l100 203h61l-92 -185q17 7 39 7q24 0 44.5 -9t35.5 -25t23.5 -39t8.5 -50zM226 -26q0 33 -17.5 55t-49.5 22q-30 0 -48.5 -20.5t-18.5 -56.5q0 -35 18.5 -55.5t48.5 -20.5t48.5 20.5t18.5 55.5
z" />
    <glyph glyph-name="uni2087" unicode="&#x2087;" horiz-adv-x="318" 
d="M146 -150h-57l144 375h-140v-70h-54v122h251v-51z" />
    <glyph glyph-name="uni2088" unicode="&#x2088;" horiz-adv-x="318" 
d="M290 -30q0 -29 -10 -51.5t-28 -39t-42 -25t-51 -8.5t-50.5 8.5t-41.5 25t-28 39t-10 51.5q0 37 17.5 62t42.5 39q-23 14 -38 36.5t-15 55.5q0 53 35.5 85.5t87.5 32.5q53 0 88.5 -32.5t35.5 -85.5q0 -33 -15 -55.5t-38 -36.5q24 -14 42 -39t18 -62zM232 -29
q0 32 -20.5 53t-52.5 21q-31 0 -51.5 -21t-20.5 -53t20.5 -52.5t51.5 -20.5q32 0 52.5 20.5t20.5 52.5zM225 162q0 29 -18 48t-48 19q-29 0 -47 -19t-18 -48t18 -48t47 -19t47.5 19t18.5 48z" />
    <glyph glyph-name="uni2089" unicode="&#x2089;" horiz-adv-x="318" 
d="M284 154q0 -24 -7 -45t-23 -55l-100 -204h-61l93 185q-9 -3 -19 -5t-21 -2q-24 0 -44.5 9t-35.5 25t-23.5 39t-8.5 50q0 59 34.5 94.5t90.5 35.5t90.5 -34t34.5 -93zM226 153q0 35 -18 55.5t-49 20.5q-30 0 -48.5 -20.5t-18.5 -55.5q0 -32 17.5 -54.5t49.5 -22.5
q30 0 48.5 20.5t18.5 56.5z" />
    <glyph glyph-name="Euro" unicode="&#x20ac;" horiz-adv-x="678" 
d="M608 206q-9 -50 -30.5 -89.5t-54 -66.5t-73.5 -41.5t-89 -14.5q-55 0 -99.5 18.5t-77.5 51.5q-19 19 -32 38.5t-21 42t-12 50.5t-5 65h-67v50h66v98h-66v49h67q1 35 5.5 62.5t12.5 49.5t20.5 41t31.5 38q33 33 77.5 51.5t99.5 18.5q98 0 163.5 -56t83.5 -156h-77
q-14 66 -58 105t-112 39q-73 0 -123 -50q-12 -13 -20.5 -26.5t-14 -30.5t-8.5 -38t-4 -48h219v-49h-221v-98h221v-50h-219q2 -57 11.5 -90t35.5 -58q50 -50 123 -50q68 0 112.5 39t59.5 105h75z" />
    <glyph glyph-name="uni20B4" unicode="&#x20b4;" horiz-adv-x="625" 
d="M578 457v-49h-62q-12 -15 -22 -24q-46 -40 -131 -54q-31 -5 -61 -9t-61 -11h337v-50h-410q-8 -14 -11.5 -30.5t-3.5 -35.5q0 -63 45 -97.5t123 -34.5q60 0 105 17t89 61l52 -52q-50 -50 -107 -72t-137 -22q-56 0 -101 14t-77.5 40t-50 63.5t-17.5 84.5q0 34 9 64h-39v50
h64q6 8 12 14.5t14 12.5q22 19 51 30.5t79 19.5l78 12q17 3 38 9h-336v49h410q16 25 16 63q0 60 -39 96t-111 36q-57 0 -95 -15.5t-71 -45.5l-49 49q46 41 95 59.5t117 18.5q53 0 95 -14.5t71.5 -40.5t45.5 -63.5t16 -82.5q0 -31 -8 -60h38z" />
    <glyph glyph-name="afii61352" unicode="&#x2116;" horiz-adv-x="947" 
d="M486 0l-334 574v-574h-71v712h67l334 -573v573h71v-712h-67zM619 269v57h269v-57h-269zM830 541q0 29 -3.5 57t-19.5 44q-21 21 -52 21q-32 0 -53 -21q-16 -16 -19.5 -44t-3.5 -57t3.5 -57t19.5 -44q21 -21 53 -21q31 0 52 21q16 16 19.5 44t3.5 57zM891 540
q0 -42 -7.5 -77.5t-33.5 -61.5q-17 -17 -41 -27t-54 -10q-31 0 -55 10t-41 27q-26 26 -33.5 61.5t-7.5 77.5t7.5 77.5t33.5 61.5q17 17 41 27t55 10q30 0 54 -10t41 -27q26 -26 33.5 -61.5t7.5 -77.5z" />
    <glyph glyph-name="trademark" unicode="&#x2122;" horiz-adv-x="839" 
d="M724 285v308l-102 -202h-56l-102 202v-308h-58v427h58l130 -259l130 259h57v-427h-57zM212 659v-374h-58v374h-118v53h295v-53h-119z" />
    <glyph glyph-name="Omega" unicode="&#x2126;" horiz-adv-x="650" 
d="M574 356q0 -78 -4 -131t-24 -91q-9 -19 -22 -34.5t-33 -32.5h83v-67h-195v63q30 14 52.5 31.5t39.5 45.5t22 79t5 135q0 55 -1.5 94t-6.5 67t-15 47.5t-27 36.5q-50 51 -123 51q-72 0 -123 -51q-17 -17 -27 -36.5t-15 -47.5t-6.5 -67t-1.5 -94q0 -84 5 -135t22 -79
t39 -45.5t53 -31.5v-63h-195v67h83q-20 17 -33 32.5t-23 34.5q-19 38 -23 91t-4 131q0 61 1.5 105t8.5 77t21.5 59t39.5 51q33 33 77.5 51.5t100.5 18.5t100 -18.5t77 -51.5q25 -25 39.5 -51t21.5 -59t9 -77t2 -105z" />
    <glyph glyph-name="uni2150" unicode="&#x2150;" horiz-adv-x="821" 
d="M150 285v363l-83 -73v66l83 71h57v-427h-57zM274 0h-60l333 712h60zM649 0h-57l144 375h-140v-70h-54v122h251v-51z" />
    <glyph glyph-name="uni2151" unicode="&#x2151;" horiz-adv-x="821" 
d="M150 285v363l-83 -73v66l83 71h57v-427h-57zM274 0h-60l333 712h60zM787 304q0 -24 -7 -45t-23 -55l-100 -204h-61l93 185q-9 -3 -19 -5t-21 -2q-24 0 -44.5 9t-35.5 25t-23.5 39t-8.5 50q0 59 34.5 94.5t90.5 35.5t90.5 -34t34.5 -93zM729 303q0 35 -18 55.5t-49 20.5
q-30 0 -48.5 -20.5t-18.5 -55.5q0 -32 17.5 -54.5t49.5 -22.5q30 0 48.5 20.5t18.5 56.5z" />
    <glyph glyph-name="uni2152" unicode="&#x2152;" horiz-adv-x="1139" 
d="M150 285v363l-83 -73v66l83 71h57v-427h-57zM274 0h-60l333 712h60zM653 0v363l-83 -73v66l83 71h57v-427h-57zM1102 118q0 -28 -9.5 -50.5t-26 -38.5t-39 -24.5t-47.5 -8.5q-26 0 -48 8.5t-38.5 24.5t-26 38.5t-9.5 50.5v191q0 28 9.5 50.5t26 38.5t38.5 24.5t48 8.5
q25 0 47.5 -8.5t39 -24.5t26 -38.5t9.5 -50.5v-191zM1045 308q0 32 -17 52t-48 20q-30 0 -47 -20t-17 -52v-189q0 -32 17 -51.5t47 -19.5q31 0 48 19.5t17 51.5v189z" />
    <glyph glyph-name="onethird" unicode="&#x2153;" horiz-adv-x="821" 
d="M150 285v363l-83 -73v66l83 71h57v-427h-57zM274 0h-60l333 712h60zM796 120q0 -30 -10 -53.5t-27.5 -39t-41 -23.5t-50.5 -8q-26 0 -49 7t-41 21.5t-29 37t-12 53.5h58q2 -36 23.5 -51.5t49.5 -15.5q30 0 51 19t21 54q0 33 -18.5 52.5t-56.5 19.5h-9v51h9q34 0 51 18.5
t17 48.5q0 33 -20 50.5t-46 17.5q-29 0 -47 -17t-20 -46h-57q3 54 38 84.5t86 30.5q55 0 89 -32.5t34 -86.5q0 -35 -14 -57t-40 -34q29 -12 45 -36.5t16 -64.5z" />
    <glyph glyph-name="twothirds" unicode="&#x2154;" horiz-adv-x="821" 
d="M41 285v52l165 202q12 15 17.5 28t5.5 30q0 30 -17 48.5t-48 18.5q-26 0 -45.5 -15t-19.5 -52h-58q0 54 34.5 86.5t88.5 32.5t88.5 -32t34.5 -87q0 -28 -9.5 -48t-29.5 -44l-138 -168h177v-52h-246zM274 0h-60l333 712h60zM796 120q0 -30 -10 -53.5t-27.5 -39t-41 -23.5
t-50.5 -8q-26 0 -49 7t-41 21.5t-29 37t-12 53.5h58q2 -36 23.5 -51.5t49.5 -15.5q30 0 51 19t21 54q0 33 -18.5 52.5t-56.5 19.5h-9v51h9q34 0 51 18.5t17 48.5q0 33 -20 50.5t-46 17.5q-29 0 -47 -17t-20 -46h-57q3 54 38 84.5t86 30.5q55 0 89 -32.5t34 -86.5
q0 -35 -14 -57t-40 -34q29 -12 45 -36.5t16 -64.5z" />
    <glyph glyph-name="uni2155" unicode="&#x2155;" horiz-adv-x="821" 
d="M150 285v363l-83 -73v66l83 71h57v-427h-57zM274 0h-60l333 712h60zM788 142q0 -34 -6 -62t-29 -51q-15 -15 -37.5 -24t-51.5 -9q-31 0 -53.5 9t-36.5 23q-17 17 -23.5 36.5t-8.5 43.5h57q4 -29 19 -44.5t46 -15.5q14 0 26 4t21 13q14 14 17 34.5t3 42.5q0 38 -13 65.5
t-51 27.5q-26 0 -42 -11t-21 -29h-53v232h227v-52h-174v-117q23 25 71 25q50 0 76 -27q24 -24 30.5 -54t6.5 -60z" />
    <glyph glyph-name="uni2156" unicode="&#x2156;" horiz-adv-x="821" 
d="M41 285v52l165 202q12 15 17.5 28t5.5 30q0 30 -17 48.5t-48 18.5q-26 0 -45.5 -15t-19.5 -52h-58q0 54 34.5 86.5t88.5 32.5t88.5 -32t34.5 -87q0 -28 -9.5 -48t-29.5 -44l-138 -168h177v-52h-246zM274 0h-60l333 712h60zM788 142q0 -34 -6 -62t-29 -51
q-15 -15 -37.5 -24t-51.5 -9q-31 0 -53.5 9t-36.5 23q-17 17 -23.5 36.5t-8.5 43.5h57q4 -29 19 -44.5t46 -15.5q14 0 26 4t21 13q14 14 17 34.5t3 42.5q0 38 -13 65.5t-51 27.5q-26 0 -42 -11t-21 -29h-53v232h227v-52h-174v-117q23 25 71 25q50 0 76 -27q24 -24 30.5 -54
t6.5 -60z" />
    <glyph glyph-name="uni2157" unicode="&#x2157;" horiz-adv-x="821" 
d="M293 405q0 -30 -10 -53.5t-27.5 -39t-41 -23.5t-50.5 -8q-26 0 -49 7t-41 21.5t-29 37t-12 53.5h58q2 -36 23.5 -51.5t49.5 -15.5q30 0 51 19t21 54q0 33 -18.5 52.5t-56.5 19.5h-9v51h9q34 0 51 18.5t17 48.5q0 33 -20 50.5t-46 17.5q-29 0 -47 -17t-20 -46h-57
q3 54 38 84.5t86 30.5q55 0 89 -32.5t34 -86.5q0 -35 -14 -57t-40 -34q29 -12 45 -36.5t16 -64.5zM274 0h-60l333 712h60zM788 142q0 -34 -6 -62t-29 -51q-15 -15 -37.5 -24t-51.5 -9q-31 0 -53.5 9t-36.5 23q-17 17 -23.5 36.5t-8.5 43.5h57q4 -29 19 -44.5t46 -15.5
q14 0 26 4t21 13q14 14 17 34.5t3 42.5q0 38 -13 65.5t-51 27.5q-26 0 -42 -11t-21 -29h-53v232h227v-52h-174v-117q23 25 71 25q50 0 76 -27q24 -24 30.5 -54t6.5 -60z" />
    <glyph glyph-name="uni2158" unicode="&#x2158;" horiz-adv-x="821" 
d="M251 350v-65h-57v65h-172v52l151 310h62l-151 -310h110v105h57v-105h47v-52h-47zM274 0h-60l333 712h60zM788 142q0 -34 -6 -62t-29 -51q-15 -15 -37.5 -24t-51.5 -9q-31 0 -53.5 9t-36.5 23q-17 17 -23.5 36.5t-8.5 43.5h57q4 -29 19 -44.5t46 -15.5q14 0 26 4t21 13
q14 14 17 34.5t3 42.5q0 38 -13 65.5t-51 27.5q-26 0 -42 -11t-21 -29h-53v232h227v-52h-174v-117q23 25 71 25q50 0 76 -27q24 -24 30.5 -54t6.5 -60z" />
    <glyph glyph-name="uni2159" unicode="&#x2159;" horiz-adv-x="821" 
d="M150 285v363l-83 -73v66l83 71h57v-427h-57zM274 0h-60l333 712h60zM787 126q0 -59 -34 -94.5t-90 -35.5t-90.5 34t-34.5 93q0 23 6 45.5t23 55.5l100 203h61l-92 -185q17 7 39 7q24 0 44.5 -9t35.5 -25t23.5 -39t8.5 -50zM729 124q0 33 -17.5 55t-49.5 22
q-30 0 -48.5 -20.5t-18.5 -56.5q0 -35 18.5 -55.5t48.5 -20.5t48.5 20.5t18.5 55.5z" />
    <glyph glyph-name="uni215A" unicode="&#x215a;" horiz-adv-x="821" 
d="M285 427q0 -34 -6 -62t-29 -51q-15 -15 -37.5 -24t-51.5 -9q-31 0 -53.5 9t-36.5 23q-17 17 -23.5 36.5t-8.5 43.5h57q4 -29 19 -44.5t46 -15.5q14 0 26 4t21 13q14 14 17 34.5t3 42.5q0 38 -13 65.5t-51 27.5q-26 0 -42 -11t-21 -29h-53v232h227v-52h-174v-117
q23 25 71 25q50 0 76 -27q24 -24 30.5 -54t6.5 -60zM274 0h-60l333 712h60zM787 126q0 -59 -34 -94.5t-90 -35.5t-90.5 34t-34.5 93q0 23 6 45.5t23 55.5l100 203h61l-92 -185q17 7 39 7q24 0 44.5 -9t35.5 -25t23.5 -39t8.5 -50zM729 124q0 33 -17.5 55t-49.5 22
q-30 0 -48.5 -20.5t-18.5 -56.5q0 -35 18.5 -55.5t48.5 -20.5t48.5 20.5t18.5 55.5z" />
    <glyph glyph-name="oneeighth" unicode="&#x215b;" horiz-adv-x="821" 
d="M150 285v363l-83 -73v66l83 71h57v-427h-57zM274 0h-60l333 712h60zM793 120q0 -29 -10 -51.5t-28 -39t-42 -25t-51 -8.5t-50.5 8.5t-41.5 25t-28 39t-10 51.5q0 37 17.5 62t42.5 39q-23 14 -38 36.5t-15 55.5q0 53 35.5 85.5t87.5 32.5q53 0 88.5 -32.5t35.5 -85.5
q0 -33 -15 -55.5t-38 -36.5q24 -14 42 -39t18 -62zM735 121q0 32 -20.5 53t-52.5 21q-31 0 -51.5 -21t-20.5 -53t20.5 -52.5t51.5 -20.5q32 0 52.5 20.5t20.5 52.5zM728 312q0 29 -18 48t-48 19q-29 0 -47 -19t-18 -48t18 -48t47 -19t47.5 19t18.5 48z" />
    <glyph glyph-name="threeeighths" unicode="&#x215c;" horiz-adv-x="821" 
d="M293 405q0 -30 -10 -53.5t-27.5 -39t-41 -23.5t-50.5 -8q-26 0 -49 7t-41 21.5t-29 37t-12 53.5h58q2 -36 23.5 -51.5t49.5 -15.5q30 0 51 19t21 54q0 33 -18.5 52.5t-56.5 19.5h-9v51h9q34 0 51 18.5t17 48.5q0 33 -20 50.5t-46 17.5q-29 0 -47 -17t-20 -46h-57
q3 54 38 84.5t86 30.5q55 0 89 -32.5t34 -86.5q0 -35 -14 -57t-40 -34q29 -12 45 -36.5t16 -64.5zM274 0h-60l333 712h60zM793 120q0 -29 -10 -51.5t-28 -39t-42 -25t-51 -8.5t-50.5 8.5t-41.5 25t-28 39t-10 51.5q0 37 17.5 62t42.5 39q-23 14 -38 36.5t-15 55.5
q0 53 35.5 85.5t87.5 32.5q53 0 88.5 -32.5t35.5 -85.5q0 -33 -15 -55.5t-38 -36.5q24 -14 42 -39t18 -62zM735 121q0 32 -20.5 53t-52.5 21q-31 0 -51.5 -21t-20.5 -53t20.5 -52.5t51.5 -20.5q32 0 52.5 20.5t20.5 52.5zM728 312q0 29 -18 48t-48 19q-29 0 -47 -19t-18 -48
t18 -48t47 -19t47.5 19t18.5 48z" />
    <glyph glyph-name="fiveeighths" unicode="&#x215d;" horiz-adv-x="821" 
d="M285 427q0 -34 -6 -62t-29 -51q-15 -15 -37.5 -24t-51.5 -9q-31 0 -53.5 9t-36.5 23q-17 17 -23.5 36.5t-8.5 43.5h57q4 -29 19 -44.5t46 -15.5q14 0 26 4t21 13q14 14 17 34.5t3 42.5q0 38 -13 65.5t-51 27.5q-26 0 -42 -11t-21 -29h-53v232h227v-52h-174v-117
q23 25 71 25q50 0 76 -27q24 -24 30.5 -54t6.5 -60zM274 0h-60l333 712h60zM793 120q0 -29 -10 -51.5t-28 -39t-42 -25t-51 -8.5t-50.5 8.5t-41.5 25t-28 39t-10 51.5q0 37 17.5 62t42.5 39q-23 14 -38 36.5t-15 55.5q0 53 35.5 85.5t87.5 32.5q53 0 88.5 -32.5t35.5 -85.5
q0 -33 -15 -55.5t-38 -36.5q24 -14 42 -39t18 -62zM735 121q0 32 -20.5 53t-52.5 21q-31 0 -51.5 -21t-20.5 -53t20.5 -52.5t51.5 -20.5q32 0 52.5 20.5t20.5 52.5zM728 312q0 29 -18 48t-48 19q-29 0 -47 -19t-18 -48t18 -48t47 -19t47.5 19t18.5 48z" />
    <glyph glyph-name="seveneighths" unicode="&#x215e;" horiz-adv-x="821" 
d="M146 285h-57l144 375h-140v-70h-54v122h251v-51zM274 0h-60l333 712h60zM793 120q0 -29 -10 -51.5t-28 -39t-42 -25t-51 -8.5t-50.5 8.5t-41.5 25t-28 39t-10 51.5q0 37 17.5 62t42.5 39q-23 14 -38 36.5t-15 55.5q0 53 35.5 85.5t87.5 32.5q53 0 88.5 -32.5t35.5 -85.5
q0 -33 -15 -55.5t-38 -36.5q24 -14 42 -39t18 -62zM735 121q0 32 -20.5 53t-52.5 21q-31 0 -51.5 -21t-20.5 -53t20.5 -52.5t51.5 -20.5q32 0 52.5 20.5t20.5 52.5zM728 312q0 29 -18 48t-48 19q-29 0 -47 -19t-18 -48t18 -48t47 -19t47.5 19t18.5 48z" />
    <glyph glyph-name="uni215F" unicode="&#x215f;" horiz-adv-x="503" 
d="M150 285v363l-83 -73v66l83 71h57v-427h-57zM274 0h-60l333 712h60z" />
    <glyph glyph-name="uni2189" unicode="&#x2189;" horiz-adv-x="821" 
d="M281 403q0 -28 -9.5 -50.5t-26 -38.5t-39 -24.5t-47.5 -8.5q-26 0 -48 8.5t-38.5 24.5t-26 38.5t-9.5 50.5v191q0 28 9.5 50.5t26 38.5t38.5 24.5t48 8.5q25 0 47.5 -8.5t39 -24.5t26 -38.5t9.5 -50.5v-191zM224 593q0 32 -17 52t-48 20q-30 0 -47 -20t-17 -52v-189
q0 -32 17 -51.5t47 -19.5q31 0 48 19.5t17 51.5v189zM274 0h-60l333 712h60zM796 120q0 -30 -10 -53.5t-27.5 -39t-41 -23.5t-50.5 -8q-26 0 -49 7t-41 21.5t-29 37t-12 53.5h58q2 -36 23.5 -51.5t49.5 -15.5q30 0 51 19t21 54q0 33 -18.5 52.5t-56.5 19.5h-9v51h9
q34 0 51 18.5t17 48.5q0 33 -20 50.5t-46 17.5q-29 0 -47 -17t-20 -46h-57q3 54 38 84.5t86 30.5q55 0 89 -32.5t34 -86.5q0 -35 -14 -57t-40 -34q29 -12 45 -36.5t16 -64.5z" />
    <glyph glyph-name="arrowleft" unicode="&#x2190;" horiz-adv-x="1027" 
d="M56 269l399 399h94l-365 -364h789v-70h-789l365 -364h-94z" />
    <glyph glyph-name="arrowup" unicode="&#x2191;" horiz-adv-x="1027" 
d="M514 727l399 -399v-94l-364 365v-789h-70v789l-364 -365v94z" />
    <glyph glyph-name="arrowright" unicode="&#x2192;" horiz-adv-x="1027" 
d="M845 234h-789v70h789l-365 364h94l399 -399l-399 -399h-94z" />
    <glyph glyph-name="arrowdown" unicode="&#x2193;" horiz-adv-x="1027" 
d="M514 -191l-399 399v94l364 -365v789h70v-789l364 365v-94z" />
    <glyph glyph-name="uni2196" unicode="&#x2196;" horiz-adv-x="1027" 
d="M189 593h565l66 -66h-515l558 -558l-50 -50l-557 558v-515l-67 66v565z" />
    <glyph glyph-name="uni2197" unicode="&#x2197;" horiz-adv-x="1027" 
d="M863 593v-565l-66 -66v515l-558 -558l-50 50l558 557h-515l66 67h565z" />
    <glyph glyph-name="uni2198" unicode="&#x2198;" horiz-adv-x="1027" 
d="M278 -67l-66 66l515 -1l-558 558l50 50l558 -558l-1 517l66 -68v-564h-564z" />
    <glyph glyph-name="uni2199" unicode="&#x2199;" horiz-adv-x="1027" 
d="M300 -2l515 1l-66 -66h-564v564l66 68l-1 -517l558 558l50 -50z" />
    <glyph glyph-name="partialdiff" unicode="&#x2202;" horiz-adv-x="544" 
d="M453 244q0 -57 -10.5 -107t-46.5 -88q-24 -26 -58 -40.5t-78 -14.5t-78.5 14.5t-58.5 40.5q-36 38 -46.5 88t-10.5 107q0 61 10.5 111t46.5 87q20 21 53 37t77 16q36 0 67.5 -11.5t60.5 -46.5v70q0 30 -7.5 57t-24 47.5t-42 32.5t-61.5 12q-21 0 -37 -3.5t-29.5 -9.5
t-26 -15.5t-25.5 -21.5l-46 46q19 18 37 30.5t37.5 20.5t41.5 11.5t50 3.5q50 0 88.5 -16t64.5 -44.5t39 -68t13 -87.5v-258zM381 244q0 21 -1 42t-5 40.5t-11 37t-20 31.5q-34 36 -84 36q-51 0 -85 -36q-13 -14 -20.5 -31.5t-11 -37t-4.5 -40.5t-1 -42t1 -42t4.5 -40.5
t11 -37t20.5 -30.5q34 -36 85 -36q50 0 84 36q13 13 20 30.5t11 37t5 40.5t1 42z" />
    <glyph glyph-name="Delta" unicode="&#x2206;" horiz-adv-x="603" 
d="M8 0l262 712h63l261 -712h-586zM302 603l-194 -537h387z" />
    <glyph glyph-name="product" unicode="&#x220f;" horiz-adv-x="696" 
d="M517 -220v912h-338v-912h-76v980h490v-980h-76z" />
    <glyph glyph-name="summation" unicode="&#x2211;" horiz-adv-x="551" 
d="M57 -220v65l202 438l-201 413v64h441v-68h-353l180 -375v-69l-182 -400h356v-68h-443z" />
    <glyph glyph-name="minus" unicode="&#x2212;" horiz-adv-x="522" 
d="M52 236v67h418v-67h-418z" />
    <glyph glyph-name="uni2219" unicode="&#x2219;" horiz-adv-x="522" 
d="M425 334q0 -34 -13 -63.5t-35 -51.5t-51.5 -35t-63.5 -13t-63.5 13t-51.5 35t-35 51.5t-13 63.5t13 63.5t35 51.5t51.5 35t63.5 13t63.5 -13t51.5 -35t35 -51.5t13 -63.5z" />
    <glyph glyph-name="radical" unicode="&#x221a;" horiz-adv-x="562" 
d="M443 644l-211 -644h-61l-163 492h79l115 -356l184 576h146v-68h-89z" />
    <glyph glyph-name="infinity" unicode="&#x221e;" horiz-adv-x="808" 
d="M740 267q0 -34 -11 -63t-32 -50.5t-50 -33.5t-65 -12q-26 0 -49 6t-44 19t-42 32.5t-43 46.5q-44 -54 -85 -79.5t-92 -25.5q-36 0 -65.5 12.5t-50.5 34t-32.5 50.5t-11.5 63t11.5 63t32.5 50.5t50.5 34t65.5 12.5q50 0 91 -26t86 -80q45 54 85 80t93 26q36 0 65 -12.5
t50 -34t32 -50.5t11 -63zM358 266q-35 42 -63.5 68t-65.5 26q-41 0 -67 -26t-26 -68t26 -67.5t67 -25.5q37 0 65.5 25.5t63.5 67.5zM671 266q0 42 -25.5 67.5t-66.5 25.5q-37 0 -66 -25.5t-64 -67.5q35 -42 64 -67.5t66 -25.5q41 0 66.5 25.5t25.5 67.5z" />
    <glyph glyph-name="integral" unicode="&#x222b;" horiz-adv-x="372" 
d="M296 653q-37 0 -55 -20t-18 -57v-654q0 -64 -35.5 -102t-100.5 -38h-50v62h39q37 0 55 20t18 57v654q0 64 35.5 102t100.5 38h49v-62h-38z" />
    <glyph glyph-name="approxequal" unicode="&#x2248;" horiz-adv-x="539" 
d="M490 189q-21 -21 -37.5 -34.5t-31 -21t-29 -10t-31.5 -2.5q-26 0 -51.5 9t-54.5 22q-29 14 -44.5 19t-32.5 5q-11 0 -19.5 -1.5t-18 -6.5t-20.5 -13.5t-26 -23.5l-45 45q21 21 37.5 34t31 20.5t29 10.5t31.5 3q23 0 46 -7t60 -24q19 -9 30.5 -13.5t20 -7t14 -3t12.5 -0.5
q10 0 19 1.5t18.5 6.5t20.5 13.5t26 23.5zM490 366q-21 -21 -37.5 -34.5t-31 -21t-29 -10t-31.5 -2.5q-26 0 -51.5 9.5t-54.5 22.5q-21 10 -39.5 16.5t-38.5 6.5q-11 0 -19.5 -1.5t-18 -6t-20.5 -13t-26 -23.5l-44 44q21 21 37.5 34.5t31 21t29 10.5t31.5 3q23 0 46 -7.5
t59 -24.5q21 -10 39.5 -16.5t38.5 -6.5q10 0 19 1.5t18.5 6t20.5 13t26 23.5z" />
    <glyph glyph-name="notequal" unicode="&#x2260;" horiz-adv-x="537" 
d="M201 151l-103 -111l-46 40l67 71h-67v66h126l99 103h-225v67h284l104 111l45 -41l-67 -70h67v-67h-126l-98 -103h224v-66h-284z" />
    <glyph glyph-name="lessequal" unicode="&#x2264;" horiz-adv-x="522" 
d="M95 302v65l331 168v-77l-250 -124l250 -123v-77zM95 152v77l331 -168v-77z" />
    <glyph glyph-name="greaterequal" unicode="&#x2265;" horiz-adv-x="522" 
d="M95 134v77l250 123l-250 124v77l331 -168v-65zM95 -16v77l331 168v-77z" />
    <glyph glyph-name="dotmath" unicode="&#x22c5;" horiz-adv-x="522" 
d="M214 223v94h94v-94h-94z" />
    <glyph glyph-name="lozenge" unicode="&#x25ca;" horiz-adv-x="649" 
d="M325 -12l-258 364l258 364l257 -364zM325 605l-177 -253l177 -255l176 255z" />
    <glyph glyph-name="fi" unicode="&#xfb01;" horiz-adv-x="562" 
d="M178 437v-437h-72v437h-63v55h63v90q0 27 7.5 51t23.5 42t39 28.5t55 10.5h52v-62h-39q-35 0 -50.5 -19t-15.5 -53v-88h105v-55h-105zM400 0v492h72v-492h-72zM396 632v81h81v-81h-81z" />
    <glyph glyph-name="fl" unicode="&#xfb02;" horiz-adv-x="602" 
d="M178 437v-437h-72v437h-63v55h63v90q0 27 7.5 51t23.5 42t39 28.5t55 10.5h52v-62h-39q-35 0 -50.5 -19t-15.5 -53v-88h105v-55h-105zM521 0q-65 0 -95 37.5t-30 93.5v581h72v-578q0 -36 14 -54t52 -18h39v-62h-52z" />
    <glyph glyph-name="uniFEFF" unicode="&#xfeff;" horiz-adv-x="0" 
 />
    <glyph glyph-name="caroncomma.ss01" 
d="M552 531v190h68v-125z" />
    <glyph glyph-name="caroncomma" 
d="M575 567h-58l39 152h70z" />
    <glyph glyph-name="commaaccent" horiz-adv-x="264" 
d="M31 -216l71 149h66l-59 -149h-78z" />
    <glyph glyph-name="commaturn" horiz-adv-x="264" 
d="M128 594h-66l88 153h86z" />
    <glyph glyph-name="breveCyrLc.comp" horiz-adv-x="500" 
d="M396 704q-5 -68 -44 -97t-102 -29t-102 29t-44 97h64q6 -75 82 -75t82 75h64z" />
    <glyph glyph-name="breveCyrUc.comp" horiz-adv-x="500" 
d="M396 883q-5 -67 -44 -96.5t-102 -29.5t-102 29.5t-44 96.5h64q6 -74 82 -74t82 74h64z" />
    <glyph glyph-name="grave.lc" 
d="M236 594l-105 153h83l91 -153h-69z" />
    <glyph glyph-name="dieresis.lc" 
d="M335 602v89h72v-89h-72zM123 602v89h72v-89h-72z" />
    <glyph glyph-name="macron.lc" horiz-adv-x="500" 
d="M100 602v56h301v-56h-301z" />
    <glyph glyph-name="acute.lc" 
d="M284 594h-69l91 153h83z" />
    <glyph glyph-name="circumflex.lc" 
d="M356 594l-91 104l-90 -104h-69l125 153h68l126 -153h-69z" />
    <glyph glyph-name="caron.lc" horiz-adv-x="459" 
d="M270 594h-68l-126 153h69l91 -105l90 105h69z" />
    <glyph glyph-name="breve.lc" horiz-adv-x="500" 
d="M415 729q-12 -139 -165 -139t-165 139h56q5 -40 34 -61.5t75 -21.5t75 21.5t34 61.5h56v0z" />
    <glyph glyph-name="dotaccent.lc" horiz-adv-x="500" 
d="M212 687h75v-77h-75v77z" />
    <glyph glyph-name="ring.lc" horiz-adv-x="526" 
d="M370 687q0 -24 -9.5 -46t-25.5 -38t-37.5 -25.5t-45.5 -9.5t-45.5 9.5t-37.5 25.5t-25.5 38t-9.5 46t9.5 45.5t25.5 37.5t37.5 25.5t45.5 9.5t45.5 -9t37.5 -25t25.5 -37.5t9.5 -46.5zM321 687q0 29 -20 48.5t-49 19.5t-49 -19.5t-20 -48.5t20 -49t49 -20t49 20t20 49z
" />
    <glyph glyph-name="tilde.lc" 
d="M422 658q-17 -17 -30.5 -27.5t-25 -15.5t-21 -6.5t-18.5 -1.5q-21 0 -37 6.5t-34 17.5q-14 8 -27.5 14t-28.5 6q-13 0 -25 -5t-34 -27l-37 36q17 17 30.5 27t25 15.5t21 7t18.5 1.5q22 0 37 -6t34 -18q16 -9 28.5 -14.5t27.5 -5.5q6 0 11.5 1t12.5 4t15.5 9.5t19.5 17.5
l37 -36v0z" />
    <glyph glyph-name="hungarumlaut.lc" horiz-adv-x="500" 
d="M196 594h-66l89 153h85zM358 594h-65l89 153h85z" />
    <glyph glyph-name="grave.uc" horiz-adv-x="650" 
d="M307 780l-105 154h83l91 -154h-69z" />
    <glyph glyph-name="dieresis.uc" horiz-adv-x="650" 
d="M395 789v89h72v-89h-72zM183 789v89h72v-89h-72z" />
    <glyph glyph-name="macron.uc" horiz-adv-x="500" 
d="M99 855h301v-57h-301v57z" />
    <glyph glyph-name="acute.uc" horiz-adv-x="650" 
d="M343 780h-69l91 154h83z" />
    <glyph glyph-name="circumflex.uc" horiz-adv-x="650" 
d="M415 780l-90 105l-91 -105h-69l126 153h68l125 -153h-69z" />
    <glyph glyph-name="caron.uc" horiz-adv-x="556" 
d="M318 780h-68l-125 153h69l90 -104l91 104h69z" />
    <glyph glyph-name="breve.uc" horiz-adv-x="500" 
d="M415 933q-12 -139 -165 -139t-165 139h56q5 -40 34 -61.5t75 -21.5t75 21.5t34 61.5h56v0z" />
    <glyph glyph-name="dotaccent.uc" horiz-adv-x="500" 
d="M212 873h75v-76h-75v76z" />
    <glyph glyph-name="ring.uc" horiz-adv-x="500" 
d="M368 867q0 -24 -9.5 -46t-25.5 -38t-37.5 -25.5t-45.5 -9.5t-45.5 9.5t-37.5 25.5t-25.5 38t-9.5 46t9.5 45.5t25.5 37.5t37.5 25.5t45.5 9.5t45.5 -9t37.5 -25t25.5 -37.5t9.5 -46.5zM319 867q0 29 -20 48.5t-49 19.5t-49 -19.5t-20 -48.5t20 -49t49 -20t49 20t20 49z
" />
    <glyph glyph-name="tilde.uc" horiz-adv-x="650" 
d="M482 844q-17 -17 -31 -27t-25 -15t-20.5 -6.5t-18.5 -1.5q-22 0 -37.5 6t-33.5 17q-14 8 -27.5 14.5t-28.5 6.5q-13 0 -25 -5t-34 -27l-37 36q17 17 30.5 27t25 15.5t21 7t18.5 1.5q22 0 37 -6t34 -18q16 -10 28.5 -15t27.5 -5q6 0 11.5 1t12.5 4t15.5 9.5t19.5 17.5
l37 -37v0z" />
    <glyph glyph-name="hungarumlaut.uc" horiz-adv-x="500" 
d="M196 781h-66l89 153h85zM358 781h-65l89 153h85z" />
    </font>
</defs>
</svg>
