<?xml version="1.0" standalone="no"?>
<!DOCTYPE svg PUBLIC "-//W3C//DTD SVG 1.1//EN" "http://www.w3.org/Graphics/SVG/1.1/DTD/svg11.dtd" >
<svg xmlns="http://www.w3.org/2000/svg">
<metadata></metadata>
<defs>
<font id="triluxpictomedium" horiz-adv-x="2318" >
<font-face units-per-em="2048" ascent="1638" descent="-410" />
<missing-glyph horiz-adv-x="500" />
<glyph horiz-adv-x="0" />
<glyph horiz-adv-x="682" />
<glyph unicode="!" horiz-adv-x="1386" d="M76 602q0 125 49 239t131.5 197.5t197 133t240.5 49.5t240.5 -49.5t197.5 -133t132 -197.5t49 -239t-49 -239t-132 -197t-197.5 -132.5t-240.5 -49.5q-168 0 -310.5 83.5t-225 226t-82.5 308.5z" />
<glyph unicode="&#x22;" d="M178 418v778h82v-778h-82zM485 418h84v321h207q107 0 173.5 62.5t66.5 167.5q0 103 -66.5 165t-173.5 62h-291v-778zM569 813v309h199q74 0 119 -39.5t45 -113.5q0 -76 -45 -116t-119 -40h-199zM1137 418v69l307 392q43 55 43 114q0 64 -36.5 102t-98.5 38 q-58 0 -96.5 -35.5t-38.5 -106.5h-80q0 93 59 152t156 59q96 0 154.5 -57t58.5 -152q0 -46 -14 -80t-48 -77l-272 -349h334v-69h-428zM1704 627q0 -96 60.5 -155.5t152.5 -59.5t152.5 59.5t60.5 155.5v362q0 95 -60.5 154t-152.5 59t-152.5 -59t-60.5 -154v-362zM1782 631 v352q0 66 36 108t99 42t99 -42t36 -108v-352q0 -66 -36 -108t-99 -42t-99 42t-36 108z" />
<glyph unicode="#" d="M178 418v778h82v-778h-82zM485 418h84v321h207q107 0 173.5 62.5t66.5 167.5q0 103 -66.5 165t-173.5 62h-291v-778zM569 813v309h199q74 0 119 -39.5t45 -113.5q0 -76 -45 -116t-119 -40h-199zM1137 418v69l307 392q43 55 43 114q0 64 -36.5 102t-98.5 38 q-58 0 -96.5 -35.5t-38.5 -106.5h-80q0 93 59 152t156 59q96 0 154.5 -57t58.5 -152q0 -46 -14 -80t-48 -77l-272 -349h334v-69h-428zM1706 418v69l307 392q43 51 43 114q0 64 -35.5 102t-99.5 38q-58 0 -96.5 -35.5t-38.5 -106.5h-78q0 93 58.5 152t154.5 59q97 0 156 -57 t59 -152q0 -45 -14.5 -79t-48.5 -78l-271 -349h334v-69h-430z" />
<glyph unicode="$" horiz-adv-x="1792" d="M82 199v1241q0 82 58.5 140t140.5 58h1241q82 0 140 -58t58 -140v-1241q0 -82 -58 -140.5t-140 -58.5h-1241q-82 0 -140.5 58.5t-58.5 140.5zM154 211q0 -59 40 -99t99 -40h1216q59 0 99.5 40.5t40.5 98.5v1216q0 59 -40.5 99.5t-99.5 40.5h-1216q-58 0 -98.5 -40.5 t-40.5 -99.5v-1216zM233 1096l189 -533h82l188 533h-74l-153 -463h-2l-152 463h-78zM399 18h1024h-1024zM688 756q0 -87 46.5 -145t131.5 -58q95 0 123 61h2v-51h64v533h-64v-199h-2q-20 31 -55 45t-70 14q-86 0 -131 -56t-45 -144zM756 752q0 64 27 106.5t87 42.5 q62 0 92.5 -41.5t30.5 -103.5t-29.5 -104t-89.5 -42q-58 0 -88 41.5t-30 100.5zM1130 737q0 -92 63 -140t159 -48q82 0 144.5 41t62.5 119q0 37 -13.5 64.5t-40 44.5t-53 26.5t-63.5 17.5q-12 3 -35.5 8t-35.5 8t-30.5 8.5t-28.5 11.5t-20.5 14t-15 19t-4.5 25q0 49 34 71 t84 22q122 0 133 -109h68q-4 84 -57.5 126t-139.5 42q-81 0 -137.5 -39.5t-56.5 -116.5q0 -28 10 -50.5t25 -36.5t40 -25t45.5 -17t51.5 -12q6 -1 19 -4q31 -6 46.5 -10t39 -12.5t35.5 -17.5t21 -24.5t9 -35.5q0 -53 -39 -75t-96 -22q-65 0 -110.5 32.5t-45.5 94.5h-68z" />
<glyph unicode="%" d="M178 418v778h82v-778h-82zM485 418h84v321h207q107 0 173.5 62.5t66.5 167.5q0 103 -66.5 165t-173.5 62h-291v-778zM569 813v309h199q75 0 120.5 -39.5t45.5 -113.5q0 -76 -45.5 -116t-120.5 -40h-199zM1137 418v69l307 392q43 55 43 114q0 64 -36.5 102t-98.5 38 q-58 0 -96.5 -35.5t-38.5 -106.5h-80q0 93 59 152t156 59q96 0 154.5 -57t58.5 -152q0 -46 -14 -80t-48 -77l-272 -349h334v-69h-428zM1677 616h80q4 -69 46 -102t104 -33q65 0 107 40.5t42 109.5q0 151 -153 151h-17v68h17q70 0 104.5 37t34.5 104q0 68 -38 106t-97 38 q-61 0 -98.5 -35t-43.5 -96h-77q6 92 67 146t152 54q95 0 154 -58t59 -153q0 -125 -105 -174q119 -44 119 -188q0 -104 -64 -162.5t-163 -58.5q-98 0 -162 52.5t-68 153.5z" />
<glyph unicode="&#x26;" d="M178 418v778h82v-778h-82zM485 418h84v321h207q107 0 173.5 62.5t66.5 167.5q0 103 -66.5 165t-173.5 62h-291v-778zM569 813v309h199q75 0 120.5 -39.5t45.5 -113.5q0 -76 -45.5 -116t-120.5 -40h-199zM1137 418v69l307 392q43 55 43 114q0 64 -36.5 102t-98.5 38 q-58 0 -96.5 -35.5t-38.5 -106.5h-80q0 93 59 152t156 59q96 0 154.5 -57t58.5 -152q0 -46 -14 -80t-48 -77l-272 -349h334v-69h-428zM1675 541v71l281 584h84l-281 -584h228v222h77v-222h95v-71h-95v-123h-77v123h-312z" />
<glyph unicode="'" d="M178 418v778h82v-778h-82zM485 418h84v321h207q107 0 173.5 62.5t66.5 167.5q0 103 -66.5 165t-173.5 62h-291v-778zM569 813v309h199q74 0 119 -39.5t45 -113.5q0 -76 -45 -116t-119 -40h-199zM1106 541v71l280 584h84l-280 -584h225v222h78v-222h94v-71h-94v-123h-78 v123h-309zM1704 627q0 -96 60.5 -155.5t152.5 -59.5t152.5 59.5t60.5 155.5v362q0 95 -60.5 154t-152.5 59t-152.5 -59t-60.5 -154v-362zM1782 631v352q0 66 36 108t99 42t99 -42t36 -108v-352q0 -66 -36 -108t-99 -42t-99 42t-36 108z" />
<glyph unicode="(" horiz-adv-x="1396" d="M90 831q0 -34 24.5 -58.5t59.5 -24.5t59.5 24.5t24.5 58.5q0 36 -24.5 61.5t-59.5 25.5t-59.5 -25.5t-24.5 -61.5zM354 831q0 -34 24.5 -58.5t59.5 -24.5t59.5 24.5t24.5 58.5q0 36 -24.5 61.5t-59.5 25.5t-59.5 -25.5t-24.5 -61.5zM618 831q0 -34 24.5 -58.5t59.5 -24.5 t59.5 24.5t24.5 58.5q0 36 -24.5 61.5t-59.5 25.5t-59.5 -25.5t-24.5 -61.5zM879 502h428v112h-295v166h231v113h-231v160h280v112h-413v-663z" />
<glyph unicode=")" horiz-adv-x="2334" d="M80 1053h272l-252 -551h150l260 592v71h-430v-112zM598 502h336v106h-103v557h-94l-139 -51v-72h100v-434h-100v-106zM1026 502h438v112h-303q41 50 101.5 100.5t100.5 80.5t70.5 79t30.5 109q0 83 -54.5 138t-162.5 55q-94 0 -156 -52.5t-65 -144.5l125 -21 q20 113 100 113q36 0 57 -23.5t21 -58.5q0 -33 -17.5 -63.5t-50 -60t-68.5 -58.5t-83 -73.5t-84 -90.5v-141zM1559 834q0 -35 25.5 -59.5t60.5 -24.5t59.5 24.5t24.5 59.5q0 34 -24.5 59t-59.5 25t-60.5 -25t-25.5 -59zM1825 834q0 -35 24.5 -59.5t59.5 -24.5t59.5 24.5 t24.5 59.5q0 34 -24.5 59t-59.5 25t-59.5 -25t-24.5 -59zM2089 834q0 -35 24.5 -59.5t59.5 -24.5t59.5 24.5t24.5 59.5q0 34 -24.5 59t-59.5 25t-59.5 -25t-24.5 -59z" />
<glyph unicode="*" horiz-adv-x="403" d="M43 1505l18 60l111 -37v117h61v-117l111 37l18 -60l-108 -35l68 -94l-50 -37l-69 95l-68 -95l-49 37l68 94z" />
<glyph unicode="+" horiz-adv-x="2625" d="M98 831q0 -35 25 -59t61 -24q35 0 59.5 24t24.5 59q0 36 -24.5 61.5t-59.5 25.5t-60.5 -26t-25.5 -61zM365 831q0 -35 24.5 -59t59.5 -24t59 24t24 59q0 36 -24 61.5t-59 25.5t-59.5 -25.5t-24.5 -61.5zM629 831q0 -35 25 -59t61 -24q35 0 59.5 24t24.5 59 q0 36 -24.5 61.5t-59.5 25.5t-60.5 -26t-25.5 -61zM891 502h133v278h215v113h-215v160h281v112h-414v-663zM1370 502h133v278h215v113h-215v160h279v112h-412v-663zM2114 502h430v112h-297v166h231v113h-231v160h280v112h-413v-663z" />
<glyph unicode="," d="M178 418v778h82v-778h-82zM485 418h84v321h207q107 0 173.5 62.5t66.5 167.5q0 103 -66.5 165t-173.5 62h-291v-778zM569 813v309h199q74 0 119 -39.5t45 -113.5q0 -76 -45 -116t-119 -40h-199zM1106 541v71l280 584h84l-280 -584h225v222h78v-222h94v-71h-94v-123h-78 v123h-309zM1677 616h80q4 -69 46 -102t104 -33q65 0 107 40.5t42 109.5q0 151 -153 151h-17v68h17q70 0 104.5 37t34.5 104q0 68 -38 106t-97 38q-61 0 -98.5 -35t-43.5 -96h-77q6 92 67 146t152 54q95 0 154 -58t59 -153q0 -125 -105 -174q119 -44 119 -188 q0 -104 -64 -162.5t-163 -58.5q-98 0 -162 52.5t-68 153.5z" />
<glyph unicode="-" horiz-adv-x="552" d="M66 518v144h419v-144h-419z" />
<glyph unicode="." horiz-adv-x="716" d="M90 477v254h539v-254h-539z" />
<glyph unicode="0" horiz-adv-x="2789" d="M176 797q0 47 35 81.5t82 34.5t82 -34.5t35 -81.5t-35 -82t-82 -35t-82 35t-35 82zM698 797q0 47 35 81.5t82 34.5t82 -34.5t35 -81.5t-35 -82t-82 -35t-82 35t-35 82zM1219 797q0 47 34.5 81.5t81.5 34.5t82 -34.5t35 -81.5t-35 -82t-82 -35t-81.5 35t-34.5 82zM1751 0 v1593h864v-143h-696v-543h498v-143h-498v-621h743v-143h-911z" />
<glyph unicode="1" horiz-adv-x="8986" d="M102 815q0 -222 120.5 -410.5t327 -298.5t449.5 -110h6988q183 0 349 65t286 175t191 261.5t71 317.5q0 167 -71 318.5t-191 261t-286 174.5t-349 65h-6988q-182 0 -348 -65t-286.5 -174.5t-191.5 -261t-71 -318.5zM207 815q0 145 63 277.5t169 228.5t252.5 152.5 t307.5 56.5h6988q161 0 308 -56.5t253 -152.5t169 -228t63 -278q0 -145 -63 -277t-169 -228t-253 -153t-308 -57h-6988q-214 0 -396.5 96t-289 261t-106.5 358zM705 1036v160h1116v-160h-267v-596h-569v596h-280zM1972 440v756h1282q36 0 62 -12t38 -29t18.5 -33.5 t7.5 -28.5l1 -12v-245q0 -27 -13 -47.5t-31.5 -30t-37.5 -15t-32 -5.5l-13 -1h-121l277 -297h-602l-271 283v-283h-565zM2544 840h301v196h-301v-196zM3647 440v756h580v-756h-580zM4536 440v756h564v-592h288v-164h-288h-564zM5509 598v598h561v-592h213v592h547v-592 q0 -46 -15 -79.5t-36 -49t-42.5 -24.5t-36.5 -10l-15 -1h-1028q-41 0 -71.5 16.5t-44.5 39.5t-22 46t-9 40zM6930 440l402 303l-402 453h678l131 -141l187 141h383l-416 -307l416 -449h-709l-123 138l-184 -138h-363z" />
<glyph unicode="2" horiz-adv-x="1712" d="M51 795q0 175 74 335l33 -16q-72 -153 -72 -319q0 -153 58 -292.5t167 -248.5t248 -167t293 -58q152 0 292 58t249 167q107 107 165 247t58 294q0 170 -76 331l31 17q80 -165 80 -348q0 -162 -60 -308t-174 -260t-259.5 -173.5t-305.5 -59.5q-162 0 -307.5 59.5 t-259.5 173.5q-113 114 -173.5 260.5t-60.5 307.5zM127 1212q109 190 299 304q197 116 426 116q228 0 422 -114q189 -110 299 -299l-92 -56q-96 166 -262 262q-167 99 -367 99q-201 0 -371 -101q-164 -95 -262 -264zM350 795q0 177 111 313q108 136 274 174l8 -35 q-154 -35 -256 -162t-102 -290q0 -115 54 -216.5t149 -166.5l-21 -29q-101 69 -159 179t-58 233zM555 799q0 81 41.5 150.5t112.5 109.5l18 -33q-63 -34 -100 -95t-37 -132q0 -72 37 -134t100 -96l-16 -30q-72 38 -114 108t-42 152zM588 328l53 94q69 -40 152 -49v372h-76 v109h76v473v2q18 2 53 2q143 0 266 -69l-53 -95q-69 42 -148 54v-367h70v-109h-70v-466l2 -13q-46 -4 -67 -4q-135 0 -258 66zM961 344q153 35 253 162q103 128 103 289q0 115 -54 217t-149 168l21 28q101 -69 159 -179t58 -234q0 -176 -109 -312q-110 -135 -274 -174z M971 569q64 34 101.5 96t37.5 134t-37 133.5t-100 95.5l16 31q72 -38 114 -108t42 -152q0 -83 -42 -153.5t-114 -108.5z" />
<glyph unicode="3" horiz-adv-x="1716" d="M53 809q0 180 74 340l33 -16q-70 -149 -70 -324q0 -155 58 -296.5t167 -250.5q110 -110 251 -168.5t296 -58.5q65 0 117 8l6 -35q-68 -10 -123 -10q-162 0 -309.5 61.5t-261.5 176.5q-116 116 -177 263t-61 310zM129 1233l94 -55q97 172 264 268q173 102 375 102 t373 -100q166 -94 264 -264l94 53q-112 192 -303 305q-195 115 -428 115q-228 0 -430 -117q-189 -112 -303 -307zM356 811q0 -126 58 -237t161 -183l21 31q-96 66 -150.5 169.5t-54.5 219.5q0 163 105 293q103 128 258 164l-9 37q-169 -42 -278 -179q-111 -136 -111 -315z M563 813q0 -83 42 -153.5t114 -108.5l18 31q-65 35 -102 97t-37 134t37 134t100 97l-16 31q-72 -38 -114 -108.5t-42 -153.5zM598 338l51 94q68 -39 154 -49v965h2v2q36 4 53 4q142 0 268 -72l-53 -94q-74 43 -149 51v-952l2 -11q-34 -6 -68 -6q-142 0 -260 68zM727 760v108 h268v-108h-268zM961 266l94 -268h41l94 268h-37l-78 -231l-76 231h-38zM973 352l8 -35q171 42 279 177q110 141 110 317q0 125 -58.5 236.5t-162.5 181.5l-21 -31q97 -66 151 -168t54 -219q0 -169 -102 -295q-104 -126 -258 -164zM985 582l16 -33q74 38 117 109.5t43 154.5 t-42.5 154.5t-114.5 109.5l-19 -33q65 -34 102 -96t37 -135t-37 -135t-102 -96zM1219 -2h90q129 0 129 141q0 62 -33.5 94.5t-95.5 32.5h-90v-268zM1253 29v207h60q90 0 90 -103q0 -104 -90 -104h-60zM1458 313q178 211 178 496q0 182 -75 338l32 14q80 -168 80 -352 q0 -143 -48 -276t-138 -240zM1481 -2h184v31h-149v92h139v31h-139v84h149v30h-184v-268z" />
<glyph unicode="4" horiz-adv-x="1472" d="M45 928q0 157 64 291l28 -13q-61 -131 -61 -278q0 -132 50 -252.5t144 -214.5t214.5 -144.5t252.5 -50.5q234 0 420 150h47q-95 -87 -215.5 -133.5t-251.5 -46.5q-138 0 -264.5 52t-224.5 150t-150.5 225t-52.5 265zM94 -2v147v146q88 -24 174 -39q65 -12 160 -23v-18 l-2 -16q-19 2 -59.5 7t-59.5 7q-22 3 -63.5 9t-63.5 9l-2 -34v-35q58 -9 117 -15q18 -1 56.5 -4t56.5 -4v-16l-2 -17q-17 1 -54.5 3.5t-58.5 3.5q-39 2 -117 10v-39v-41q21 0 62.5 -1t62.5 -1q21 -1 62.5 -2t62.5 -2v-17v-18h-166h-166zM111 1290q89 158 260 262 q170 101 366 101q201 0 367 -99q166 -95 258 -260l-80 -47q-84 144 -225 228q-145 86 -320 86q-171 0 -319 -88q-149 -87 -228 -230zM303 930q0 150 96 270q90 116 238 152l8 -31q-135 -31 -223 -139q-88 -114 -88 -252q0 -100 46.5 -188.5t129.5 -143.5l-18 -27 q-88 62 -138.5 157t-50.5 202zM481 932q0 70 35.5 130.5t97.5 94.5l15 -29q-54 -29 -85.5 -82t-31.5 -114q0 -62 32 -115t87 -84l-17 -26q-62 34 -97.5 94.5t-35.5 130.5zM508 -2v221q31 -8 49 -10q15 -4 49 -8q11 -16 68.5 -88.5t60.5 -77.5q96 115 131 166q8 1 26 4t26 4 q7 2 23.5 5t23.5 5v-219h-70v160q-16 -24 -64.5 -84t-66.5 -78h-23h-10h-22q-18 18 -66.5 78t-64.5 84h-3v-160zM510 524l45 82q60 -33 131 -43v324h-63v92h63v410h2l-2 2q32 4 47 4q119 0 230 -62l-45 -82q-61 36 -130 45v-317h62v-92h-62v-404v-10q-54 -6 -55 -6 q-118 0 -223 57zM817 592l68 -148h39l67 148h-35l-51 -117l-51 117h-37zM842 733q55 29 87 82.5t32 116.5t-32 116t-87 82l16 27q62 -34 98.5 -94.5t36.5 -130.5q0 -71 -37 -132t-100 -93zM965 1262l18 26q88 -62 138 -156.5t50 -201.5q0 -151 -94 -271q-17 -22 -41 -43h-45 q35 27 62 62q88 111 88 252q0 100 -46.5 187.5t-129.5 144.5zM1010 225l43 6q9 0 39 5q9 -15 27.5 -45.5t27.5 -45.5q7 -12 27 -44t30 -50q35 58 58 105q8 17 57 112q27 9 41 11l43 12q-49 -99 -80 -156q-2 -5 -76 -137h-43h-45q-45 73 -74 119q-59 87 -75 108zM1044 444h84 q44 0 66.5 20.5t22.5 53.5t-22.5 53.5t-66.5 20.5h-84v-148zM1081 465v106h33q68 0 68 -53q0 -26 -14.5 -39.5t-53.5 -13.5h-33zM1282 444h145v23h-110v43h100v20h-100v39h108v23h-143v-148zM1321 616q78 144 78 312q0 151 -66 289l29 14q68 -145 68 -303q0 -165 -72 -312 h-37z" />
<glyph unicode="5" horiz-adv-x="2000" d="M66.5 510q6.5 49 24.5 91.5t44 78.5l2 2l781 924v2q49 49 88 49q44 0 86 -51l780 -924q0 -2 2 -2q27 -37 44.5 -78.5t24.5 -91.5t-10 -92q-15 -41 -35.5 -66t-53 -36t-63 -14t-85.5 -3h-631h-121h-631q-55 0 -85.5 3t-63 14t-53 36t-35.5 66q-16 43 -9.5 92zM166 449 q9 -26 17.5 -35t36.5 -14t93 -5h631h121h631q65 0 93 5t36.5 14t17.5 35q13 36 -1.5 85t-43.5 89v-2l-2 2h2l-780 921l-2 2q-3 6 -10 13q-6 -4 -17 -15l-778 -921h2q-2 0 -2 -2v2q-29 -40 -43.5 -89t-1.5 -85zM236 -2v47v281h96v-234h1345v234h97v-281v-47h-50h-1441h-47z M561 500h154q83 0 124.5 56.5t41.5 145.5q0 91 -41.5 147t-124.5 56h-154v-405zM627 559v289h63q71 0 98 -38.5t27 -107.5q0 -68 -27 -105.5t-98 -37.5h-63zM842 1231l125 -406h71l129 406h-67l-94 -322h-2l-95 322h-67zM1092 1604v2v-2zM1180 500h272v61h-207v119h189v57 h-189v107h205v61h-270v-405z" />
<glyph unicode="6" horiz-adv-x="2451" d="M27 831h1564l817 -829h-1560zM31 827l794 805h1561l-803 -805h-1552zM127 811l786 -772h615l-191 178l-381 2l-127 125l330 -4l-188 188l-324 -4l-123 123h373l-158 164h-612zM133 854h598l174 170l-366 2l125 123l294 -2l179 178l-295 2l123 119l352 2l162 151h-607z M850 854l219 2l250 248l172 178l-166 -424h203l760 741h-222l-206 -204l-170 -176l145 380h-242zM986 647.5q40 -93.5 167 -219.5q199 -198 414.5 -298.5t423.5 -90.5q79 4 118.5 26.5t40 61.5t-23 86.5t-72.5 112.5l-252 4q26 -30 41 -54t18 -42.5t-11.5 -28.5t-45.5 -10 q-22 0 -43 4t-45 13.5t-41 16.5t-44 25.5t-40 26.5t-43.5 32.5t-39.5 32t-42.5 36t-40.5 34.5q-175 147 -153 206q11 28 65 27q61 0 134 -35.5t141 -99.5l250 -2q-353 316 -717 319q-113 1 -156 -44.5t-3 -139z" />
<glyph unicode="7" horiz-adv-x="2895" d="M41 827h1565l817 -829h-1561zM45 823l797 805h1558l-803 -805h-1552zM141 807l787 -772h614l-190 178l-381 2l-125 127l328 -4l-187 188l-325 -4l-123 121h372l-157 164h-613zM150 850h595l175 170l-367 2l125 125l295 -2l178 176l-295 2l123 119l352 2l162 153h-606z M864 850l219 2l250 248l172 178l-166 -424h203l760 743h-219l-207 -204l-172 -179l147 383h-241zM1000 643.5q40 -93.5 167 -219.5q201 -198 416 -298.5t422 -90.5q79 4 119 26.5t40.5 62t-22.5 87t-71 113.5l-252 4q26 -31 40 -55.5t17 -43.5t-10.5 -29t-44.5 -10 q-20 0 -41 4.5t-38 9t-40 16t-37.5 19t-39 25t-36 25.5t-38.5 30t-35.5 29.5t-37.5 32.5t-36 31q-178 152 -152 209q11 25 62 24q127 0 276 -133l250 -2q-350 314 -719 317q-113 1 -156 -44.5t-3 -139zM2068 825h113v-284h146v495h-111q-11 -59 -48.5 -85t-99.5 -29v-97z M2410 788q0 -115 51 -186.5t162 -71.5q112 0 161.5 72t49.5 189q0 119 -56.5 182t-154.5 63q-92 0 -152.5 -61t-60.5 -187zM2556 780q0 150 65 150q21 0 36 -11.5t21.5 -25t10 -38.5t4 -37t0.5 -36q0 -145 -70 -145q-39 0 -53 36t-14 107z" />
<glyph unicode="8" horiz-adv-x="4958" d="M74 825h1566l818 -829h-1563zM78 821l796 805h1561l-803 -805h-1554zM176 805l787 -772h614l-191 178l-380 2l-127 127l329 -4l-188 188l-326 -4l-121 121h373l-158 164h-612zM182 848h598l174 170l-366 2l123 125l297 -2l178 178l-297 2l125 117l352 2l160 153h-606z M897 848l219 2l252 248l170 178l-164 -424h203l758 743h-219l-207 -204l-172 -179l147 383h-242zM1035 641.5q40 -93.5 167 -219.5q200 -198 414.5 -298.5t423.5 -90.5q79 4 118.5 26.5t40 62t-23 87t-72.5 113.5l-252 4q26 -31 40 -55.5t17 -43.5t-10.5 -29t-44.5 -10 q-33 0 -68.5 11.5t-60.5 22.5t-66.5 41t-58 43t-65 54t-59.5 50q-180 154 -152 210q12 24 63 23q60 0 133 -35t142 -98l250 -2q-350 314 -717 317q-113 1 -156 -44.5t-3 -139zM2101 823h115v-284h143v495h-108q-21 -109 -150 -112v-99zM2445 786q0 -115 50.5 -186.5 t162.5 -71.5q111 0 161 72t50 188q0 119 -57.5 182.5t-153.5 63.5q-93 0 -153 -60.5t-60 -187.5zM2589 778q0 150 67 150q21 0 35 -11.5t21 -25t10 -38.5t3.5 -36.5t0.5 -36.5q0 -145 -68 -145q-40 0 -54.5 36.5t-14.5 106.5zM2992.5 551q20.5 72 63.5 129q0 2 2 2l778 924 v2q41 49 88 49q43 0 86 -51l780 -924l2 -2q42 -58 61.5 -129.5t-1.5 -132.5q-12 -33 -29 -55.5t-35.5 -35t-48.5 -19t-55.5 -8t-69.5 -1.5h-629h-122h-631q-44 0 -69.5 1.5t-55.5 8t-48.5 19t-35.5 35t-29 55.5q-22 61 -1.5 133zM3084 449q9 -26 18.5 -35t37.5 -14t92 -5 h631h122h629q65 0 93.5 5t37.5 14t17 35q13 36 -1.5 85t-43.5 89v-2q0 2 -3 2h3l-781 921q0 2 -2 2q-3 6 -10 13q-2 -2 -8 -7.5t-8 -7.5l-777 -921l-2 -2l2 2q-29 -41 -44.5 -89.5t-2.5 -84.5zM3156 -2v47v281h94v-234h1346v234h96v-281v-47h-47h-1442h-47zM3480 500h155 q82 0 123 56.5t41 145.5q0 90 -41 146.5t-123 56.5h-155v-405zM3545 559v289h66q71 0 97 -38t26 -108q0 -68 -26 -105.5t-97 -37.5h-66zM3762 1231l123 -406h74l127 406h-66l-96 -322h-2l-92 322h-68zM4010 1606q2 0 2 -2zM4100 500h272v61h-206v119h188v57h-188v107h202v61 h-268v-405z" />
<glyph unicode="9" horiz-adv-x="2045" d="M49 827q1 136 45.5 263.5t125.5 228.5t187 176t236 112t266 29v-258q-13 0 -34.5 -1t-84.5 -11.5t-120 -28.5t-126.5 -58.5t-119.5 -96t-84.5 -146t-34.5 -202.5q0 -92 20.5 -170.5t55.5 -132.5t80.5 -97.5t95.5 -70t100 -45.5t95.5 -27t80.5 -12.5t55 -4.5h21v-264 q-170 -10 -329.5 51.5t-275.5 172.5t-186 267t-69 326zM1147 819q-1 -170 69 -326t186 -267t275.5 -172.5t329.5 -51.5v262q-8 -1 -22 -2t-57 1.5t-85.5 11.5t-101.5 33.5t-111 62.5q-53 38 -93 84.5t-60 85.5t-32.5 72.5t-14.5 52.5l-3 20l437 -2v260h-441q1 8 3.5 23 t16 57t34.5 81t64 86t99 81q53 33 110 55t101 30t80.5 12t56.5 3l19 -2v258q-136 8 -266 -29t-236 -112t-187 -176t-125.5 -228.5t-45.5 -263.5z" />
<glyph unicode=":" d="M178 418v778h82v-778h-82zM485 418h84v321h207q107 0 173.5 62.5t66.5 167.5q0 103 -66.5 165t-173.5 62h-291v-778zM569 813v309h199q74 0 119 -39.5t45 -113.5q0 -76 -45 -116t-119 -40h-199zM1106 541v71l280 584h84l-280 -584h225v222h78v-222h94v-71h-94v-123h-78 v123h-309zM1675 541v71l281 584h84l-281 -584h228v222h77v-222h95v-71h-95v-123h-77v123h-312z" />
<glyph unicode=";" d="M178 418v778h82v-778h-82zM485 418h84v321h207q107 0 173.5 62.5t66.5 167.5q0 103 -66.5 165t-173.5 62h-291v-778zM569 813v309h199q74 0 119 -39.5t45 -113.5q0 -76 -45 -116t-119 -40h-199zM1139 602h78q16 -121 133 -121q58 0 96 35q18 19 27.5 48.5t11.5 52.5t2 59 q0 40 -5 70t-18 58.5t-40 44t-68 15.5q-102 0 -129 -78h-70v410h393v-70h-323v-247q47 53 141 53q84 0 133 -49q66 -64 66 -207q0 -70 -12.5 -119.5t-51.5 -87.5q-56 -59 -153 -59q-101 0 -158 57q-47 50 -53 135zM1704 627q0 -96 60.5 -155.5t152.5 -59.5t152.5 59.5 t60.5 155.5v362q0 95 -60.5 154t-152.5 59t-152.5 -59t-60.5 -154v-362zM1782 631v352q0 66 36 108t99 42t99 -42t36 -108v-352q0 -66 -36 -108t-99 -42t-99 42t-36 108z" />
<glyph unicode="&#x3c;" d="M178 418v778h82v-778h-82zM485 418h84v321h207q107 0 173.5 62.5t66.5 167.5q0 103 -66.5 165t-173.5 62h-291v-778zM569 813v309h199q74 0 119 -39.5t45 -113.5q0 -76 -45 -116t-119 -40h-199zM1139 602h78q16 -121 133 -121q58 0 96 35q18 19 27.5 48.5t11.5 52.5t2 59 q0 40 -5 70t-18 58.5t-40 44t-68 15.5q-102 0 -129 -78h-70v410h393v-70h-323v-247q47 53 141 53q84 0 133 -49q66 -64 66 -207q0 -70 -12.5 -119.5t-51.5 -87.5q-56 -59 -153 -59q-101 0 -158 57q-47 50 -53 135zM1706 418v69l307 392q43 51 43 114q0 64 -35.5 102 t-99.5 38q-58 0 -96.5 -35.5t-38.5 -106.5h-78q0 93 58.5 152t154.5 59q97 0 156 -57t59 -152q0 -45 -14.5 -79t-48.5 -78l-271 -349h334v-69h-430z" />
<glyph unicode="=" d="M178 418v778h82v-778h-82zM485 418h84v321h207q107 0 173.5 62.5t66.5 167.5q0 103 -66.5 165t-173.5 62h-291v-778zM569 813v309h199q75 0 120.5 -39.5t45.5 -113.5q0 -76 -45.5 -116t-120.5 -40h-199zM1139 602h78q16 -121 133 -121q58 0 96 35q18 19 27.5 48.5 t11.5 52.5t2 59q0 40 -5 70t-18 58.5t-40 44t-68 15.5q-102 0 -129 -78h-70v410h393v-70h-323v-247q47 53 141 53q84 0 133 -49q66 -64 66 -207q0 -70 -12.5 -119.5t-51.5 -87.5q-56 -59 -153 -59q-101 0 -158 57q-47 50 -53 135zM1675 541v71l281 584h84l-281 -584h228v222 h77v-222h95v-71h-95v-123h-77v123h-312z" />
<glyph unicode="&#x3e;" d="M178 418v778h82v-778h-82zM485 418h84v321h207q107 0 173.5 62.5t66.5 167.5q0 103 -66.5 165t-173.5 62h-291v-778zM569 813v309h199q75 0 120.5 -39.5t45.5 -113.5q0 -76 -45.5 -116t-120.5 -40h-199zM1139 602h78q16 -121 133 -121q58 0 96 35q18 19 27.5 48.5 t11.5 52.5t2 59q0 40 -5 70t-18 58.5t-40 44t-68 15.5q-102 0 -129 -78h-70v410h393v-70h-323v-247q47 53 141 53q84 0 133 -49q66 -64 66 -207q0 -70 -12.5 -119.5t-51.5 -87.5q-56 -59 -153 -59q-101 0 -158 57q-47 50 -53 135zM1708 602h80q12 -121 131 -121q61 0 96 35 q19 19 29 48.5t12 52.5t2 59q0 40 -5 70t-18 58.5t-40 44t-68 15.5q-50 0 -84 -21t-45 -57h-72v410h394v-70h-322v-247q47 53 139 53q87 0 136 -49q38 -37 50.5 -88t12.5 -119q0 -71 -12 -120.5t-49 -86.5q-59 -59 -156 -59q-102 0 -156 57q-49 49 -55 135z" />
<glyph unicode="?" horiz-adv-x="1994" d="M76 831q0 -34 24.5 -58.5t59.5 -24.5t59.5 24.5t24.5 58.5q0 36 -24.5 61.5t-59.5 25.5t-59.5 -25.5t-24.5 -61.5zM340 831q0 -34 24.5 -58.5t59.5 -24.5t59.5 24.5t24.5 58.5q0 36 -24.5 61.5t-59.5 25.5t-59.5 -25.5t-24.5 -61.5zM604 831q0 -34 24.5 -58.5t59.5 -24.5 t59.5 24.5t24.5 58.5q0 36 -24.5 61.5t-59.5 25.5t-59.5 -25.5t-24.5 -61.5zM854 834q0 -64 16 -122t48 -107t85 -78t121 -29q88 0 138 55l12 -47h92v330h-240v-103h113q3 -64 -21 -98.5t-94 -34.5q-40 0 -68.5 24t-42 62.5t-19 74.5t-5.5 73t5.5 73t19 75t42 63t68.5 24 q104 0 123 -119l119 19q-10 93 -77 147.5t-165 54.5q-68 0 -121 -29t-85 -77.5t-48 -107.5t-16 -123zM1397 506h135l43 166h192l43 -166h136l-189 655h-176zM1602 774l67 275h4l70 -275h-141z" />
<glyph unicode="A" horiz-adv-x="1820" d="M70 817q0 -173 67.5 -330.5t181 -271t271 -181t330.5 -67.5t330 67.5t271 181t181 271t67 330.5t-67 330.5t-181 271t-271 181t-330 67.5t-330.5 -67.5t-271 -181t-181 -271t-67.5 -330.5zM164 817q0 154 60 294.5t161 242t241 161.5t294 60t294 -60t241 -161.5 t160.5 -242t59.5 -294.5q0 -205 -101 -379t-275 -275.5t-379 -101.5q-154 0 -294 60t-241 161.5t-161 241.5t-60 293zM451 346v25q83 9 108 37q23 33 23 135v592l-19 22q-25 32 -51 43q-22 7 -61 10v25h231l516 -647v448q0 113 -33 146q-19 19 -94 28v25h313v-25 q-76 -9 -100 -39q-27 -27 -27 -135v-706h-22l-594 737v-524q0 -111 33 -144q19 -22 92 -28v-25h-315z" />
<glyph unicode="B" horiz-adv-x="1841" d="M72 815q0 -173 67.5 -330.5t181 -271t271 -181t330.5 -67.5t330.5 67.5t271 181t181 271t67.5 330.5t-67.5 330.5t-181 271t-271 181t-330.5 67.5t-330.5 -67.5t-271 -181t-181 -271t-67.5 -330.5zM166 815q0 154 60 294.5t161.5 242t241.5 161.5t293 60q154 0 294 -60 t241 -161.5t160.5 -242t59.5 -294.5q0 -205 -101 -379t-275 -275.5t-379 -101.5q-153 0 -293 60t-241.5 161.5t-161.5 241.5t-60 293zM506 414l72 -76l14 -16h20h572q97 0 133 90q12 31 12 66q0 39 -15 83q-28 84 -95 144h-2l-463 380q-35 29 -55 73q-14 31 -13 54 q0 10 2 19q12 26 66 26h383l-39 21l61 -80l80 59l-61 80l-17 21h-24h-383q-72 0 -108.5 -29t-49.5 -65q-9 -26 -9 -55q1 -39 17 -81q30 -74 86 -120l463 -379h-2q47 -39 67 -93q12 -33 12 -59q0 -17 -5 -31q-8 -24 -41 -24h-572l37 -16l-69 75z" />
<glyph unicode="C" horiz-adv-x="1824" d="M70 817q0 -231 114.5 -426.5t310 -309.5t425.5 -114q173 0 330 67.5t271 181t181 271t67 330.5t-67 330.5t-181 271t-271 181t-330 67.5q-230 0 -425.5 -114t-310 -309.5t-114.5 -426.5zM164 817q0 154 60 294.5t161.5 242t241.5 161.5t293 60q154 0 294 -60 t241.5 -161.5t161.5 -242t60 -294.5q0 -205 -101.5 -379t-276 -275.5t-379.5 -101.5q-153 0 -293 60t-241.5 161.5t-161.5 241.5t-60 293zM535 309h124v494h351v117h-351v282h363v115h-487v-1008zM1165 309h125v1008h-125v-1008z" />
<glyph unicode="D" horiz-adv-x="2240" d="M57 1360l23 -82l1055 297h-23l1059 -293l22 84l-1058 291l-11 4l-12 -4zM78 2h2095v86h-2095v-86zM459 258h188v776h-188v-776zM463 1104h117l184 153h-186zM993 553q-1 -104 65 -177t166 -105.5t222 -32.5q211 0 326.5 79t115.5 205q0 194 -307 256q-5 1 -8 2 q-219 47 -260 63q-49 19 -56 50q-2 9 -2 20q0 52 48.5 77.5t113.5 25.5q201 0 209 -135h227q0 74 -35 130.5t-95.5 89t-135 48.5t-160.5 16q-101 0 -189 -28t-148 -90t-60 -148q0 -49 19 -87.5t46.5 -63.5t73 -45.5t84.5 -32t95 -23.5q23 -5 65.5 -14t66 -14t57 -14 t52.5 -18t38 -21.5t27.5 -29t8.5 -36.5q0 -42 -36.5 -68.5t-79.5 -34.5t-91 -8q-102 0 -168.5 40.5t-66.5 123.5h-228z" />
<glyph unicode="E" horiz-adv-x="2805" d="M92 -6h43v1642h-43v-1642zM391 915h86v394h-86v-394zM526 915h43q9 155 123 262t269 107q157 0 270.5 -107t122.5 -262h43q-11 172 -137 292t-299 120q-172 0 -298 -120t-137 -292zM1450 139h84v1170h-84v-1170zM1577 872q9 -174 135.5 -294.5t300.5 -120.5 q175 0 301.5 121t134.5 294h-43q-8 -157 -121.5 -264.5t-271.5 -107.5t-271.5 107.5t-121.5 264.5h-43zM1577 915h43q9 155 123 262t270 107q157 0 270.5 -107t122.5 -262h43q-11 172 -137 292t-299 120q-172 0 -298.5 -120t-137.5 -292zM2681 -6h43v1642h-43v-1642z" />
<glyph unicode="F" horiz-adv-x="3084" d="M90 885l8 14l27 37l8 10l469 692l25 35l20 -37l498 -868l8 -14l-10 -15l-467 -690l-23 -33l-8 -8l-22 -35l-21 35l-504 862zM180 926l475 -813l437 643l-469 819zM399 739q0 -207 222 -207q102 0 157.5 53t55.5 154v344h-72v-344q0 -70 -36.5 -108.5t-104.5 -38.5 q-72 0 -111 38t-39 109v344h-72v-344zM1022 885l8 14l27 37l8 10l469 692l25 35l20 -37l498 -868l8 -14l-10 -15l-467 -690l-23 -33l-8 -8l-23 -35l-20 35l-504 862zM1112 926l475 -813l436 643l-469 819zM1378 545h66v432l270 -432h76v538h-66v-436l-274 436h-72v-538z M1952 885l8 14l27 37l8 10l469 692l22 35l21 -37l499 -868l9 -14l-11 -15l-467 -690l-24 -33l-6 -8l-23 -35l-20 35l-504 862zM2042 926l475 -813l436 643l-469 819zM2333 545h374v59h-303v189h281v59h-281v172h301v59h-372v-538z" />
<glyph unicode="G" horiz-adv-x="2062" d="M84 680v22v228v22h25h145q140 261 258 379q47 47 116 97t131.5 87t126.5 71t95.5 49t42.5 20l10 4l8 -4q11 -5 42.5 -20t95.5 -49t126.5 -71t131.5 -87t116 -97q118 -118 258 -379h148h25v-22v-228v-22h-25h-141q-138 -266 -265 -393q-47 -47 -116 -97t-131.5 -87 t-126.5 -71t-95.5 -49t-42.5 -20l-8 -4l-10 4q-11 5 -42.5 20t-95.5 49t-126.5 71t-131.5 87t-116 97q-124 124 -264 393h-139h-25zM133 727h1804v178h-1804v-178zM299 680q123 -238 244 -361q65 -65 183 -140.5t183 -109t125 -61.5q352 173 490 311q118 121 243 361h-1468z M305 952h1456q-135 246 -237 348q-140 138 -490 310q-58 -27 -124.5 -61.5t-184 -109.5t-182.5 -139q-105 -105 -238 -348zM385 819h23v-55h22v88h-18q0 -18 -27 -18v-15zM678 1114h174v41h-123v53h111v39h-111v47h121v39h-172v-219zM776 786q6 -24 31 -24q39 0 39 49 q0 43 -37 43q-13 0 -23 -10t-10 -23q0 -12 8.5 -21t20.5 -9q13 0 20 10q0 -23 -16 -23q-6 0 -8 2q-4 4 -4 6h-21zM797 821q0 15 14 15t14 -15q0 -14 -14 -14t-14 14zM872 309l148 309h127l-137 -241l127 12l-113 -219l23 -6l-72 -70l-17 92l21 -6l49 144zM909 1239h47v156 l80 -70l72 70h2v-156h47v221h-43l-78 -80l-82 80h-45v-221zM1010 987v221h51v-221h-51zM1174 797q-1 -17 8.5 -26t25.5 -9q15 0 26 7.5t11 21.5q0 17 -14 20q12 3 12 18q0 25 -35 25q-14 0 -23 -8t-9 -23h20q0 13 14 13q13 0 13 -9q0 -10 -15 -10h-6v-14h6q15 0 15 -12 q0 -11 -15 -11q-17 0 -14 17h-20zM1210 1114h174v41h-122v53h110v39h-110v47h120v39h-172v-219zM1571 784h39v-20h22v20h13v19h-13v49h-20l-41 -49v-19zM1589 803l23 28v-28h-23z" />
<glyph unicode="H" horiz-adv-x="5007" d="M106 -2v51v1540v51h52h4704h51v-51v-1540v-51h-51h-4704h-52zM211 100h2322v1436h-2322v-1436zM305 801l1012 612l766 -403l-273 -168l-473 258l-24 14l-27 -14l-362 -219l-76 -47l78 -43l430 -242l-258 -158zM1053 838l262 157l473 -258l27 -14l24 16l350 215l267 -141 l-1000 -606l-252 129l281 172l76 45l-76 43zM2658 487q0 -49 30 -82.5t81 -33.5q41 0 68 25.5t30 66.5h-47q-7 -51 -51 -51q-31 0 -46.5 22t-15.5 53q0 34 15 56t47 22q19 0 32.5 -11t16.5 -28h47q-3 37 -30.5 58.5t-65.5 21.5q-51 0 -81 -33.5t-30 -85.5zM2669 692h45 l2 158l55 -158h37l57 160v-160h45v226h-69l-52 -156l-51 156h-69v-226zM2669 1008h49v98h90v-98h51v227h-51v-88h-90v88h-49v-227zM2892 487q0 -49 29.5 -82.5t80.5 -33.5t81 33.5t30 82.5q0 52 -30 85.5t-81 33.5t-80.5 -33.5t-29.5 -85.5zM2902 1008h172v43h-123v55h111 v39h-111v47h119v43h-168v-227zM2931 692h49l18 51h84l19 -51h51l-84 226h-51zM2941 487q0 33 15.5 55.5t45.5 22.5q32 0 47 -22t15 -56q0 -31 -15.5 -53t-46.5 -22q-30 0 -45.5 22t-15.5 53zM3011 780l30 82l29 -82h-59zM3107 1008h160v43h-111v184h-49v-227zM3148 377h47 v149l94 -149h49v225h-47v-151l-94 151h-49v-225zM3170 692h49v88h52q18 0 26 -8t11 -27q6 -48 8 -53h49q-8 12 -8 53q-4 47 -35 54q37 14 37 57q0 25 -18.5 43.5t-47.5 18.5h-123v-226zM3219 815v64h56q35 0 35 -31q0 -33 -35 -33h-56zM3293 1008h160v43h-109v184h-51v-227z M3381 377h51v92h95v39h-95v51h109v43h-160v-225zM3400 692h49v72l29 31l67 -103h62l-97 137l88 89h-61l-88 -93v93h-49v-226zM3482 1008h172v43h-123v55h110v39h-110v47h119v43h-168v-227zM3559 487q0 -49 30 -82.5t81 -33.5t81 33.5t30 82.5q0 52 -30 85.5t-81 33.5 t-81 -33.5t-30 -85.5zM3609 487q0 34 14.5 56t46.5 22t46.5 -22t14.5 -56q0 -31 -15 -53t-46 -22t-46 22t-15 53zM3686 1008h48v151l94 -151h49v227h-47v-152l-94 152h-50v-227zM3705 805q0 -51 29.5 -85t80.5 -34t82 34t31 85t-31 85t-82 34t-80.5 -34t-29.5 -85zM3754 805 q0 32 15.5 54t45.5 22q32 0 47 -22t15 -54t-15 -54t-47 -22q-30 0 -45.5 22t-15.5 54zM3815 377h50v88h49q20 0 28 -8t11 -27q5 -46 8 -53h49q-4 5 -6 14.5t-3 22.5t-1 16q-4 44 -33 53q37 15 37 56q0 27 -19 45t-49 18h-121v-225zM3865 500v63h55q33 0 33 -31 q0 -32 -33 -32h-55zM3920 1008h51v227h-51v-227zM3961 692h49v94h94v37h-94v54h109v41h-158v-226zM4004 1120q0 -51 29.5 -83.5t80.5 -32.5q42 0 69.5 25t31.5 67h-49q-7 -52 -52 -52q-31 0 -46 22t-15 54q0 33 15 55.5t46 22.5q19 0 34 -12t16 -29h49q-4 38 -32.5 60 t-66.5 22q-51 0 -80.5 -33.5t-29.5 -85.5zM4043 377h47v158l55 -158h39l55 160v-160h47v225h-69l-51 -156l-54 156h-69v-225zM4329 377h52v225h-52v-225zM4405 559h68v-182h49v182h68v43h-185v-43zM4592 602l84 -137v-88h49v86l84 139h-56l-53 -90l-53 90h-55z" />
<glyph unicode="I" horiz-adv-x="5513" d="M111 815q0 -168 65.5 -321.5t176.5 -264.5t264.5 -177t322.5 -66q168 0 321.5 66t264.5 177t177 264.5t66 321.5q0 169 -66 323t-177 265t-264.5 176.5t-321.5 65.5q-169 0 -322.5 -65.5t-264.5 -176.5t-176.5 -265t-65.5 -323zM150 815q0 214 106 396.5t288 288.5 t396 106q161 0 307.5 -63t252 -168.5t168.5 -252t63 -307.5q0 -214 -106 -396t-288.5 -288t-396.5 -106t-396 106t-288 288t-106 396zM242 889q0 21 11.5 37.5t42 42t42.5 37.5q68 72 148 151t179 174t152 148v-162l-373 -371h78q18 0 34.5 -16.5t16.5 -32.5v-578h732v578 q0 16 17.5 33.5t35.5 17.5h74q-24 24 -78 74q-18 17 -66 63.5t-89 86t-85 81t-72.5 66t-33.5 24.5q-23 0 -23 -30q0 -17 130 -147.5t130 -145.5v-352q0 -15 -12.5 -26t-26.5 -11h-104v-252q0 -16 -13.5 -26.5t-27.5 -10.5q-15 0 -27 12t-12 27v250h-170v-252 q0 -16 -13 -26.5t-26 -10.5q-15 0 -28 11t-13 26v252h-102q-14 0 -26.5 12t-12.5 25v352q0 21 241 262v252q24 33 56 33q19 0 41.5 -17t51 -47.5t40.5 -40.5q11 -9 117 -110q293 -279 448 -428q10 -10 10 -35q0 -20 -15 -39t-36 -19h-164v-577q0 -18 -16.5 -34.5 t-34.5 -16.5h-862q-18 0 -34.5 16.5t-16.5 34.5v577h-164q-22 0 -36.5 19.5t-14.5 38.5zM1958 199q0 -75 32 -112.5t83 -37.5q36 0 63 17.5t39 46.5l-29 18q-11 -21 -30 -35t-39 -14q-34 0 -55 26.5t-21 84.5h172q1 9 1 17q0 50 -21 92q-24 48 -80 48q-51 0 -83 -37 t-32 -114zM1958 721q11 -53 47 -84t90 -31q52 0 86.5 31.5t34.5 83.5q0 39 -20.5 65t-49 38.5t-57.5 23.5t-49.5 29t-20.5 45q0 30 21.5 49.5t50.5 19.5q35 0 53.5 -21.5t28.5 -60.5l39 13q-11 45 -42.5 74.5t-76.5 29.5q-49 0 -83 -30.5t-34 -80.5q0 -37 20.5 -60.5t49 -35 t57.5 -22.5t49.5 -30.5t20.5 -49.5q0 -32 -23 -54t-55 -22q-35 0 -61.5 26.5t-34.5 63.5zM1962 1174h80v155h55q81 0 116.5 34.5t35.5 86.5q0 49 -33.5 88t-97.5 39h-156v-403zM2001 227q0 33 18 60.5t49 27.5q30 0 47 -28.5t15 -59.5h-129zM2042 1397v110h16h17.5h19 t17.5 -1t17.5 -3t14.5 -6t13 -10t7 -15t3 -20q0 -13 -3 -23t-11.5 -15.5t-13.5 -9.5t-20 -5.5t-19 -2t-22.5 0.5t-19.5 0h-16zM2204 307h43v-160v-10q0 -19 0.5 -28.5t3.5 -23t9.5 -20t19 -11.5t30.5 -5q25 0 41 8v29q-20 -4 -33 -4q-16 0 -23 7t-8 14t-1 26v178h65v35h-65 v92h-39v-92h-43v-35zM2263 688q0 -34 24 -58t56 -24q37 0 82 45l4 -37h45q-8 20 -8 64v141q0 45 -29.5 67.5t-64.5 22.5q-56 0 -99 -57l29 -23q29 45 70 45q53 0 53 -49v-16l-12 -4q-5 -2 -31 -10t-36 -11.5t-30 -13.5t-28.5 -20t-16.5 -26t-8 -36zM2288 1174h75v126 q0 51 28.5 74t53.5 23q7 0 23 -4v77h-14q-26 0 -45 -13.5t-46 -43.5v51h-75v-290zM2302 692q0 15 8 27t18 19.5t28 14.5t27 10t27 7l15 6v-84q-34 -47 -80 -47q-18 0 -30.5 14.5t-12.5 32.5zM2497 1319q0 -62 33.5 -107t92.5 -45q60 0 93.5 45t33.5 107q0 63 -33.5 107 t-93.5 44q-61 0 -93.5 -44t-32.5 -107zM2529 614h41v404h-41v-404zM2535 57h41v33q30 -41 74 -41q37 0 71 35.5t34 110.5q0 77 -32.5 116t-74.5 39q-35 0 -72 -37v146h-41v-402zM2574 1319q0 94 49 94q48 0 48 -94t-48 -94q-49 0 -49 94zM2576 137v131q21 47 68 47 q25 0 41.5 -22t21.5 -47t5 -51q0 -57 -21.5 -84t-46.5 -27q-20 0 -39 16t-29 37zM2634 614h41v404h-41v-404zM2730 758q0 -76 32 -114t83 -38q36 0 63.5 18.5t38.5 47.5l-29 18q-27 -49 -69 -49q-34 0 -55 26.5t-21 84.5h172q1 10 1 20q0 49 -20 89q-24 48 -81 48 q-51 0 -83 -38t-32 -113zM2775 786q0 33 17.5 60.5t50.5 27.5q28 0 44.5 -29t14.5 -59h-127zM2798 1174h75v200q27 35 60 35q5 0 9 -1t7 -2t5 -4t3.5 -4.5t2.5 -5.5l1.5 -6t1 -7.5t0.5 -7.5v-8v-7v-182h76v200q27 35 60 35q11 0 17.5 -4t9 -14t3 -15.5t0.5 -19.5v-182h76 v210q0 40 -23.5 63t-58.5 23q-45 0 -88 -40q-21 40 -76 40q-41 0 -86 -36v30h-75v-290zM2810 145q0 -96 72 -96q8 0 16 2t13 3.5t13.5 6.5t11.5 7t13 9.5t12 8.5v-29h39v285h-39v-217q-38 -43 -73 -43q-39 0 -39 74v186h-39v-197zM2996 668q35 -62 107 -62q41 0 67.5 24.5 t26.5 65.5q0 32 -23.5 51.5t-52.5 26.5t-52.5 21.5t-23.5 38.5q0 40 52 40q40 0 65 -36l29 22q-34 49 -96 49q-36 0 -61 -22t-25 -58q0 -34 23.5 -54.5t51 -26.5t51 -20t23.5 -38t-16 -36.5t-39 -12.5q-52 0 -76 47zM3064 57h41v162q31 91 84 91q5 0 10 -1v37h-14 q-50 0 -80 -65v61h-41v-285zM3236 199q0 -75 32 -112.5t83 -37.5q36 0 63.5 18t38.5 46l-29 18q-27 -49 -69 -49q-34 0 -55 26.5t-21 84.5h172q1 10 1 20q0 49 -20 89q-24 48 -81 48q-51 0 -83 -37t-32 -114zM3252 1319q0 -62 33.5 -107t93.5 -45t93.5 45t33.5 107 q0 63 -33.5 107t-93.5 44t-93.5 -44t-33.5 -107zM3279 227q2 34 19 61t48 27q30 0 47 -28.5t15 -59.5h-129zM3330 1319q0 94 49 94t49 -94t-49 -94t-49 94zM3391 752q0 -73 34.5 -109.5t70.5 -36.5q42 0 74 41v-33h41v404h-41v-148q-35 39 -72 39q-42 0 -74.5 -39.5 t-32.5 -117.5zM3434 754q0 26 5 51t21.5 47t41.5 22q45 0 68 -47v-131q-10 -21 -29 -37t-39 -16q-25 0 -46.5 27t-21.5 84zM3502 131q0 -34 23 -58t55 -24q37 0 84 43l4 -35h43q-8 20 -8 64v141q0 45 -29 66.5t-65 21.5q-58 0 -99 -57l29 -21q30 43 70 43q55 0 55 -49v-16 l-14 -4q-3 -1 -19 -5.5t-21 -6t-19.5 -6t-20 -7.5t-17.5 -9t-17.5 -11t-13.5 -13t-11 -16t-6 -18.5t-3 -22.5zM3527 1401h34v-144q0 -45 25 -67.5t64 -22.5q20 0 49 11v57q-17 -10 -31 -10q-29 0 -29 28v148h60v63h-60v72h-78v-72h-34v-63zM3539 135q0 15 8 27t18 19.5 t28 14.5t27 10t27 7l17 4v-84q-38 -47 -82 -47q-18 0 -30.5 15t-12.5 34zM3666 758q0 -76 32 -114t83 -38q35 0 62 18.5t40 47.5l-29 18q-11 -21 -30 -35t-39 -14q-34 0 -55 26.5t-21 84.5h172q1 10 1 20q0 49 -20 89q-24 48 -81 48q-51 0 -83 -38t-32 -113zM3709 786 q0 33 18.5 60.5t49.5 27.5q30 0 46.5 -29t14.5 -59h-129zM3717 1319q0 -62 34 -107t95 -45q42 0 77.5 24.5t47.5 65.5l-70 13q-12 -45 -49 -45q-28 0 -43.5 23t-13.5 52h176v5q0 90 -32 127q-33 38 -93 38q-61 0 -95 -44t-34 -107zM3766 145q0 -96 74 -96q9 0 17.5 1.5t18 7 t13 7.5t16 11t13.5 10v-29h41v285h-41v-217q-14 -16 -35.5 -29.5t-38.5 -13.5q-37 0 -37 74v186h-41v-197zM3797 1350q2 26 14.5 44.5t36.5 18.5q49 0 49 -63h-100zM3996 57h43l63 115l70 -115h49l-94 150l73 135h-43l-55 -100l-59 100h-47l84 -135zM4020 1174h78v403h-78 v-403zM4080 758q0 -76 32 -114t82 -38q33 0 60 22t39 56l-33 14q-25 -57 -66 -57q-73 0 -73 117q0 116 73 116q38 0 58 -53l32 17q-23 71 -90 71q-51 0 -82.5 -37.5t-31.5 -113.5zM4145 1319q0 -62 33.5 -107t93.5 -45q43 0 79 24.5t48 65.5l-72 13q-3 -19 -15.5 -32 t-31.5 -13q-28 0 -44 23.5t-13 51.5h176v5q-1 91 -33 127q-34 38 -94 38t-93.5 -44t-33.5 -107zM4225 1350q0 26 12.5 44.5t36.5 18.5q49 0 49 -63h-98zM4348 614h41v404h-41v-404zM4440 1319q0 -62 33.5 -107t93.5 -45q47 0 79.5 27.5t41.5 73.5l-70 12q-4 -19 -7.5 -28.5 t-14.5 -18t-29 -8.5q-49 0 -49 94t49 94q18 0 29 -8.5t14.5 -18t7.5 -28.5l70 12q-9 46 -41.5 73t-79.5 27q-61 0 -94 -44t-33 -107zM4446 688q0 -34 23 -58t55 -24q16 0 32.5 7.5t26 15t25.5 22.5l4 -37h43q-8 20 -8 64v141q0 45 -29.5 67.5t-64.5 22.5q-56 0 -99 -57 l29 -23q29 45 70 45q55 0 55 -49v-16l-14 -4q-4 -1 -21 -6t-23 -7l-21 -7t-22 -9t-19 -11t-17.5 -14.5t-12.5 -17t-9.5 -21t-2.5 -24.5zM4483 692q0 15 8.5 27t18 19.5t28 14.5t27.5 9.5l27 7.5l16 6v-84q-38 -47 -82 -47q-18 0 -30.5 14.5t-12.5 32.5zM4704 668 q35 -62 107 -62q41 0 67.5 24.5t26.5 65.5q0 32 -23.5 51.5t-52.5 26.5t-52.5 21.5t-23.5 38.5q0 40 52 40q40 0 65 -36l29 22q-34 49 -96 49q-36 0 -61 -22t-25 -58q0 -34 23.5 -54.5t51 -26.5t51 -20t23.5 -38t-16 -36.5t-39 -12.5q-53 0 -74 47zM4952 668q35 -62 107 -62 q41 0 67.5 24.5t26.5 65.5q0 32 -23.5 51.5t-52.5 26.5t-52.5 21.5t-23.5 38.5q0 40 51 40q41 0 66 -36l29 22q-34 49 -95 49q-36 0 -62 -22t-26 -58q0 -34 23.5 -54.5t51.5 -26.5t51.5 -20t23.5 -38t-16 -36.5t-39 -12.5q-53 0 -74 47zM5200 758q0 -76 32 -114t83 -38 q35 0 62 18.5t40 47.5l-29 18q-11 -21 -30 -35t-39 -14q-34 0 -55 26.5t-21 84.5h172q1 10 1 20q0 49 -20 89q-24 48 -81 48q-51 0 -83 -38t-32 -113zM5243 786q0 33 18 60.5t49 27.5q30 0 47 -29q15 -26 15 -53v-6h-129z" />
<glyph unicode="J" horiz-adv-x="5959" d="M96 821q0 -171 66.5 -326t179 -267.5t268 -179t326.5 -66.5t326.5 66.5t268 179t179 267.5t66.5 326q0 114 -30 223t-84.5 201t-132 169.5t-169.5 132t-201 84.5t-223 30t-223 -30t-201 -84.5t-169.5 -132t-132 -169.5t-84.5 -201t-30 -223zM135 821q0 163 64 311.5 t171.5 255.5t255.5 170.5t310 63.5q217 0 401.5 -107.5t292 -292t107.5 -401.5q0 -162 -63.5 -310t-170.5 -255.5t-255.5 -171.5t-311.5 -64q-162 0 -310.5 64t-255.5 171t-171 255.5t-64 310.5zM229 895q0 22 11.5 39t42.5 42.5t43 37.5q71 74 147.5 149.5t188 183 t151.5 146.5v-164l-377 -375h78q18 0 34.5 -16.5t16.5 -34.5v-584h742v584q0 17 17 34t36 17l76 2q-54 50 -80 76q-23 22 -119 114t-160 151t-71 59q-25 0 -25 -31q0 -17 132 -149.5t132 -147.5v-356q0 -15 -12.5 -26t-26.5 -11h-106v-256q0 -16 -13.5 -26.5t-27.5 -10.5 q-15 0 -28 12t-13 27v254h-170v-256q0 -16 -13.5 -26.5t-27.5 -10.5t-26.5 11.5t-12.5 27.5v254h-106q-12 0 -24.5 12t-12.5 25v356q0 16 98 118.5t145 145.5v258q22 31 56 31q20 0 42.5 -16.5t52 -47.5t40.5 -40q18 -16 38 -35.5t44 -42.5t37 -35q76 -73 227 -217t227 -217 q10 -10 10 -35q0 -20 -15 -38.5t-36 -18.5h-168v-584q0 -20 -16.5 -36.5t-34.5 -16.5h-872q-18 0 -34.5 17.5t-16.5 33.5v586h-166q-23 0 -38.5 19t-15.5 38zM1970 324q11 -59 51.5 -93t100.5 -34q58 0 96.5 35t38.5 92q0 43 -22.5 71.5t-54.5 43t-64.5 27t-55 32.5 t-22.5 51q0 32 24.5 54t55.5 22q39 0 59.5 -24t32.5 -69l43 15q-13 51 -47.5 84t-85.5 33q-55 0 -92 -34t-37 -89q0 -41 22.5 -68t54.5 -40.5t64.5 -25.5t55 -34t22.5 -56t-25.5 -57.5t-60.5 -23.5q-41 0 -71 28.5t-38 69.5zM1974 840h90v172h60q91 0 130.5 38.5t39.5 96.5 q0 54 -38 97.5t-110 43.5h-172v-448zM2064 1087v125h19h16.5h18.5t17 -0.5t18 -2.5t15 -5t14.5 -7.5t10 -11t7.5 -16t2 -20.5q0 -13 -3.5 -23t-7.5 -16.5t-14 -11t-15.5 -7t-19.5 -3.5t-19 -1h-21h-19h-19zM2310 287q0 -37 25.5 -63.5t62.5 -26.5q39 0 92 49l4 -39h50 q-9 23 -9 69v158q0 49 -32.5 73.5t-71.5 24.5q-65 0 -111 -63l33 -25q35 52 78 52q27 0 43 -15.5t16 -42.5v-16l-14 -4q-4 -1 -21.5 -6t-23 -6.5t-21.5 -7t-23 -9l-20 -10t-19 -12.5l-15 -15t-13 -18t-7 -21.5t-3 -25.5zM2337 840h86v141q0 30 10.5 52.5t26 33t29 15.5 t22.5 5q10 0 26 -4v86h-16q-27 0 -48.5 -15t-49.5 -48v55h-86v-321zM2353 293q0 14 6.5 25.5t14 19t23.5 15t24 10.5t28 9t23 7l18 6v-94q-43 -51 -90 -51q-20 0 -33.5 16t-13.5 37zM2568 1001q0 -69 37.5 -118t104.5 -49t104 49t37 118t-37 118.5t-104 49.5t-104.5 -49.5 t-37.5 -118.5zM2607 207h45v446h-45v-446zM2656 1001q0 24 3.5 45.5t16.5 40.5t34 19q55 0 55 -105q0 -106 -55 -106q-30 0 -42 32.5t-12 73.5zM2724 207h45v446h-45v-446zM2830 365q0 -85 35 -126.5t92 -41.5q40 0 71.5 20t43.5 51l-33 21q-31 -53 -78 -53 q-37 0 -60.5 28.5t-23.5 91.5h193q1 10 1 21q0 55 -23 101q-28 54 -91 54q-58 0 -92.5 -41t-34.5 -126zM2879 395q0 38 20 69.5t54 31.5q32 0 51 -32.5t19 -68.5h-144zM2904 840h86v223q26 37 66 37q15 0 22.5 -9t8.5 -17.5t1 -25.5v-6v-202h86v223q26 37 66 37 q12 0 19.5 -4.5t10 -15.5t3 -16.5t0.5 -21.5v-202h86v233q0 45 -25.5 70.5t-64.5 25.5q-49 0 -101 -45q-23 45 -82 45q-48 0 -96 -41v33h-86v-321zM3125 264q40 -67 119 -67q45 0 74.5 27.5t29.5 72.5q0 36 -26 57.5t-57.5 29t-57.5 23.5t-26 42q0 22 17 34.5t40 12.5 q47 0 72 -43l32 24q-37 55 -106 55q-41 0 -68.5 -24t-27.5 -64q0 -38 26 -60.5t56.5 -29.5t56.5 -23t26 -42t-17 -39.5t-44 -13.5q-57 0 -82 51zM3410 1001q0 -69 37.5 -118t103.5 -49q67 0 105.5 49t38.5 118t-38 118.5t-106 49.5q-67 0 -104 -49.5t-37 -118.5zM3498 1001 q0 105 53 105q31 0 43.5 -32.5t12.5 -72.5q0 -41 -12.5 -73.5t-43.5 -32.5q-53 0 -53 106zM3568 358q0 -83 36.5 -122t77.5 -39q49 0 82 45v-35h45v446h-45v-161q-40 40 -80 40q-46 0 -81 -44t-35 -130zM3615 360q0 29 5 56.5t23 52.5t47 25q49 0 74 -52v-147 q-10 -22 -31 -40.5t-43 -18.5q-30 0 -52.5 30t-22.5 94zM3717 1092h39v-160q0 -50 26.5 -74t69.5 -24q20 0 56 8v65q-20 -12 -35 -12q-31 0 -31 33v164h66v69h-66v82h-86v-82h-39v-69zM3871 365q0 -85 35.5 -126.5t93.5 -41.5q39 0 69.5 20t42.5 51l-30 21q-31 -53 -78 -53 q-86 0 -86 120h192q1 11 1 21q0 56 -23 101q-26 54 -88 54q-58 0 -93.5 -41t-35.5 -126zM3920 395q0 38 20.5 69.5t55.5 31.5q32 0 50 -33q17 -30 17 -61v-7h-143zM3930 1001q0 -69 37 -118t104 -49q48 0 88.5 26.5t53.5 71.5l-80 14q-11 -51 -53 -51q-31 0 -49 27.5 t-15 58.5h197v5q0 101 -37 142t-105 41q-67 0 -104 -49.5t-37 -118.5zM4018 1034q4 72 55 72q29 0 42.5 -20.5t13.5 -51.5h-111zM4266 840h86v448h-86v-448zM4332 365q0 -85 35 -126.5t91 -41.5q37 0 67 24t44 62l-35 16q-28 -63 -76 -63h-2q-43 0 -61 38q-18 39 -18 91 q0 129 81 131q42 0 66 -62l37 19q-27 79 -103 79q-56 0 -91 -41t-35 -126zM4405 1001q0 -69 37.5 -118t104.5 -49q48 0 88 26t53 72l-78 14q-15 -51 -55 -51q-31 0 -49 27.5t-15 58.5h197v5q0 101 -36 142q-37 41 -105 41q-67 0 -104.5 -49.5t-37.5 -118.5zM4493 1034 q2 30 15.5 51t40.5 21q55 0 55 -72h-111zM4633 207h45v446h-45v-446zM4733 1001q0 -69 37 -118t104 -49q54 0 89 29.5t46 80.5l-77 14q-4 -20 -8.5 -32t-17 -21.5t-32.5 -9.5q-53 0 -53 106q0 105 53 105q29 0 40.5 -16t17.5 -46l77 13q-11 52 -46.5 82t-88.5 30 q-67 0 -104 -49.5t-37 -118.5zM4739 287q0 -37 25.5 -63.5t62.5 -26.5q43 0 92 49l4 -39h50q-9 22 -9 69v158q0 49 -32.5 73.5t-71.5 24.5q-65 0 -111 -63l33 -25q35 52 78 52q27 0 43 -15.5t16 -42.5v-16l-14 -4q-4 -1 -21.5 -6t-23 -6.5t-21.5 -7t-23 -9l-20 -10 t-19 -12.5l-15 -15t-13 -18t-7 -21.5t-3 -25.5zM4782 293q0 16 8 29t23.5 22t28.5 14t33.5 11.5t27.5 9.5l16 6v-94q-38 -51 -90 -51q-20 0 -33.5 16t-13.5 37zM5028 264q40 -67 119 -67q45 0 74.5 27.5t29.5 72.5q0 36 -26.5 57.5t-57.5 29t-57.5 23.5t-26.5 42 q0 22 16.5 34.5t40.5 12.5q43 0 72 -43l33 24q-40 55 -107 55q-41 0 -69.5 -24t-28.5 -64q0 -38 26 -60.5t58 -29.5t58 -23t26 -42t-17 -39.5t-44 -13.5q-56 0 -84 51zM5304 264q37 -67 119 -67q45 0 75 27.5t30 72.5q0 36 -26 57.5t-58 29t-58 23.5t-26 42q0 22 16.5 34.5 t40.5 12.5q43 0 72 -43l32 24q-40 55 -106 55q-41 0 -69.5 -24t-28.5 -64q0 -38 26.5 -60.5t57.5 -29.5t57.5 -23t26.5 -42t-17.5 -39.5t-44.5 -13.5q-56 0 -84 51zM5579 365q0 -85 35.5 -126.5t93.5 -41.5q39 0 69.5 19.5t44.5 51.5l-32 21q-31 -53 -78 -53q-84 0 -84 120 h190q1 11 1 21q0 56 -23 101q-26 54 -88 54q-58 0 -93.5 -41t-35.5 -126zM5628 395q0 38 20.5 69.5t55.5 31.5q32 0 50 -33q17 -30 17 -61v-7h-143z" />
<glyph unicode="K" horiz-adv-x="6311" d="M84 594q0 -183 86 -326.5t231.5 -220t323.5 -76.5q247 0 416.5 133t201.5 371h-432q-8 -73 -56.5 -123.5t-119.5 -50.5q-50 0 -87 17t-58 43.5t-33.5 67t-16 78.5t-3.5 87q0 48 3.5 86t16 79t33.5 68t58 44.5t87 17.5q70 0 115 -39q43 -40 49 -113h430q-8 96 -43.5 175.5 t-91.5 136t-130 95t-159.5 57t-179.5 18.5q-178 0 -323.5 -77t-231.5 -221t-86 -327zM1384 592q0 -194 87.5 -336t237 -213.5t341.5 -71.5q138 0 257.5 39.5t213.5 125.5t139 210h-424q-25 -41 -77.5 -62.5t-110.5 -21.5q-102 0 -162 63.5t-69 168.5h868q0 725 -674 725 q-183 0 -327.5 -85t-222 -227.5t-77.5 -314.5zM1819 729q15 96 74 147.5t159 51.5q86 0 142.5 -58t56.5 -141h-432zM2644 909h201v-567q0 -68 13 -122t33.5 -90.5t53 -63.5t65 -41.5t76.5 -23t80.5 -11t83.5 -2.5q48 0 147 7t144 7v342q-53 -6 -102 -6q-83 0 -112.5 35.5 t-29.5 122.5v413h244v279h-244v360h-452v-360h-201v-279zM3545 592q0 -194 88 -336t237.5 -213.5t340.5 -71.5q138 0 257.5 39.5t213.5 125.5t139 210h-422q-27 -41 -79 -62.5t-111 -21.5q-103 0 -163 63.5t-69 168.5h869q0 725 -674 725q-183 0 -327.5 -85t-222 -227.5 t-77.5 -314.5zM3979 729q15 96 74.5 147.5t159.5 51.5q86 0 142 -58t56 -141h-432zM4907 2h455v342l80 86l241 -428h545l-490 737l422 449h-512l-286 -342v788h-455v-1632z" />
<glyph unicode="L" horiz-adv-x="1564" d="M55 176h8l7 19h24l6 -19h9l-27 70zM59 0v2v43v2h1452h2v-2v-43v-2h-2h-1452zM59 281v45v2h408v88q-131 44 -229 145q-86 87 -131.5 202t-45.5 243q0 125 45.5 240.5t131.5 207.5q83 90 187 139t210 49h4h2q79 0 141 -86q14 17 29 29q61 55 141 55q104 0 204.5 -47.5 t180.5 -134.5q174 -189 174 -452q0 -114 -45.5 -225.5t-128.5 -202.5q-95 -105 -217 -154v-96h391h2v-2v-45h-2h-1452zM61 74h23v8h-16v59h-7v-67zM72 203l10 26l10 -26h-20zM90 74v67h6v-67h-6zM104 109q0 -15 9.5 -25t21.5 -10q11 0 17 6v10q-7 -10 -17 -10t-17 9t-7 20 t7 19.5t17 8.5t17 -10v10q-6 6 -17 6q-12 0 -21.5 -10.5t-9.5 -23.5zM115 176h6v29h2l16 -29h8l-18 31q14 0 14 18q0 19 -20 19h-8v-68zM121 211v25h2q14 0 14 -13q0 -12 -14 -12h-2zM156 176h14q20 0 20 19q0 13 -12 16q6 6 6 14q0 19 -18 19h-10v-68zM162 182v25h6 q16 0 16 -12q0 -13 -16 -13h-6zM162 213v23h2q14 0 14 -11q0 -12 -14 -12h-2zM164 74h6v35h29v-35h6v67h-6v-26h-29v26h-6v-67zM199 176h30v6h-24v27h22v8h-22v19h24v8h-30v-68zM213 135h12v-61h6v61h15v6h-33v-6zM240 176v68h6v-68h-6zM248 135h14v-61h6v61h15v6h-35v-6z M254 236h12v-60h6v60h15v8h-33v-8zM289 74h30v8h-24v27h22v6h-22v20h24v6h-30v-67zM291 193q4 -19 18 -19q7 0 13 6.5t6 14.5q0 13 -15 20l-4 2q-8 4 -8 10q0 11 8 11q7 0 10 -9l7 4q-7 11 -15 11q-16 0 -16 -17q0 -12 12 -18h2q12 -11 13 -14q0 -13 -13 -13q-9 0 -12 13z M326 109q0 -15 9 -25t21 -10q11 0 17 6v10q-7 -10 -17 -10q-9 0 -16.5 9t-7.5 20t7.5 19.5t16.5 8.5q10 0 17 -10v10q-6 6 -17 6q-12 0 -21 -10t-9 -24zM336 176h6v29l2 2l25 -31h8l-29 35l29 33h-10l-25 -29v29h-6v-68zM379 1016q0 -166 35 -307.5t95.5 -223.5t131.5 -82 t132 82t96.5 223.5t35.5 307.5q0 165 -35.5 305.5t-96.5 222.5t-132 82t-131.5 -82t-95.5 -222.5t-35 -305.5zM383 176h6v29h2l19 -29h6l-19 31q15 0 15 18q0 19 -21 19h-8v-68zM385 74h6v35h29v-35h6v67h-6v-26h-29v26h-6v-67zM389 211v25h2q15 0 15 -13q0 -12 -15 -12h-2z M424 176h31v6h-25v27h25v8h-25v19h25v8h-31v-68zM438 74h8v53l43 -55v69h-6v-51l-45 55v-71zM465 176v68h6v-68h-6zM481 193q4 -19 19 -19q6 0 11 6.5t5 14.5q0 12 -12 20l-4 2q-11 5 -11 10q0 11 11 11q7 0 10 -9l4 4q-4 11 -14 11q-6 0 -11.5 -5t-5.5 -12q0 -9 13 -18h4 q10 -7 10 -14q0 -13 -12 -13q-11 0 -11 13zM502 74v67h8v-67h-8zM516 328h168v67q-8 -4 -14 -4q-16 -4 -23 -4q-62 0 -131 16v-75zM518 90q3 -16 19 -16q6 0 11 5.5t5 14.5q0 11 -12 19l-4 2q-11 5 -11 10q0 4 4 8t7 4q6 0 10 -8l4 4q-3 10 -14 10q-6 0 -11.5 -4.5 t-5.5 -11.5q0 -10 12 -18l5 -3q10 -3 10 -12q0 -14 -10 -14q-5 0 -9 4t-4 8zM559 109q0 -15 9.5 -25t21.5 -10q10 0 16 6v10q-7 -10 -16 -10t-16 9t-7 20t7 19.5t16 8.5t16 -10v10q-6 6 -16 6q-12 0 -21.5 -10.5t-9.5 -23.5zM618 74h7v35h28v-35h9v67h-9v-26h-28v26h-7v-67z M672 74h30v8h-24v27h24v6h-24v20h24v6h-30v-67zM713 74h6v30h2l18 -30h6l-16 30q14 4 14 19q0 18 -22 18h-8v-67zM719 111v24h2q14 0 14 -12t-14 -12h-2zM733 328h117v90q-39 22 -68 55q-20 -28 -49 -51v-94zM776 90q0 -7 5.5 -11.5t11.5 -4.5q18 0 18 20q0 12 -14 19l-2 2 q-11 5 -11 10q0 12 11 12q6 0 10 -8l4 4q-3 10 -14 10q-6 0 -11.5 -4.5t-5.5 -11.5q0 -9 13 -18l4 -3q10 -5 10 -12q0 -14 -12 -14q-11 0 -11 12zM821 74h6v30h4q10 0 15 5q4 4 4 14t-6 16q-4 2 -15 2h-8v-67zM827 111v24h2q15 0 15 -12t-13 -12h-4zM858 74h31v8h-23v27h23 v6h-23v20h23v6h-31v-67zM895 74h41v8h-31l33 59h-39v-6h27zM899 328h170v80q-55 -17 -117 -17q-29 0 -53 6v-69zM944 74v67h6v-67h-6zM956 74h9l6 20h24l9 -20h6l-27 71zM975 100l8 27l10 -27h-18zM1016 74h22v8h-16v59h-6v-67zM1044 74h7v35h20v6h-20v20h20v6h-27v-67z M1069 74h8l6 20h25l6 -20h8l-26 71zM1085 100l11 27l10 -27h-21zM1128 74h13q22 0 22 20q0 14 -12 17q6 6 6 14q0 16 -18 16h-11v-67zM1135 82v24h6q14 0 14 -12t-14 -12h-6zM1135 113v22h2q14 0 14 -10q0 -12 -14 -12h-2zM1171 74h7v30h2l18 -30h6l-18 30q14 3 14 19 q0 18 -20 18h-9v-67zM1178 111v24h2q14 0 14 -12t-14 -12h-2zM1212 74v67h7v-67h-7zM1231 74h6v30l2 2l25 -32h8l-29 37l27 30h-8l-25 -28v28h-6v-67zM1278 74h31v8h-25v27h23v6h-23v20h25v6h-31v-67zM1319 74h6v53l45 -55v69h-6v-51l-45 55v-71zM1401 1004q0 -27 9.5 -47.5 t21.5 -20.5q13 0 22.5 20t9.5 48t-9.5 47.5t-22.5 19.5q-12 0 -21.5 -20t-9.5 -47zM1405 74h31v8h-23v27h23v6h-23v20h23v6h-31v-67zM1448 78q0 -4 4 -4t4 4q0 6 -4 6t-4 -6zM1464 141l25 -71l22 71h-6l-16 -51l-16 51h-9zM1505 78q0 -4 6 -4q5 0 5 4q0 6 -5 6q-6 0 -6 -6z " />
<glyph unicode="M" horiz-adv-x="1912" d="M141 0h47h1545h47v47v1544v47h-47h-1545h-47v-47v-1544v-47zM238 94v2v1448h1448v-1448v-2h-1448zM455 311h47h919h47v49v918v49h-47h-919h-47v-49v-918v-49zM549 408v823h823v-823h-823z" />
<glyph unicode="N" horiz-adv-x="4104" d="M180 668q0 -139 54.5 -265.5t146 -217.5t218 -145t265.5 -54h37v1364h-37q-139 0 -265.5 -54t-218 -145t-146 -217.5t-54.5 -265.5zM254 668q0 119 45 228.5t121.5 190.5t182.5 131.5t224 57.5v-1217q-157 10 -288.5 93.5t-208 220t-76.5 295.5zM1073 666 q0 -158 66.5 -235t163.5 -77t163 76.5t66 235.5t-61 241t-168 82t-168.5 -82t-61.5 -241zM1196 666q0 26 0.5 43.5t3.5 47.5t10 50t18 40.5t30.5 31t44.5 10.5t44.5 -10.5t30.5 -31t18.5 -41t10.5 -50t3.5 -47t0.5 -43.5q0 -38 -2.5 -66t-12 -65.5t-33 -58.5t-60.5 -21 q-107 0 -107 211zM1567 362h41l-39 -104l47 -20l67 131v112h-116v-119zM1757 520q15 -76 76.5 -121t140.5 -45q87 0 149 53t62 140q0 100 -104 143q46 24 69 54t23 79q0 74 -59 120t-134 46q-67 0 -119 -34t-81 -97l106 -43q29 78 92 78q33 0 53.5 -23.5t20.5 -58.5 q0 -80 -143 -80h-17v-90q29 1 56 -3t55 -14t44.5 -32t16.5 -53q0 -37 -24.5 -62.5t-61.5 -25.5q-79 0 -106 94zM2238 666q0 -159 67 -236.5t163 -77.5q97 0 163 77.5t66 236.5t-60.5 241t-168.5 82q-107 0 -168.5 -82t-61.5 -241zM2361 666q0 27 0.5 44t3.5 47t10 50 t18 40.5t30.5 31t44.5 10.5t44.5 -10.5t30.5 -31t18.5 -41t10.5 -50t3.5 -47t0.5 -43.5q0 -38 -2.5 -66t-12 -65.5t-33 -58.5t-60.5 -21q-107 0 -107 211zM2884 362h118v308q35 51 88 51q17 0 28 -6.5t14.5 -20.5t4.5 -23t1 -28v-281h118v308q35 51 88 51q17 0 27.5 -6 t14.5 -21t4.5 -23t0.5 -28v-281h117v322q0 62 -35 96.5t-88 34.5q-67 0 -137 -59q-33 59 -115 59q-65 0 -131 -55v47h-118v-445zM3695 -2v1343h73v-153l185 153v-96q-67 -58 -185 -153v-174l185 153v-92l-183 -160v-174l183 156v-99q-134 -112 -185 -153v-174l185 153v-92 l-183 -160v-174l183 156v-96q-12 -11 -60 -50.5t-73 -62.5q-4 -4 -17 -14t-22.5 -19t-12.5 -18h-73z" />
<glyph unicode="O" horiz-adv-x="4104" d="M180 668q0 -139 54.5 -265.5t146 -217.5t218 -145t265.5 -54h37v1364h-37q-139 0 -265.5 -54t-218 -145t-146 -217.5t-54.5 -265.5zM254 668q0 119 45 228.5t121.5 190.5t182.5 131.5t224 57.5v-1217q-157 10 -288.5 93.5t-208 220t-76.5 295.5zM1096 362h407v105h-282 q38 47 94 93.5t93.5 74.5t66 73t28.5 101q0 79 -50.5 129.5t-149.5 50.5q-89 0 -146.5 -47.5t-60.5 -134.5l116 -21q16 107 95 107q31 0 50 -22.5t19 -55.5q0 -37 -27 -73.5t-63.5 -65t-92.5 -79.5t-97 -103v-132zM1587 362h41l-39 -104l49 -20l66 129v112h-117v-117z M1747 666q0 -159 66 -236.5t163 -77.5q96 0 163 77.5t67 236.5t-61.5 241t-168.5 82t-168 -82t-61 -241zM1868 666q0 26 0.5 43.5t3.5 47t10.5 50t18.5 41t30.5 31t44.5 10.5t44.5 -10.5t30.5 -31t18 -40.5t10 -50t3.5 -47t0.5 -44q0 -211 -107 -211q-37 0 -60.5 21 t-33 58.5t-12 65.5t-2.5 66zM2238 666q0 -159 67 -236.5t163 -77.5q97 0 163 77.5t66 236.5t-60.5 241t-168.5 82q-107 0 -168.5 -82t-61.5 -241zM2361 666q0 27 0.5 44t3.5 47t10 50t18 40.5t30.5 31t44.5 10.5t44.5 -10.5t30.5 -31t18.5 -41t10.5 -50t3.5 -47t0.5 -43.5 q0 -38 -2.5 -66t-12 -65.5t-33 -58.5t-60.5 -21q-107 0 -107 211zM2884 362h118v308q35 51 88 51q17 0 28 -6.5t14.5 -20.5t4.5 -23t1 -28v-281h118v308q35 51 88 51q17 0 27.5 -6t14.5 -21t4.5 -23t0.5 -28v-281h117v322q0 62 -35 96.5t-88 34.5q-67 0 -137 -59 q-33 59 -115 59q-65 0 -131 -55v47h-118v-445zM3695 -2v1343h73v-153l185 153v-96q-67 -58 -185 -153v-174l185 153v-92l-183 -160v-174l183 156v-99q-134 -112 -185 -153v-174l185 153v-92l-183 -160v-174l183 156v-96q-12 -11 -60 -50.5t-73 -62.5q-4 -4 -17 -14 t-22.5 -19t-12.5 -18h-73z" />
<glyph unicode="P" horiz-adv-x="6588" d="M182 668q0 -138 54 -264t145 -217t217 -145t264 -54h37v1360h-37q-138 0 -264 -54t-217 -145t-145 -217t-54 -264zM256 668q0 119 44.5 228.5t120.5 190t181.5 130.5t222.5 57v-1211q-156 9 -287 92t-206.5 219t-75.5 294zM1075 369h314v96h-97v518h-88l-129 -47v-68h94 v-403h-94v-96zM1454 369h41l-39 -105l49 -20l68 129v112h-119v-116zM1614 670q0 -158 65.5 -235t161.5 -77q97 0 163.5 77t66.5 235q0 159 -61.5 241t-168.5 82t-167 -82t-60 -241zM1735 670q0 32 1 53.5t6.5 57t16 57t31.5 38.5t51 17q25 0 44.5 -10.5t31 -31t18.5 -41 t10 -49.5t4 -47.5t1 -43.5q0 -211 -109 -211q-29 0 -50 15.5t-31.5 36.5t-16.5 53.5t-7 54.5t-1 51zM2105 670q0 -157 66 -234.5t162 -77.5t161.5 77t65.5 235q0 159 -60 241t-167 82t-167.5 -82t-60.5 -241zM2226 670q0 27 0.5 44t3.5 47t10 50t18 40.5t30.5 31t44.5 10.5 q37 0 60.5 -22t32.5 -63.5t11 -68.5t2 -69q0 -29 -1 -51t-7 -54.5t-16.5 -53.5t-31.5 -36.5t-50 -15.5q-107 0 -107 211zM2746 369h117v305q37 53 90 53q17 0 27.5 -6.5t14.5 -21.5t4.5 -23.5t0.5 -28.5v-278h117v305q37 53 88 53q17 0 27.5 -6.5t14.5 -21.5t4.5 -23.5 t0.5 -28.5v-278h117v319q0 64 -34.5 98.5t-88.5 34.5q-61 0 -137 -61q-34 61 -113 61q-67 0 -133 -55v45h-117v-442zM3559 2v1337h74v-153l184 153v-96q-34 -28 -184 -153v-175l184 154v-92l-184 -158v-174l184 156v-99q-15 -13 -82.5 -68t-101.5 -85v-174l184 153v-92 l-184 -157v-175l184 156v-96q-105 -87 -133 -113q-1 -1 -13 -9.5t-17 -12.5t-12 -12t-9 -15h-74zM4092 367h63v303h265v-303h65v618h-65v-260h-265v260h-63v-618zM4583 367h64v618h-64v-618zM4708 930h166v-563h66v563h166v55h-398v-55zM5272 905l100 8v-489h-90v-57h241v57 h-88v561h-51l-112 -43v-37zM5607 469q57 -115 168 -115q91 0 142 66t51 160q0 84 -45 144t-127 60q-72 0 -115 -51l17 197h229v55h-283l-22 -328l49 -10q55 82 119 82q47 0 79.5 -40.5t32.5 -113.5q0 -68 -31 -116.5t-94 -48.5q-41 0 -71.5 25.5t-46.5 64.5zM6052 676 q0 -59 8 -109.5t27 -101.5t59 -81t98 -30t98 30t59.5 81t27.5 102t8 109t-8 109t-27.5 102t-59.5 80.5t-98 29.5q-47 0 -82 -20.5t-55.5 -52.5t-33.5 -76.5t-17 -85t-4 -86.5zM6111 676q0 266 133 266t133 -266t-133 -266t-133 266z" />
<glyph unicode="Q" horiz-adv-x="4020" d="M180 668q0 -139 54 -265.5t145 -217.5t217.5 -145t265.5 -54h37v1364h-37q-139 0 -265.5 -54t-217.5 -145t-145 -217.5t-54 -265.5zM252 668q0 119 45 228.5t121.5 190.5t182.5 131.5t224 57.5v-1217q-157 10 -288.5 93.5t-208 220t-76.5 295.5zM1032 666 q0 -159 66 -235.5t162 -76.5q97 0 163 76.5t66 235.5t-60.5 241t-168.5 82q-107 0 -167.5 -82t-60.5 -241zM1153 666q0 25 1 43.5t3.5 47.5t10 49.5t18.5 41t30 31t44 10.5t44.5 -10.5t30.5 -31t18.5 -41t10.5 -50t3.5 -47t0.5 -43.5q0 -38 -2.5 -66t-12 -65.5t-33 -58.5 t-60.5 -21q-107 0 -107 211zM1524 362h41l-39 -104l49 -20l67 131v112h-118v-119zM1724 362h408v105h-281q38 47 94 93.5t94 74.5t66.5 73.5t28.5 100.5q0 78 -52 129t-151 51q-88 0 -146 -48t-61 -134l117 -21q19 107 94 107q33 0 52.5 -22.5t19.5 -55.5q0 -37 -27 -73.5 t-64 -65t-93.5 -79.5t-98.5 -103v-132zM2177 666q0 -159 65.5 -235.5t161.5 -76.5q98 0 164 76.5t66 235.5t-61 241t-169 82q-107 0 -167 -82t-60 -241zM2298 666q0 32 1 53.5t6.5 57t16 57t31.5 38.5t51 17q25 0 44.5 -10.5t31 -31t18.5 -41t10 -49.5t4 -47.5t1 -43.5 q0 -211 -109 -211q-29 0 -50 15.5t-31.5 36.5t-16.5 53.5t-7 54.5t-1 51zM2806 362h116v308q34 53 91 53q17 0 27.5 -6.5t14.5 -21.5t4.5 -23.5t0.5 -28.5v-281h116v308q34 53 91 53q16 0 26 -6t14 -18.5t4.5 -21.5t0.5 -27v-7v-281h118v322q0 64 -35 98.5t-90 34.5 q-61 0 -137 -61q-34 61 -112 61q-68 0 -134 -55v45h-116v-445zM3570 -2v1343h73v-153l185 153v-96q-43 -37 -187 -153v-174l187 153v-92l-185 -160v-174l185 156v-99q-85 -71 -187 -153v-174l187 153v-92l-185 -160v-174l185 156v-96q-90 -74 -133 -113q-4 -4 -18 -14 t-23 -19t-13 -18h-71z" />
<glyph unicode="R" horiz-adv-x="7417" d="M172 670q0 -139 54.5 -265.5t146 -217.5t218 -145t265.5 -54h37v1364h-37q-139 0 -265.5 -54t-218 -145t-146 -217.5t-54.5 -265.5zM246 670q0 159 76.5 295.5t208 219.5t288.5 93v-1217q-157 9 -289 92.5t-208 220.5t-76 296zM1024 668q0 -159 66.5 -236.5t162.5 -77.5 q97 0 163.5 77.5t66.5 236.5t-61.5 241t-168.5 82t-168 -82t-61 -241zM1147 668q0 42 2 69t11 68.5t32.5 63.5t60.5 22q25 0 44.5 -10.5t31 -31t18.5 -41t10 -49.5t4 -47.5t1 -43.5q0 -211 -109 -211q-29 0 -50 15.5t-31.5 36.5t-16.5 53.5t-7 54.5t-1 51zM1518 365h41 l-39 -105l49 -20l65 129v112h-116v-116zM1718 365h408v104h-283q32 39 76 76.5t78 63.5t65.5 55t48.5 65.5t17 81.5q0 77 -52 128.5t-151 51.5q-88 0 -146 -48t-61 -134l117 -21q15 105 94 105q33 0 52.5 -21.5t19.5 -54.5q0 -37 -27 -73.5t-64 -65t-93.5 -79.5t-98.5 -103 v-131zM2169 668q0 -159 66.5 -236.5t162.5 -77.5q97 0 163.5 77.5t66.5 236.5t-61.5 241t-168.5 82t-168 -82t-61 -241zM2292 668q0 42 2 69t11 68.5t32.5 63.5t60.5 22q25 0 44.5 -10.5t31 -31t18.5 -41t10 -49.5t4 -47.5t1 -43.5q0 -211 -109 -211q-29 0 -50 15.5 t-31.5 36.5t-16.5 53.5t-7 54.5t-1 51zM2800 365h116v307q37 53 90 53q16 0 26.5 -6t14 -19t4.5 -22.5t1 -26.5v-6v-280h118v307q37 53 88 53q17 0 27.5 -6.5t14.5 -21.5t4.5 -23.5t0.5 -28.5v-280h119v321q0 64 -35 98.5t-90 34.5q-61 0 -137 -61q-34 61 -113 61 q-69 0 -133 -57v47h-116v-444zM3561 0v1343h76v-155l185 153v-94q-43 -37 -187 -153v-176l187 153v-92l-185 -158v-176l185 156v-96q-58 -50 -187 -154v-176l187 155v-92l-185 -159v-175l185 156v-96q-101 -83 -134 -113q-4 -3 -18.5 -13.5t-23 -19.5t-11.5 -18h-74z M4076 670q0 -51 8.5 -98.5t28 -95.5t59 -81.5t94.5 -42.5q10 -83 51.5 -109t114.5 -26h45v55h-45q-19 0 -32 2t-29 9t-26 24.5t-13 44.5q55 9 94.5 42.5t59.5 81.5t29 96t9 98q0 150 -63 236.5t-162 86.5t-161 -86t-62 -237zM4141 670q0 134 44.5 202t113.5 68t114 -68 t45 -202q0 -133 -45 -201t-114 -68t-113.5 68t-44.5 201zM4571 924h168v-564h66v564h165v55h-399v-55zM5032 360h135q279 0 279 314q0 138 -65.5 221.5t-194.5 83.5h-154v-619zM5097 416v508h91q96 0 144 -64t48 -184q0 -135 -53 -197.5t-168 -62.5h-62zM5532 360h354v56 h-289v241h193v56h-193v211h271v55h-336v-619zM6078 899l101 10v-493h-90v-56h243v56h-88v563h-51l-115 -41v-39zM6416 463q56 -115 168 -115q91 0 143 65.5t52 159.5q0 84 -46 145.5t-128 61.5q-71 0 -115 -53l16 197h230v55h-283l-22 -328l49 -10q55 82 119 82 q47 0 80.5 -40.5t33.5 -113.5q0 -68 -31.5 -117t-95.5 -49q-40 0 -71 25.5t-47 65.5zM6861 670q0 -45 4 -85.5t17 -85.5t33.5 -77t56.5 -53t83 -21q58 0 98 30t59.5 81.5t27.5 102t8 108.5t-8 109t-27.5 102.5t-59.5 81.5t-98 30q-47 0 -83 -21t-56.5 -53t-33.5 -76.5 t-17 -85.5t-4 -87zM6922 670q0 266 133 266t133 -266q0 -267 -133 -267t-133 267z" />
<glyph unicode="S" horiz-adv-x="6275" d="M190 670q0 -139 54 -265.5t145 -218t217.5 -146t265.5 -54.5h37v1366h-37q-111 0 -215.5 -34.5t-188 -98t-146.5 -147.5t-97.5 -187.5t-34.5 -214.5zM262 670q0 158 76.5 294.5t208.5 219.5t289 92v-1215q-157 9 -289 92.5t-208.5 220.5t-76.5 296zM1038 666 q0 -159 66 -235.5t164 -76.5q96 0 161.5 76.5t65.5 235.5t-60 241t-167 82q-108 0 -169 -82t-61 -241zM1159 666q0 25 1 43.5t4 47.5t10 49.5t18.5 41t31 31t44.5 10.5q30 0 51 -17t31.5 -38.5t16 -57t6.5 -57t1 -53.5q0 -29 -1 -51t-7 -54.5t-16.5 -53.5t-31.5 -36.5 t-50 -15.5q-109 0 -109 211zM1530 362h41l-39 -104l49 -20l68 131v112h-119v-119zM1720 520q15 -76 77.5 -121t141.5 -45q87 0 148 52.5t61 140.5q0 102 -104 143q47 24 70.5 54t23.5 79q0 74 -58.5 120t-133.5 46q-69 0 -121 -34t-80 -97l104 -43q29 78 93 78 q33 0 53 -23.5t20 -58.5q0 -80 -137 -80h-20v-90q29 1 56 -3t54 -14t43.5 -32t16.5 -53q0 -37 -24.5 -62.5t-61.5 -25.5q-80 0 -107 94zM2198 483q24 -59 81.5 -94t122.5 -35q98 0 162 68t64 160q0 86 -52.5 148.5t-136.5 62.5q-68 0 -119 -45v129h246v104h-344l-10 -330 l108 -24q7 28 30 44.5t52 16.5q48 0 73.5 -35t25.5 -84t-27 -83.5t-74 -34.5q-34 0 -58.5 21.5t-35.5 55.5zM2812 362h117v308q34 53 90 53q17 0 27.5 -6.5t14.5 -21.5t4.5 -23.5t0.5 -28.5v-281h117v308q34 53 90 53q17 0 27.5 -6.5t14.5 -21.5t4.5 -23.5t0.5 -28.5v-281 h117v322q0 64 -35 98.5t-90 34.5q-62 0 -138 -61q-34 61 -112 61q-67 0 -133 -55v45h-117v-445zM3580 0v1343h74v-155l184 153v-96q-30 -26 -92.5 -77t-93.5 -76v-174l186 153v-92l-184 -160v-174l184 156v-99q-30 -25 -92.5 -76t-93.5 -77v-174l186 153v-92l-184 -157v-177 l184 156v-96q-114 -93 -133 -111l-18 -13.5t-22.5 -19.5t-12.5 -18h-72zM4112 365h66v303h264v-303h66v618h-66v-260h-264v260h-66v-618zM4606 365h63v618h-63v-618zM4733 928h166v-563h65v563h166v55h-397v-55zM5261 469q29 -56 78.5 -86.5t110.5 -30.5q85 0 137.5 50.5 t52.5 134.5q0 120 -108 155q48 25 70 59t22 87q0 67 -44 113t-118 46q-103 0 -176 -100l45 -33q51 76 119 76q53 0 82.5 -29.5t29.5 -81.5q0 -50 -33.5 -80t-99.5 -30h-51v-60l41 5q156 0 156 -134q0 -58 -33.5 -90t-91.5 -32q-46 0 -77.5 23t-59.5 67zM5728 467 q56 -115 170 -115q90 0 141.5 66t51.5 160q0 84 -45.5 144t-128.5 60q-70 0 -115 -51l18 197h228v55h-283l-20 -328l49 -10q51 82 119 82q46 0 79 -40.5t33 -113.5q0 -68 -31.5 -116.5t-95.5 -48.5q-77 0 -119 90z" />
<glyph unicode="T" horiz-adv-x="6598" d="M205 670q0 -139 54 -265.5t145 -217.5t217.5 -145t265.5 -54h37v1364h-37q-139 0 -265.5 -54t-217.5 -145t-145 -217.5t-54 -265.5zM279 670q0 159 76 295.5t207 219.5t288 93v-1217q-157 9 -288.5 92.5t-207 220.5t-75.5 296zM1053 668q0 -159 66 -236.5t163 -77.5 q96 0 161.5 77.5t65.5 236.5q0 158 -60 240.5t-167 82.5q-108 0 -168.5 -82.5t-60.5 -240.5zM1174 668q0 26 0.5 43.5t3.5 47t10.5 50t18.5 41t30.5 31t44.5 10.5t44 -10.5t30 -31t18.5 -41t10 -49.5t3.5 -47.5t1 -43.5q0 -30 -1 -52.5t-7 -55t-17 -53.5t-32 -36.5 t-50 -15.5q-37 0 -60.5 21t-33 59t-12 66t-2.5 67zM1544 365h41l-39 -105l49 -20l68 129v112h-119v-116zM1735 522q15 -76 77.5 -122t141.5 -46q87 0 148 52.5t61 140.5q0 103 -105 145q47 24 70.5 53.5t23.5 77.5q0 76 -58.5 122t-133.5 46q-68 0 -120.5 -34.5t-80.5 -96.5 l105 -43q30 76 92 76q33 0 54.5 -23.5t21.5 -56.5q0 -82 -140 -82h-20v-90q28 2 55.5 -1.5t54.5 -13.5t43.5 -32t16.5 -53q0 -37 -24.5 -62.5t-61.5 -25.5q-80 0 -107 92zM2212 485q24 -60 82 -95.5t123 -35.5q98 0 161.5 68t63.5 162q0 84 -52 147.5t-136 63.5 q-66 0 -119 -47v129h245v104h-344l-10 -328l109 -26q7 29 29.5 46t52.5 17q48 0 73 -35.5t25 -85.5q0 -48 -26.5 -82t-73.5 -34q-34 0 -59 21t-36 54zM2826 365h117v307q35 51 90 51q17 0 27.5 -6t14.5 -21t4.5 -23t0.5 -28v-280h117v307q35 51 90 51q17 0 27.5 -6t14.5 -21 t4.5 -23t0.5 -28v-280h117v321q0 62 -35 96.5t-90 34.5q-64 0 -137 -59q-33 59 -113 59q-67 0 -133 -55v47h-117v-444zM3594 0v1343h74v-155l184 153v-94q-55 -48 -186 -153v-176l186 153v-90l-184 -160v-174l184 154v-96q-70 -61 -186 -154v-174l186 153v-92l-184 -159 v-175l184 156v-96q-90 -74 -133 -113l-18 -13.5t-22.5 -19.5t-12.5 -18h-72zM4131 365h65v303h265v-303h63v618h-63v-260h-265v260h-65v-618zM4612 526q15 -82 71.5 -129t139.5 -47q79 0 131.5 48t52.5 128q0 51 -22.5 87.5t-56 55t-73 36t-73 31t-56 39t-22.5 61.5 q0 45 33.5 75.5t77.5 30.5q55 0 83.5 -33t45.5 -94l57 19q-18 71 -65.5 116t-116.5 45q-76 0 -127 -47t-51 -121q0 -58 31 -95t75.5 -55.5t88.5 -35t75 -46.5t31 -77q0 -49 -35.5 -82t-83.5 -33q-56 0 -96 40t-53 98zM5057 928h165v-563h66v563h166v55h-397v-55zM5595 465 q57 -115 168 -115q91 0 143 66t52 159q0 84 -46 145.5t-128 61.5q-72 0 -115 -51l16 197h230v55h-283l-23 -328l52 -10q54 82 116 82q48 0 81.5 -41t33.5 -115q0 -66 -31.5 -114.5t-95.5 -48.5q-41 0 -72 25t-47 65zM6042 674q0 -59 7.5 -109.5t26.5 -102.5t59.5 -82 t98.5 -30t98.5 30t60 82t27 102.5t7.5 109.5t-7.5 109.5t-27 101.5t-60 80.5t-98.5 29.5q-192 0 -192 -321zM6101 674q0 266 133 266t133 -266t-133 -266t-133 266z" />
<glyph unicode="U" horiz-adv-x="5371" d="M172 670q0 -139 54 -265.5t145 -218t217.5 -146t265.5 -54.5h37v1366h-37q-111 0 -215.5 -34.5t-188 -98t-146.5 -147.5t-97.5 -187.5t-34.5 -214.5zM246 670q0 119 44.5 228.5t121 190t182 130.5t223.5 57v-1215q-157 9 -288.5 92.5t-207 220.5t-75.5 296zM1008 666 q0 -159 66.5 -235.5t162.5 -76.5q97 0 163 76.5t66 235.5t-60.5 241t-168.5 82q-107 0 -168 -82t-61 -241zM1130 666q0 26 0.5 43.5t3.5 47.5t10 50t18 40.5t30.5 31t44.5 10.5t44.5 -10.5t31 -31t18.5 -41t10 -49.5t4 -47.5t1 -43.5q0 -211 -109 -211q-107 0 -107 211z M1501 365h41l-39 -107l49 -20l66 131v112h-117v-116zM1683 508h244v-143h123v143h76v96h-76v377h-145l-222 -385v-88zM1804 604l121 221h2v-221h-123zM2167 483q26 -59 84 -94t123 -35q98 0 161.5 68t63.5 160q0 85 -53 148t-136 63q-66 0 -120 -45v129h247v104h-344 l-10 -330l107 -24q9 28 32 44.5t52 16.5q48 0 73 -35t25 -84t-26.5 -82.5t-73.5 -33.5q-69 0 -95 75zM2783 365h117v305q34 53 90 53q17 0 27.5 -6.5t14.5 -21.5t4.5 -23.5t0.5 -28.5v-278h117v305q34 53 90 53q16 0 26 -6t14 -18.5t4.5 -21.5t0.5 -27v-7v-278h119v319 q0 64 -35 98.5t-90 34.5q-61 0 -137 -61q-34 61 -113 61q-67 0 -133 -55v45h-117v-442zM3561 0v1343h74v-155l185 153v-96q-20 -17 -85.5 -70.5t-99.5 -82.5v-174l185 153v-92l-185 -158v-176l185 156v-96q-9 -8 -185 -154v-176l185 153v-92l-185 -157v-177l185 156v-94 q-18 -15 -64 -53t-70 -60l-18 -13.5t-22.5 -19.5t-12.5 -18h-72zM4094 467q62 -117 188 -117q86 0 138.5 50t52.5 135q0 117 -109 155q49 25 70.5 58.5t21.5 87.5q0 67 -43.5 112t-117.5 45q-105 0 -176 -98l45 -33q51 76 118 76q53 0 83 -29.5t30 -81.5q0 -50 -33.5 -80 t-99.5 -30h-51v-60l41 5q155 0 155 -136q0 -56 -33.5 -88t-91.5 -32q-46 0 -77.5 23t-59.5 67zM4549 672q0 -59 7.5 -109.5t27 -101.5t59.5 -81t98 -30t99 30t60.5 81t27.5 101.5t8 109.5q0 46 -4.5 86.5t-17.5 85t-33.5 76.5t-56.5 52.5t-83 20.5t-82 -20.5t-55.5 -52.5 t-33.5 -76.5t-17 -85t-4 -86.5zM4610 672q0 266 131 266q133 0 133 -266t-133 -266q-131 0 -131 266zM5046 790q34 -34 84 -34t84.5 34.5t34.5 83.5q0 50 -34.5 84.5t-84.5 34.5t-85 -35q-34 -34 -34 -81q1 -53 35 -87zM5050 874q0 34 23 57t57 23q33 0 56.5 -23.5 t23.5 -56.5t-23.5 -56t-56.5 -23q-34 0 -57 22.5t-23 56.5z" />
<glyph unicode="V" horiz-adv-x="4012" d="M184 668q0 -111 34.5 -215t98 -187.5t147 -147t187.5 -98t215 -34.5h37v1366h-37q-138 0 -264.5 -54.5t-218 -146t-145.5 -218t-54 -265.5zM258 668q0 119 45 228.5t121.5 190.5t182 131.5t222.5 57.5v-1215q-156 9 -287.5 92t-207.5 219.5t-76 295.5zM1022 666 q0 -159 66.5 -235.5t162.5 -76.5q98 0 164 76.5t66 235.5t-61 241t-169 82q-107 0 -168 -82t-61 -241zM1145 666q0 42 2 69t11 68.5t32.5 63.5t60.5 22q25 0 44.5 -10.5t31 -31t18.5 -41t10 -49.5t4 -47.5t1 -43.5q0 -211 -109 -211q-29 0 -50 15.5t-31.5 36.5t-16.5 53.5 t-7 54.5t-1 51zM1516 362h40l-38 -104l49 -20l65 131v112h-116v-119zM1706 483q24 -59 82 -94t123 -35q98 0 161.5 68t63.5 160q0 86 -52 148.5t-136 62.5q-68 0 -119 -45v126h246v107h-344l-11 -330l109 -24q7 28 30 44.5t52 16.5q48 0 73 -35t25 -84t-26.5 -83.5 t-73.5 -34.5q-68 0 -94 75zM2169 666q0 -159 65.5 -235.5t161.5 -76.5q98 0 164 76.5t66 235.5t-61 241t-169 82q-107 0 -167 -82t-60 -241zM2290 666q0 32 1 53.5t6.5 57t16 57t31.5 38.5t51 17q25 0 44.5 -10.5t31 -31t18.5 -41t10 -49.5t4 -47.5t1 -43.5 q0 -211 -109 -211q-29 0 -50 15.5t-31.5 36.5t-16.5 53.5t-7 54.5t-1 51zM2798 362h116v308q37 53 90 53q16 0 26 -6t14 -18.5t4.5 -21.5t0.5 -27v-7v-281h119v308q37 53 90 53q16 0 26 -6t14 -18.5t4.5 -21.5t0.5 -27v-7v-281h119v322q0 64 -35 98.5t-90 34.5 q-61 0 -137 -61q-34 61 -113 61q-67 0 -133 -55v45h-116v-445zM3574 0v1343h76v-155l182 153v-96q-72 -62 -185 -153v-174l185 153v-92l-182 -160v-174l182 156v-99q-34 -29 -99.5 -82.5t-85.5 -70.5v-174l185 153v-92l-182 -160v-174l182 156v-96q-19 -17 -64 -54.5 t-69 -58.5q-3 -2 -17 -12.5t-23 -19.5t-12 -17h-73z" />
<glyph unicode="W" horiz-adv-x="5242" d="M190 670q0 -139 54 -265.5t145 -217.5t217.5 -145t265.5 -54h37v1364h-37q-139 0 -265.5 -54t-217.5 -145t-145 -217.5t-54 -265.5zM264 670q0 159 76.5 295.5t207.5 219.5t288 93v-1217q-156 9 -287.5 92.5t-208 220.5t-76.5 296zM1040 668q0 -159 67 -236.5t163 -77.5 q97 0 163 77.5t66 236.5q0 158 -61 240.5t-168 82.5t-168.5 -82.5t-61.5 -240.5zM1161 668q0 39 2.5 67.5t12 69t33.5 62.5t61 22q25 0 44.5 -10.5t30.5 -31t18.5 -40.5t10 -49.5t3.5 -47t1 -42.5q0 -213 -108 -213q-109 0 -109 213zM1534 365h41l-39 -105l47 -20l68 129 v112h-117v-116zM1745 877h254l-234 -512h138l241 548v68h-399v-104zM2185 668q0 -159 67 -236.5t163 -77.5q97 0 163 77.5t66 236.5q0 158 -61 240.5t-168 82.5t-168.5 -82.5t-61.5 -240.5zM2306 668q0 39 2.5 67.5t12 69t33.5 62.5t61 22q25 0 44.5 -10.5t30.5 -31 t18.5 -40.5t10 -49.5t3.5 -47t1 -42.5q0 -213 -108 -213q-109 0 -109 213zM2814 365h119v307q35 51 88 51q17 0 27.5 -6.5t14.5 -21.5t4.5 -23.5t0.5 -28.5v-278h117v307q40 51 90 51q17 0 27.5 -6.5t14.5 -21.5t4.5 -23.5t0.5 -28.5v-278h117v321q0 62 -35 96.5t-88 34.5 q-70 0 -138 -61q-33 61 -114 61q-65 0 -131 -55v47h-119v-444zM3580 0v1343h74v-155l184 153v-94q-79 -69 -184 -153v-176l184 153v-92l-184 -158v-176l184 156v-96q-94 -82 -184 -154v-176l184 153v-90l-184 -159v-175l184 154v-94q-90 -74 -133 -113q-4 -4 -17 -14 t-22 -19t-12 -18h-74zM4065 903l101 8v-491h-90v-55h243v55h-88v563h-53l-113 -43v-37zM4389 674q0 -46 4 -87t17 -86t33.5 -77t56.5 -53t83 -21q58 0 98 30t59.5 81.5t27.5 102.5t8 110q0 58 -8 109t-27.5 102t-59.5 80.5t-98 29.5q-47 0 -83 -20.5t-56.5 -52.5 t-33.5 -76.5t-17 -85t-4 -86.5zM4450 674q0 266 133 266q134 0 134 -266t-134 -266q-133 0 -133 266zM4852 877q0 -50 34.5 -84.5t83.5 -34.5q50 0 84.5 35t34.5 84t-34.5 83.5t-84.5 34.5t-84 -34.5t-34 -83.5zM4891 877q0 33 23 56t56 23q34 0 57 -23t23 -56 q0 -34 -23 -57t-57 -23q-33 0 -55 23t-24 57z" />
<glyph unicode="X" horiz-adv-x="6262" d="M190 668q0 -138 54.5 -264.5t146 -218t218 -145.5t265.5 -54h37v1366h-37q-139 0 -265.5 -54.5t-218 -146t-146 -218t-54.5 -265.5zM264 668q0 159 76.5 296t208.5 220t289 92v-1215q-157 9 -289 92t-208.5 219.5t-76.5 295.5zM1034 666q0 -158 66.5 -235t163.5 -77 t163 76.5t66 235.5t-61 241t-168 82t-168.5 -82t-61.5 -241zM1157 666q0 26 0.5 43.5t3.5 47.5t10 50t18 40.5t30.5 31t44.5 10.5t44.5 -10.5t30.5 -31t18.5 -41t10.5 -50t3.5 -47t0.5 -43.5q0 -38 -2.5 -66t-12 -65.5t-33 -58.5t-60.5 -21q-107 0 -107 211zM1528 365h41 l-39 -107l49 -20l66 131v112h-117v-116zM1716 528q0 -68 56 -121t157 -53q109 0 164 59t55 124q0 46 -28 82t-76 69q40 31 62 62t22 73q0 74 -61.5 120t-137.5 46q-77 0 -135.5 -48.5t-58.5 -123.5q0 -81 90 -129q-48 -23 -78.5 -65.5t-30.5 -94.5zM1837 528q0 38 26 66 t66 43q40 -12 68 -38t28 -64q0 -37 -29.5 -58.5t-66.5 -21.5t-64.5 21.5t-27.5 51.5zM1853 827q0 28 23.5 45t52.5 17q34 0 57 -19.5t23 -46.5q0 -31 -17.5 -50.5t-49.5 -37.5q-89 37 -89 92zM2179 666q0 -159 66.5 -235.5t162.5 -76.5q98 0 164 76.5t66 235.5t-61 241 t-169 82q-107 0 -168 -82t-61 -241zM2302 666q0 42 2 69t11 68.5t32.5 63.5t60.5 22q25 0 44.5 -10.5t31 -31t18.5 -41t10 -49.5t4 -47.5t1 -43.5q0 -211 -109 -211q-29 0 -50 15.5t-31.5 36.5t-16.5 53.5t-7 54.5t-1 51zM2810 365h117v305q34 53 90 53q16 0 26 -6t14 -18.5 t4.5 -21.5t0.5 -27v-7v-278h119v305q34 53 90 53q16 0 26 -6t14 -18.5t4.5 -21.5t0.5 -27v-7v-278h118v319q0 64 -34.5 98.5t-89.5 34.5q-62 0 -138 -61q-34 61 -112 61q-67 0 -133 -55v45h-117v-442zM3580 0v1343h76v-155l184 153v-96q-110 -92 -186 -153v-174l186 153v-92 l-184 -160v-174l184 156v-99q-110 -92 -186 -153v-174l186 153v-92l-184 -160v-174l184 156v-96q-90 -74 -133 -113q-2 -1 -13.5 -9.5t-17.5 -13t-13 -12.5t-9 -14h-74zM4106 365h66v303h264v-303h66v618h-66v-260h-264v260h-66v-618zM4600 365h65v618h-65v-618zM4727 928 h166v-563h65v563h166v55h-397v-55zM5286 928h280l-235 -563h74l225 571v47h-344v-55zM5712 674q0 -59 7.5 -109.5t26.5 -102.5t59.5 -82t98.5 -30t98.5 30t60 82t27 102.5t7.5 109.5q0 58 -7.5 108.5t-27 101.5t-60 81t-98.5 30t-98.5 -30t-59.5 -81.5t-26.5 -101.5 t-7.5 -108zM5771 674q0 266 133 266q134 0 134 -266t-134 -266q-133 0 -133 266z" />
<glyph unicode="Y" horiz-adv-x="6928" d="M186 670q0 -139 54.5 -265.5t146 -218t218 -146t265.5 -54.5h37v1366h-37q-139 0 -265.5 -54t-218 -145.5t-146 -218t-54.5 -264.5zM260 670q0 159 76.5 295.5t208.5 219t289 91.5v-1215q-157 9 -289 92.5t-208.5 220.5t-76.5 296zM1034 666q0 -158 66.5 -235t163.5 -77 t163 76.5t66 235.5t-61 241t-168 82t-168.5 -82t-61.5 -241zM1157 666q0 26 0.5 43.5t3.5 47.5t10 50t18 40.5t30.5 31t44.5 10.5t44.5 -10.5t30.5 -31t18.5 -41t10.5 -50t3.5 -47t0.5 -43.5q0 -38 -2.5 -66t-12 -65.5t-33 -58.5t-60.5 -21q-107 0 -107 211zM1528 365h41 l-39 -107l49 -20l66 131v112h-117v-116zM1716 528q0 -68 56 -121t157 -53q109 0 164 59t55 124q0 46 -28 82t-76 69q40 31 62 62t22 73q0 74 -61.5 120t-137.5 46q-77 0 -135.5 -48.5t-58.5 -123.5q0 -81 90 -129q-48 -23 -78.5 -65.5t-30.5 -94.5zM1837 528q0 38 26 66 t66 43q40 -12 68 -38t28 -64q0 -37 -29.5 -58.5t-66.5 -21.5t-64.5 21.5t-27.5 51.5zM1853 827q0 28 23.5 45t52.5 17q34 0 57 -19.5t23 -46.5q0 -31 -17.5 -50.5t-49.5 -37.5q-89 37 -89 92zM2179 666q0 -159 66.5 -235.5t162.5 -76.5q98 0 164 76.5t66 235.5t-61 241 t-169 82q-107 0 -168 -82t-61 -241zM2302 666q0 42 2 69t11 68.5t32.5 63.5t60.5 22q25 0 44.5 -10.5t31 -31t18.5 -41t10 -49.5t4 -47.5t1 -43.5q0 -211 -109 -211q-29 0 -50 15.5t-31.5 36.5t-16.5 53.5t-7 54.5t-1 51zM2810 365h117v305q34 53 90 53q16 0 26 -6t14 -18.5 t4.5 -21.5t0.5 -27v-7v-278h119v305q34 53 90 53q16 0 26 -6t14 -18.5t4.5 -21.5t0.5 -27v-7v-278h118v319q0 64 -34.5 98.5t-89.5 34.5q-62 0 -138 -61q-34 61 -112 61q-67 0 -133 -55v45h-117v-442zM3576 0v1343h76v-155l184 153v-96q-30 -26 -92.5 -77t-93.5 -76v-174 l186 153v-92l-184 -160v-174l184 156v-96q-15 -13 -186 -156v-174l186 153v-92l-184 -157v-177l184 156v-94q-17 -14 -63 -52.5t-70 -60.5q-4 -3 -18.5 -13.5t-23 -19.5t-11.5 -18h-74zM4108 365h66v303h264v-303h66v618h-66v-260h-264v260h-66v-618zM4590 526 q17 -82 72.5 -129t138.5 -47q80 0 132 48t52 128q0 60 -31 100t-75.5 59.5t-88.5 36.5t-75 44.5t-31 69.5q0 45 32.5 75.5t75.5 30.5q55 0 83.5 -33t45.5 -94l60 19q-18 71 -66.5 116t-118.5 45q-75 0 -126.5 -47t-51.5 -121q0 -58 31 -95t76 -55.5t89.5 -35t75.5 -46.5 t31 -77q0 -49 -35 -82t-83 -33q-56 0 -97.5 40.5t-52.5 97.5zM5036 928h166v-563h65v563h166v55h-397v-55zM5599 903l101 8v-491h-91v-55h244v55h-88v563h-51l-115 -43v-37zM5925 674q0 -59 7.5 -109.5t26.5 -102.5t59.5 -82t98.5 -30t98.5 30t60 82t27 102.5t7.5 109.5 t-7.5 109.5t-27 101.5t-60 80.5t-98.5 29.5q-192 0 -192 -321zM5984 674q0 266 133 266t133 -266t-133 -266t-133 266zM6382 674q0 -46 4 -87t17 -86t33.5 -77t56.5 -53t83 -21q58 0 98 30t59.5 81.5t27.5 102.5t8 110q0 58 -8 109t-27.5 102t-59.5 80.5t-98 29.5 q-47 0 -83 -20.5t-56.5 -52.5t-33.5 -76.5t-17 -85t-4 -86.5zM6443 674q0 266 133 266t133 -266t-133 -266t-133 266z" />
<glyph unicode="Z" horiz-adv-x="4024" d="M180 668q0 -139 54.5 -265.5t146 -217.5t218 -145t265.5 -54h37v1364h-37q-139 0 -265.5 -54t-218 -145t-146 -217.5t-54.5 -265.5zM254 668q0 119 45 228.5t121.5 190.5t182.5 131.5t224 57.5v-1217q-157 10 -288.5 93.5t-208 220t-76.5 295.5zM1083 362h314v99h-97v518 h-88l-129 -47v-68h95v-403h-95v-99zM1464 258l49 -20l68 129v112h-117v-117h39zM1622 666q0 -159 66.5 -236.5t162.5 -77.5q97 0 163.5 77.5t66.5 236.5t-61.5 241t-168.5 82t-168 -82t-61 -241zM1743 666q0 26 0.5 43.5t3.5 47t10.5 50t18.5 41t30.5 31t44.5 10.5 t44.5 -10.5t31 -31t18.5 -41t10 -49.5t4 -47.5t1 -43.5q0 -211 -109 -211q-108 0 -108 211zM2116 666q0 -159 66 -236.5t163 -77.5q96 0 162.5 77.5t66.5 236.5t-61 241t-168 82t-168 -82t-61 -241zM2236 666q0 25 1 43.5t4 47.5t10 49.5t18.5 41t31 31t44.5 10.5 t44.5 -10.5t31 -31t18.5 -41t10 -49.5t4 -47.5t1 -43.5q0 -211 -109 -211t-109 211zM2761 362h116v308q35 51 91 51q17 0 27.5 -6t14.5 -21t4.5 -23t0.5 -28v-281h116v308q35 51 91 51q17 0 27.5 -6t14.5 -21t4.5 -23t0.5 -28v-281h116v322q0 62 -35 96.5t-90 34.5 q-64 0 -137 -59q-33 59 -112 59q-68 0 -134 -55v47h-116v-445zM3570 -2v1343h75v-153l185 153v-96q-42 -37 -187 -153v-174l187 153v-92l-185 -160v-174l185 156v-99q-85 -71 -187 -153v-174l187 153v-92l-185 -160v-174l185 156v-96q-90 -74 -133 -113q-4 -4 -18.5 -14 t-23.5 -19t-12 -18h-73z" />
<glyph unicode="[" horiz-adv-x="2742" d="M80 1053h272l-252 -551h150l260 592v71h-430v-112zM598 502h336v106h-103v557h-94l-139 -51v-72h100v-434h-100v-106zM983 1053h272l-251 -551h149l260 592v71h-430v-112zM1501 502h336v106h-102v557h-95l-139 -51v-72h101v-434h-101v-106zM1892 834q0 -35 25.5 -59.5 t60.5 -24.5t59.5 24.5t24.5 59.5q0 34 -24.5 59t-59.5 25t-60.5 -25t-25.5 -59zM2159 834q0 -35 24.5 -59.5t59.5 -24.5t59.5 24.5t24.5 59.5q0 34 -24.5 59t-59.5 25t-59.5 -25t-24.5 -59zM2423 834q0 -35 24.5 -59.5t59.5 -24.5t59.5 24.5t24.5 59.5q0 34 -24.5 59 t-59.5 25t-59.5 -25t-24.5 -59z" />
<glyph unicode="\" horiz-adv-x="5412" />
<glyph unicode="]" horiz-adv-x="3801" d="M86 1055h272l-252 -551h150l260 592v71h-430v-112zM547 829q0 -89 21 -155.5t56.5 -104.5t78.5 -56.5t92 -18.5q35 0 72 14.5t70.5 42t55 74t21.5 104.5q0 53 -19.5 96t-50.5 67.5t-65 37t-66 12.5q-57 0 -123 -39q-2 59 29 110.5t86 51.5q33 0 53.5 -14.5t36.5 -44.5 l111 55q-33 53 -87.5 85t-115.5 32q-111 0 -183.5 -89.5t-72.5 -259.5zM686 778q55 51 109 51q42 0 65 -32.5t23 -75.5q0 -49 -25.5 -82t-73.5 -33q-29 0 -50 17t-31 44.5t-14 55t-3 55.5zM1079 682q0 -75 60.5 -131.5t169.5 -56.5q62 0 109.5 19.5t73.5 50t39 62.5t13 62 q0 91 -112 164q43 32 66.5 66t23.5 81q0 79 -65.5 129t-147.5 50q-84 0 -146.5 -52t-62.5 -135q0 -88 96 -139q-52 -24 -84.5 -69.5t-32.5 -100.5zM1210 682q0 41 28.5 70.5t70.5 46.5q43 -14 73.5 -42.5t30.5 -70.5q0 -40 -31.5 -62t-72.5 -22q-40 0 -69.5 23.5t-29.5 56.5 zM1227 1001q0 30 26 49t56 19q36 0 61 -21t25 -49q0 -33 -19.5 -54.5t-54.5 -39.5q-94 37 -94 96zM1628 836q0 -35 24.5 -60.5t59.5 -25.5t59.5 25.5t24.5 60.5q0 34 -24.5 59t-59.5 25t-59.5 -25t-24.5 -59zM1892 836q0 -35 25.5 -60.5t60.5 -25.5t59.5 25.5t24.5 60.5 q0 34 -24.5 59t-59.5 25t-60.5 -25t-25.5 -59zM2159 836q0 -35 24.5 -60.5t59.5 -25.5t59.5 25.5t24.5 60.5q0 34 -24.5 59t-59.5 25t-59.5 -25t-24.5 -59zM2419 504h209q144 0 220.5 93t76.5 239q0 152 -82.5 241.5t-262.5 89.5h-161v-663zM2552 616v439h51q94 0 139 -50.5 t45 -154.5q0 -234 -170 -234h-65zM3006 836q0 -35 25.5 -60.5t60.5 -25.5t59.5 25.5t24.5 60.5q0 34 -24.5 59t-59.5 25t-60.5 -25t-25.5 -59zM3273 836q0 -35 24.5 -60.5t59.5 -25.5t60.5 25.5t25.5 60.5q0 34 -25.5 59t-60.5 25t-59.5 -25t-24.5 -59zM3537 836 q0 -35 25.5 -60.5t60.5 -25.5t59.5 25.5t24.5 60.5q0 34 -24.5 59t-59.5 25t-60.5 -25t-25.5 -59z" />
<glyph unicode="_" horiz-adv-x="1282" d="M129 -2v143h1024v-143h-1024z" />
<glyph unicode="a" horiz-adv-x="1802" d="M57 821q0 -172 67.5 -329t181 -270.5t270.5 -181t329 -67.5t329 67.5t270.5 181t181 270.5t67.5 329t-67.5 329t-181 270.5t-270.5 181t-329 67.5t-329 -67.5t-270.5 -181t-181 -270.5t-67.5 -329zM152 821q0 153 59.5 292.5t160.5 240.5t240.5 161t292.5 60t292.5 -60 t240.5 -161t161 -240.5t60 -292.5t-60 -292.5t-161 -240.5t-240.5 -160.5t-292.5 -59.5t-292.5 59.5t-240.5 160.5t-160.5 240.5t-59.5 292.5zM238 774v94h620v613h94v-613h621v-94h-1335zM471 475h868v92h-868v-92zM705 188h401v93h-401v-93z" />
<glyph unicode="b" horiz-adv-x="1783" d="M51 819q0 -171 67 -327.5t180 -269.5t269.5 -180t327.5 -67t327.5 67t269.5 180t180 269.5t67 327.5t-67 327.5t-180 269.5t-269.5 180t-327.5 67t-327.5 -67t-269.5 -180t-180 -269.5t-67 -327.5zM143 819q0 152 59.5 291t160.5 239.5t240 160t292 59.5t292 -59.5 t240 -160t160.5 -239.5t59.5 -291q0 -122 -38 -236.5t-108 -207t-162.5 -162t-207 -107.5t-236.5 -38t-236.5 38t-207 107.5t-162.5 162t-108 207t-38 236.5zM602 319h115v445h446v110h-446v310h510v108h-625v-973z" />
<glyph unicode="c" horiz-adv-x="1781" d="M51 817q0 -171 66.5 -327.5t179.5 -269.5t269.5 -180t328.5 -67q171 0 327.5 67t269.5 180t180 269.5t67 327.5q0 172 -67 328.5t-180 269.5t-269.5 179.5t-327.5 66.5q-230 0 -424 -113t-307 -307t-113 -424zM143 817q0 153 59.5 292.5t160 240t240 160t292.5 59.5 t291.5 -59.5t239 -160t160 -240t59.5 -292.5q0 -152 -59.5 -291t-160 -239t-239 -159.5t-291.5 -59.5t-292.5 59.5t-240 159.5t-160 238.5t-59.5 291.5zM371 352h102v416h352v100h-352v289h401v100h-503v-905zM946 352h103v371h233q114 0 175 70.5t61 197.5q0 126 -61 196 t-175 70h-336v-905zM1049 823v334h198q168 0 168 -166q0 -168 -168 -168h-198z" />
<glyph unicode="d" horiz-adv-x="1974" d="M49 1563l901 -1543q13 -22 41 -22t41 22l891 1543q8 13 8 25t-8 24q-14 24 -41 24h-1790q-29 0 -43 -24q-8 -13 -8 -25t8 -24zM92 1540h1790q-28 0 -41 23q-16 26 0 49l-891 -1542q14 24 41 24t41 -24l-899 1542q13 -23 0 -49q-13 -23 -41 -23zM836 465h102v532h313v97 h-313v221h387v98h-489v-948z" />
<glyph unicode="e" horiz-adv-x="1705" d="M33 815q0 73 18 176q6 24 15 51q50 167 157 299q7 8 16.5 22t12.5 17q15 15 31 23q112 110 260 171.5t313 61.5q210 0 377 -81.5t278 -225.5q42 -51 76 -121l2 -4q88 -178 88 -389q0 -168 -65 -320t-175 -262.5t-262 -175.5t-319 -65q-82 0 -170 16q-17 4 -43.5 12 t-32.5 9q-254 81 -415.5 296.5t-161.5 489.5zM53 815q0 -204 99 -385q5 3 153 86l-10 137v2l20 144l4 6l27 22q-22 26 -43 62q-49 80 -65 149q-86 -94 -142 -112q-21 -5 -35 2q-8 -49 -8 -113zM160 414q137 -236 387 -340q-4 12 -4 16q0 45 106 64q-86 111 -102 204l-6 -6 q-1 -3 -5.5 -3.5t-7.5 1.5l-131 76l-2 2l-84 68q-143 -79 -151 -82zM254 1057q12 -56 40.5 -114t65.5 -101l17 14l6 2l186 14q1 0 4.5 -1t4.5 -1l18 -20q5 21 29 82q50 122 143 225l-102 152q-2 1 -2 5t2 5l12 27q-60 10 -117 10q-84 0 -162 -21q-9 -50 -39 -111.5 t-59 -103.5q-41 -55 -47 -63zM326 1417q22 3 47 0q26 -3 30 -37v-24q20 6 56 12q52 7 103 7q64 0 126 -11l12 27l5 4l190 90h6l23 -2q2 82 2 129v2q-23 2 -70 2q-149 0 -285.5 -52.5t-244.5 -146.5zM565 377q0 -28 27.5 -91t79.5 -130q61 8 147 8q118 0 203 -29q20 24 31 35 q74 93 114 178v2l-80 180q-109 -19 -205 -21h-41q-65 0 -97 5l-42 8h-2l-43 -49zM612 831l27 -26l2 -4l86 -240q0 -8 -2 -10l-8 -10q57 -10 90 -11q18 -1 36 0q113 0 242 21l35 121v2l94 155q-26 176 -122 275q-3 4 -6 6.5t-6 5.5l-3 2l-16 -16q-6 -2 -8 -2l-133 14h-2 l-134 31q-58 -64 -108 -151.5t-64 -162.5zM944 1481l33 -2l4 -2l72 -43l133 -91q4 -4 4 -12l-6 -10q18 2 36 2q73 0 156 -35q-18 50 -18 80q0 26 20 37q21 7 43 -4q-191 185 -475 211q0 -51 -2 -131zM1042 129q58 -27 58 -59q0 -12 -6 -21q131 39 242 123t188 199 q-25 20 -80 61l-135 -57l-119 -29q-53 -116 -148 -217zM1092 1133q4 -2 14 -15q100 -100 129 -282l80 -19h2l102 -49q36 49 64 111t35 116q-38 51 -82 148q-3 6 -13 28.5t-20.5 46t-18.5 44.5q-46 22 -106 35q-34 7 -63 7q-22 0 -39 -4l-58 -141l-4 -2zM1438 760l16 -6 q6 -6 6 -11l-2 -145l-4 -149q21 -15 40 -29.5t28.5 -22t11.5 -8.5q123 194 123 426q0 60 -10 135q-8 -38 -40.5 -32.5t-72.5 55.5q-1 -4 -14 -55q-28 -87 -82 -158z" />
<glyph unicode="f" horiz-adv-x="1787" d="M74 417v19v1200h440v-1200h754l-582 477q-121 127 -121 286q0 69 23 144q34 117 125 195t221 98h790v-458h-667l579 -457q4 -4 10.5 -12t24.5 -34t32.5 -53.5t29 -69t21.5 -82.5q3 -24 3 -51q0 -20 -2 -43q-5 -52 -24 -102q-26 -68 -71.5 -121.5t-92.5 -81.5t-90.5 -45.5 t-70.5 -22.5l-28 -5h-938q-7 1 -19.5 3t-48 12.5t-68 24.5t-71 41t-65.5 60t-46.5 76t-28 80.5t-13.5 70t-6 51.5z" />
<glyph unicode="g" horiz-adv-x="1695" d="M43 858q0 -162 60.5 -309t175.5 -262t261 -175.5t308 -60.5q163 0 309.5 60.5t261.5 175.5t175.5 262t60.5 309t-60.5 308t-175.5 261t-261.5 175.5t-309.5 60.5q-162 0 -308 -60.5t-261 -175.5t-175.5 -261t-60.5 -308zM84 858q0 155 61 296.5t163 243.5t243.5 163 t296.5 61t297 -61t244.5 -163.5t163.5 -243.5t61 -296t-61 -297t-163.5 -244.5t-244.5 -163.5t-297 -61t-296 61t-243.5 163.5t-163.5 244.5t-61 297zM129 938l43 4l-27 33l33 -27l4 43l4 -43l33 27l-26 -33l43 -4l-43 -4l26 -33l-33 27l-4 -43l-4 43l-33 -27l27 33z M240 481l10 -14l53 20l-37 -45l10 -12l76 23l-10 14l-55 -21v3l39 43l-11 14l-55 -23v2l39 43l-10 15zM270 858q0 157 78 290t211.5 210.5t290.5 77.5q156 0 289 -77.5t210.5 -210.5t77.5 -290q0 -117 -46 -224.5t-123.5 -185t-184 -123.5t-223.5 -46q-157 0 -290.5 77.5 t-211.5 211t-78 290.5zM316 912q-1 -7 -1 -13q0 -11 3 -19q3 -14 14 -46q8 -19 45 -56q7 -14 21.5 -29t19.5 -22v8q1 11 6 28.5t6 24.5q2 13 12 29.5t13 28.5q7 26 7 50q0 20 -5 38q-6 -13 -22 -34.5t-21 -39.5q-8 -24 -8 -49v-16q-9 18 -27 45q-37 53 -49 114 q-12 -22 -14 -42zM328 367q21 -21 43 -9l-13 13q-10 -6 -20 4q-14 15 2 31l39 -41q14 11 16 28t-10 29t-27 11t-26 -13q-16 -14 -16 -29q0 -12 12 -24zM330 778q-1 -10 -1 -19q0 -69 60 -112q43 -33 119 -53v2q-8 21 -14 53q-2 12 1 31.5t1 32.5q-5 42 -31 84 q-12 -32 -12 -74q0 -32 10 -61q0 -2 1 -5t1 -4q-15 15 -27 25q-14 12 -40.5 30.5t-43.5 34.5t-24 35zM332 1376l43 -51q12 -15 28.5 -15t30.5 13q18 16 18 32q0 13 -12 27l-43 52l-14 -13l39 -47q22 -22 2 -39q-19 -14 -39 6l-39 48zM348 414q16 12 27 -2q13 -10 0 -27z M348 1010q2 -34 12 -54q8 -17 16 -43l7 -26q0 6 4 10q9 17 29 41q7 8 20.5 20.5t20.5 20.5q8 12 37 76q-37 -12 -64 -43q-16 -16 -29 -37q-1 -5 -4 -12t-4 -9v9q-2 14 -2.5 37t-1.5 28q-1 8 -1 20q0 31 9 91q-27 -23 -35 -42.5t-12 -52.5q-2 -1 -2 -16v-18zM367 330l12 -11 l51 56l-12 12zM379 618q47 -86 121 -98q17 -4 40 -4q20 0 45 3q53 7 58 7q-11 15 -27 33q-11 12 -17.5 33t-8.5 24q-13 23 -64 74q1 -11 1.5 -29.5t3 -30.5t8.5 -26q15 -34 47 -59q-10 4 -29 12t-31.5 12t-23.5 4q-27 -1 -48.5 4t-30 9.5t-23.5 16t-21 15.5zM395 305l15 -10 l63 82l-12 10zM416 1047q2 2 5.5 4.5t4.5 3.5q20 17 37 24q9 6 26.5 13.5t26.5 13.5q11 7 31 27q3 3 12 10t12 10h-6q-26 0 -65 -14q-30 -17 -37 -23l-8 -8l2 2q5 13 15 29.5t11 19.5q1 5 4 16.5t5 18t6 16.5t10 19.5t14 19.5q-36 -12 -78 -65q-1 -1 -16 -60 q-3 -14 -6.5 -43t-5.5 -34zM426 397l12 -12l11 12l-13 11zM442 1432l39 -66l15 8l-25 39q-10 16 4 25q11 7 21 -6l24 -41l15 8l-23 37q-9 18 4 26q12 7 23 -10l22 -39l14 10l-26 43q-15 24 -35 11q-14 -8 -14 -23q-13 7 -25 -2q-14 -8 -14 -22l-6 10zM472 260q3 -15 20 -22 q25 -14 40 4l-12 8q-10 -8 -22 -2q-18 12 -6 31l47 -29q11 13 8.5 30.5t-17.5 24.5q-15 9 -29 4.5t-22 -18.5q-8 -12 -8 -23q0 -4 1 -8zM489 492q48 -31 71 -37q14 -3 30 -4h4q29 0 112 25q72 21 108 21q9 0 15 -1q-41 -16 -69 -39q-24 -16 -49 -47h16q58 61 123 79 q66 -19 121 -79h18q-22 28 -49 47q-37 26 -70 39q6 1 15 1q36 0 109 -21q83 -25 112 -25h4q7 0 13.5 1t13 2.5t11 2.5t11 4.5t10 4.5t10.5 5.5t9.5 6t10.5 7t11 7.5q-16 -4 -37 -4q-37 0 -88 12q-78 19 -102 20h-18q-59 0 -115 -16q-56 16 -115 16h-18q-24 -1 -103 -20 q-50 -12 -88 -12q-21 0 -37 4zM496 287q11 18 28 8q14 -11 6 -27zM504 63q-3 -6 -3 -10q0 -9 11 -12q19 -8 23 10l14 35l-8 4l-15 -35q-4 -11 -12 -6q-6 3 -2 10v4l-8 3v-3zM514 944q278 29 303 33q16 3 23 10q-15 3 -25 15.5t-10 27.5q0 17 12 29t31 12q17 0 29 -12t12 -29 q0 -15 -9.5 -27.5t-23.5 -15.5q7 -7 21 -10l305 -33q-136 -14 -224 -24q-84 -10 -90 -76q-1 -18 -1 -34.5t-0.5 -29t3 -28.5t4.5 -24t7.5 -25.5t8 -22.5t11.5 -25l12 -24t14.5 -27.5t14.5 -28.5l-82 -8v-2l-12 2l-12 -2v2l-84 8q52 100 62 136q13 42 13 95q0 18 -2 38 q-6 66 -90 76zM514 1174q23 8 35 10q14 3 33 4.5t28 3.5q34 9 72 29q-27 8 -45 8q-9 0 -25.5 -4.5t-28.5 -9.5l-12 -5q33 29 47 54q8 10 23 25t21 22q-40 -12 -54 -19.5t-33 -25.5l-6 -6q-40 -37 -55 -86zM545 45q-2 -5 -2 -8q0 -8 10 -10q7 -3 12 2l-2 -6l8 -3l15 37l-11 4 l-6 -22q-4 -11 -12 -6q-7 0 -4 10l8 23l-10 4zM545 209l14 -6l19 43q6 16 22 10q15 -3 8 -20l-18 -46l16 -6l19 49q11 22 -15 33q-12 5 -26 -2l4 10l-15 7zM561 1501l47 -63l17 6l-7 57h3l30 -49l17 6l-2 80l-17 -6l4 -59l-32 49l-15 -6l4 -58l-32 49zM580 16l8 -2l6 19 q3 14 14 10q1 0 2 -1t2 -1l2 8q-2 0 -4 2q-9 0 -12 -6l2 8l-8 2zM586 858q0 -109 77.5 -185.5t186.5 -76.5q108 0 185 77t77 185q0 107 -77.5 184.5t-184.5 77.5q-109 0 -186.5 -77.5t-77.5 -184.5zM604 -6q4 0 6 -2q9 -2 17 10l24 37l-8 2l-16 -27l-4 31l-9 4l4 -43l-2 -2 q-2 -4 -6 -4l-4 2zM637 215q-2 -9 -2 -16q0 -26 27 -33q28 -7 40 14l-16 4q-6 -9 -20 -6q-19 6 -15 27l54 -15q8 15 2 31.5t-23 20.5q-36 9 -47 -27zM647 1251h33q13 -2 31 -9.5t32 -8.5q15 -2 48 2q-19 19 -46 27q-24 6 -45 6q31 16 33 16q43 13 58 23q-20 8 -25 8 q-42 0 -80 -25q-23 -16 -39 -39zM655 215q7 20 25 14q16 -3 12 -24zM674 12q-3 -18 18 -24q22 -4 25 16l8 35l-10 2l-6 -31q-4 -16 -17 -14q-13 3 -8 18l6 31l-10 2zM690 1503q7 -39 43 -33q28 7 31 31l-16 -2q-4 -14 -17 -14q-18 -6 -22 18l53 8q0 18 -12 30t-29 9t-25 -16 q-7 -10 -7 -22q0 -4 1 -9zM707 1513q-1 2 -1 5q0 5 4 10q4 7 13 8q16 3 20 -16zM717 156l16 -4l6 36q1 11 9 17t16 4q4 0 8 -2l2 16q-1 0 -2.5 1t-3.5 1q-8 2 -16 -2t-9 -10l2 14l-16 2zM725 -16h10l2 22q0 10 11 10q6 -3 6 -10l-4 -24h8l4 22q0 4 2.5 7t5.5 1q9 0 6 -10 l-2 -22l8 -3l4 27q0 13 -12 16q-9 0 -12 -6q-4 9 -10 9q-8 0 -15 -7l2 7l-8 2zM774 1585l6 -104h17l-6 104h-17zM778 184q0 -38 33 -41q14 0 25 15v-13q0 -18 -21 -18q-15 0 -18 10h-17q3 -22 33 -22q39 -3 39 32v72h-16v-10q-6 12 -23 12q-15 0 -25 -11t-10 -26zM786 1272 q4 -2 72 -43q7 -4 31 -4q-11 17 -25 26q-12 11 -24 19q18 0 30 2q24 3 48 8q-27 14 -56 14h-10q-38 -3 -66 -22zM793 16l12 -39h8l8 29l8 -29h9l12 39h-8l-8 -30l-9 30h-8l-8 -28l-6 28h-10zM795 182q0 27 20 27q21 0 21 -27q0 -24 -21 -24q-20 0 -20 24zM803 1546h14v-45 q0 -18 21 -18h12l-2 14q-2 -2 -6 -2q-8 0 -8 10v41h14v13h-14l-3 22h-16v-22h-12v-13zM852 -4q4 -21 20 -21t19 15h-8q-3 -8 -11 -8q-10 0 -10 12h29q1 9 -4.5 15.5t-14.5 6.5t-14.5 -6t-5.5 -14zM854 1485l66 -4l2 12l-45 4l45 47l2 12l-62 5l-2 -15l39 -2l-45 -47v-12z M862 0q0 10 10 10q8 0 11 -10h-21zM866 219l2 -76h17v76h-19zM866 231h19l-2 17h-17v-17zM895 31l4 -54h8l-4 56zM903 182q2 -18 13 -28t28 -7q13 2 22 10t9 19l-14 -2q-3 -11 -19 -14q-18 -3 -22 20l55 6q0 18 -11.5 30t-29.5 11q-16 -3 -24 -16q-7 -11 -7 -23v-6zM907 18 l2 -8l6 2l3 -24q0 -8 7 -8h3h6v6h-4q-4 0 -4 6l-2 20h8v6h-8l-2 13h-9l2 -13h-8zM915 1249q16 -20 31 -28q16 -9 39 -15q-8 16 -22 27q-21 16 -48 16zM920 190v5q0 15 16 18q18 3 22 -16zM934 20l2 -8l20 2l-18 -28v-6l35 4l-2 8l-23 -4l19 30v7zM934 1518q-1 -7 -1 -13 q0 -30 30 -35q29 -4 38 21l-14 2q-8 -11 -20 -8q-21 3 -17 24l54 -10q6 18 -1.5 33t-25.5 18q-16 3 -28 -6.5t-15 -25.5zM952 1520q3 19 23 16q18 -4 14 -23zM975 4q3 -16 17 -16h5q15 4 15 16l-8 -2q0 -5 -9 -8q-9 0 -12 10l29 4q0 9 -7 15.5t-16 5.5q-15 -3 -15 -18 q0 -3 1 -7zM983 10q-1 2 -1 4q0 6 9 9q10 0 10 -11zM987 213q5 -16 31 -16q24 4 26 -4q3 -10 -12 -15q-18 -4 -20 8l-17 -4q6 -27 39 -16q33 8 27 33q-4 14 -31 14q-3 0 -7 -0.5t-7 -0.5h-5.5t-4 1.5t-2.5 3.5q-2 7 12 12q11 4 16 -6l17 4q-8 22 -37 15q-26 -9 -26 -24 q0 -2 1 -5zM1010 47l2 -8h8l-2 8h-8zM1010 1462l14 -4l18 74l-14 4zM1012 31l8 -39l8 2l-6 39zM1030 1548l17 -4l4 17l-17 4zM1032 14q3 -15 15 -15q4 0 8 1q17 3 14 18l-8 -2q0 -10 -6 -10q-11 -3 -15 10q-3 17 9 17q6 3 10 -4l8 2q-7 13 -20 10q-15 -5 -15 -21v-6z M1053 1491q-4 -11 -4 -20q0 -23 24 -31q28 -11 43 16l-16 6q-3 -7 -10 -10t-13 0q-21 9 -8 31q10 28 29 18q13 -6 10 -18l16 -8q9 26 -22 38q-34 15 -49 -22zM1059 254l39 -96l14 6l-14 35q13 -10 28 -2q29 12 17 49q-14 36 -49 24q-17 -8 -17 -20l-4 10zM1065 59l16 -53 l9 2l-9 23q0 11 9 14q8 0 8 -8l8 -23l8 2l-8 27q-3 11 -16 8q-8 -3 -11 -8l-6 18zM1065 1300q5 -9 6 -10q5 -2 18 -10.5t23 -11.5q20 -10 43 -13q-15 20 -45 35q-19 7 -45 10zM1071 530q6 0 28 -1.5t47 -1t54 4.5q59 11 92 56q4 6 14.5 18.5t17.5 23t11 21.5q-2 -1 -23 -18 t-36 -23q-6 -3 -28 -10t-40 -16q-21 -11 -34.5 -16.5t-29.5 -11t-28 -9.5q34 27 49 61q9 22 15 78q-49 -49 -60 -68q-3 -6 -7.5 -20t-12.5 -29q-5 -10 -12.5 -20t-11.5 -15zM1087 223q-3 8 -3 15q0 14 14 20q9 3 17 -2.5t11 -15.5q8 -25 -10 -33q-18 -6 -29 16zM1114 37 q5 -14 17 -14q5 0 10 2q12 3 12 18l-8 -2q0 -7 -6 -10q-11 -3 -15 8l27 8q-2 9 -9 14t-16 2q-12 -5 -12 -20v-6zM1116 1423l14 -6l21 39q10 17 27 10q13 -7 4 -22l-21 -43l15 -6l22 45q13 25 -10 35q-14 9 -27 0l17 34l-15 9zM1122 43q-1 3 -1 6q0 6 7 8q9 3 13 -6z M1124 1237q18 -22 31 -29q10 -5 26 -7.5t25 -6.5q11 -4 27 -14q0 37 -10 57q-10 16 -19 23q-6 6 -15.5 9.5t-14.5 6.5q-3 -11 4 -21q2 -5 8 -8.5t8 -5.5q8 -7 14 -27q-23 6 -36.5 13t-16.5 8q-5 2 -31 2zM1149 70l16 -35l6 2l-8 22q-5 9 6 13q7 4 11 -4l8 -25l8 4l-10 25 q-3 12 -19 8q-5 -2 -8 -12l-2 6zM1153 268l14 8q-6 12 9 19q14 9 18 0q1 -2 1.5 -3.5t0 -3t-1.5 -2.5t-2.5 -3t-3 -3t-4 -3t-4.5 -3q-23 -18 -13 -34q8 -12 19 -12q6 0 14 5q16 8 19 21q6 -6 16 0q1 1 4 3t4 3l-6 10q-1 0 -2 -1t-2 -1q-2 -2 -6 2l-21 35q-12 18 -37 2 q-20 -11 -20 -26q0 -6 4 -13zM1182 248q-2 3 -2 6q0 6 6 12q14 9 16 15l6 -11q7 -12 -8 -22q-8 -2 -12 -2t-6 2zM1192 1165q26 -43 39 -53q60 -47 78 -65q8 28 8 38q-3 50 -29 93q-4 6 -12 13.5t-14 12.5l-7 4q1 -33 7 -51l18 -47q-25 25 -43 37q-20 12 -45 18zM1200 602 q17 11 50 29t57 35q29 21 42.5 53.5t24.5 87.5q-42 -59 -104 -121q-9 -8 -16.5 -20.5t-10.5 -16.5l-16 -16q14 23 16 37q12 28 12 61v9q0 31 -12 67q-24 -47 -31 -86q-2 -13 -1 -32t-1 -32q-8 -47 -10 -53v-2zM1208 1417q-10 -14 -10 -26q0 -16 19 -29q21 -14 43 2l-15 10 q-9 -9 -22 0q-16 13 -4 29l47 -31q11 12 10 29t-14 26q-10 7 -21 7h-8q-15 -4 -25 -17zM1210 330l43 -62l15 11l-21 28q-16 22 2 33q4 4 6 4l-10 14l-4 -4q-15 -11 -8 -26h-2l-8 12zM1225 1413q8 8 16 8q6 0 12 -4q16 -10 4 -26zM1243 1067v-6q0 -13 4 -24q5 -13 14.5 -27.5 t14.5 -24.5q5 -11 19 -31.5t22 -44.5l2 4q30 41 33 93v11q0 42 -19 83q-5 -30 -12 -90q0 -6 -1 -18t-1 -17q-7 7 -12.5 21.5t-12.5 21.5q-6 7 -16 12.5t-14 9.5q-20 25 -21 27zM1255 952q-4 -20 -4 -40q0 -25 6 -48q3 -12 13 -28t12 -29q8 -31 8 -59q2 2 2 6q30 39 39 57 q4 5 12.5 13t14 15t8.5 13q7 19 9.5 31.5t3 18t0 24.5t-0.5 32q-31 -60 -51 -88q-10 -12 -20 -36q0 9 -9 45q-5 18 -21 39t-22 34zM1255 1335l13 -12l30 33q13 13 27 2q11 -12 0 -23l-35 -35l13 -12l36 39q17 17 -2 37q-9 9 -26 6l8 8l-10 11zM1261 357q0 -16 11 -27 q11 -14 26 -16h4q13 0 23 10q24 17 10 41l-12 -11q6 -11 -6 -20q-8 -7 -16 -6t-13 8l41 37q-9 14 -25 17.5t-30 -7.5q-13 -10 -13 -26zM1280 344q-5 8 -5 14q0 8 7 15q6 6 14 5t13 -7zM1311 416l57 -49l10 12l-32 29q-14 14 -5 26q11 12 23 0l37 -31l10 13l-39 35 q-19 16 -37 -5q-10 -10 -4 -26h-2l-8 8zM1372 543l33 -21v-2q-13 3 -25 -14q-7 -8 -4 -23t19 -26q15 -9 26 -9q17 0 27 17q10 14 4 27l8 -7l8 15l-88 57zM1395 504q10 17 32 2q25 -13 13 -31q-7 -11 -17 -11q-8 0 -18 7q-13 11 -13 22q0 5 3 11zM1462 938l43 4l-26 33 l32 -27l5 43l4 -43l32 27l-26 -33l43 -4l-43 -4l26 -33l-32 27l-4 -43l-5 43l-32 -27l26 33z" />
<glyph unicode="h" horiz-adv-x="1781" d="M47 821q0 -172 67 -328.5t180 -269.5t269.5 -179.5t327.5 -66.5q230 0 424 113t307 307t113 424q0 171 -66.5 327.5t-179.5 269.5t-269.5 180t-328.5 67q-171 0 -327.5 -67t-269.5 -180t-180 -269.5t-67 -327.5zM88 821q0 217 108 402t293 293t402 108q218 0 403.5 -108 t293.5 -293t108 -402q0 -218 -108 -403.5t-293.5 -293.5t-403.5 -108q-217 0 -402 108t-293 293.5t-108 403.5zM182 895q0 21 12 38t41.5 42t43.5 39q93 97 276.5 275t212.5 206v-164l-379 -377h78q19 0 36 -17.5t17 -33.5v-588h744v588q0 17 17 34t36 17h76 q-14 13 -40.5 38.5t-39.5 39.5q-24 22 -119.5 114.5t-160 152t-72.5 59.5q-23 0 -23 -31q0 -17 132 -150.5t132 -148.5v-358q0 -15 -12.5 -26t-26.5 -11h-106v-256q0 -17 -13.5 -27t-27.5 -10q-17 0 -29 12t-12 27v254h-172v-256q0 -17 -13.5 -27t-27.5 -10t-27.5 11.5 t-13.5 25.5v256h-105q-14 0 -26 12t-12 25v358q0 16 92.5 112.5t152.5 153.5v258q22 31 58 31q19 0 41 -16t52.5 -47t41.5 -41q24 -20 66.5 -62.5l52.5 -52.5q188 -177 454 -434q13 -13 13 -35q0 -21 -16 -40t-38 -19h-166v-586q0 -19 -17.5 -36t-33.5 -17h-878 q-18 0 -35 17.5t-17 33.5v588h-168q-22 0 -36.5 19.5t-14.5 39.5z" />
<glyph unicode="i" horiz-adv-x="2007" d="M55 25q14 -25 43 -25h1813q25 0 43 25q8 13 8 25t-8 24l-912 1560q-18 25 -43 25t-43 -25l-901 -1560q-6 -13 -6 -25t6 -24zM98 98q27 0 41 -24q16 -26 0 -49l903 1560q-17 -24 -43 -24t-43 24l912 -1560q-13 23 0 49q17 24 43 24h-1813zM786 506l140 606q17 70 75 70 q55 0 72 -70l139 -606q5 -22 5 -44q0 -58 -39 -112q-34 -48 -74 -68t-105 -20q-66 0 -108 20t-74 68q-37 53 -37 110q0 23 6 46z" />
<glyph unicode="j" horiz-adv-x="4104" d="M180 668q0 -139 54.5 -265.5t146 -217.5t218 -145t265.5 -54h37v1364h-37q-139 0 -265.5 -54t-218 -145t-146 -217.5t-54.5 -265.5zM254 668q0 119 45 228.5t121.5 190.5t182.5 131.5t224 57.5v-1217q-157 10 -288.5 93.5t-208 220t-76.5 295.5zM1073 666 q0 -158 66.5 -235t163.5 -77t163 76.5t66 235.5t-61 241t-168 82t-168.5 -82t-61.5 -241zM1196 666q0 26 0.5 43.5t3.5 47.5t10 50t18 40.5t30.5 31t44.5 10.5t44.5 -10.5t30.5 -31t18.5 -41t10.5 -50t3.5 -47t0.5 -43.5q0 -38 -2.5 -66t-12 -65.5t-33 -58.5t-60.5 -21 q-107 0 -107 211zM1567 362h41l-39 -104l47 -20l67 131v112h-116v-119zM1739 528q0 -68 56.5 -121t156.5 -53q58 0 103 18.5t69 47.5t35.5 58.5t11.5 58.5q0 78 -105 151q40 31 62 62t22 73q0 74 -61 120t-137 46q-77 0 -136 -48.5t-59 -123.5q0 -81 90 -129 q-48 -23 -78 -65.5t-30 -94.5zM1862 528q0 38 26 66t64 43q41 -12 69.5 -38t28.5 -64q0 -37 -29.5 -58.5t-68.5 -21.5q-37 0 -63.5 21t-26.5 52zM1876 827q0 28 24 45t54 17q33 0 55.5 -19.5t22.5 -46.5q0 -31 -17.5 -50.5t-50.5 -37.5q-88 36 -88 92zM2238 666 q0 -159 67 -236.5t163 -77.5q97 0 163 77.5t66 236.5t-60.5 241t-168.5 82q-107 0 -168.5 -82t-61.5 -241zM2361 666q0 27 0.5 44t3.5 47t10 50t18 40.5t30.5 31t44.5 10.5t44.5 -10.5t30.5 -31t18.5 -41t10.5 -50t3.5 -47t0.5 -43.5q0 -38 -2.5 -66t-12 -65.5t-33 -58.5 t-60.5 -21q-107 0 -107 211zM2884 362h118v308q35 51 88 51q17 0 28 -6.5t14.5 -20.5t4.5 -23t1 -28v-281h118v308q35 51 88 51q17 0 27.5 -6t14.5 -21t4.5 -23t0.5 -28v-281h117v322q0 62 -35 96.5t-88 34.5q-67 0 -137 -59q-33 59 -115 59q-65 0 -131 -55v47h-118v-445z M3695 -2v1343h73v-153l185 153v-96q-67 -58 -185 -153v-174l185 153v-92l-183 -160v-174l183 156v-99q-134 -112 -185 -153v-174l185 153v-92l-183 -160v-174l183 156v-96q-12 -11 -60 -50.5t-73 -62.5q-4 -4 -17 -14t-22.5 -19t-12.5 -18h-73z" />
<glyph unicode="k" horiz-adv-x="1986" d="M70 453h770v39h-33v309l108 104h183l108 -104v-309h-53v-39h770v39h-682v323l-129 123h-209l-129 -123v-323h-704v-39zM268 672q0 -29 23 -49q21 -16 53 -16q17 0 37 5l8 2q19 6 27 5.5t20 -9.5q10 -8 10 -24q-4 -19 -20 -27q-14 -4 -19.5 -2t-21.5 14q-3 1 -5.5 2.5 t-5.5 4.5t-5 4q-22 12 -38 11t-26 -9l19 -27q12 8 26 -4q2 -1 7.5 -4t7.5 -4q28 -23 47 -23q15 0 28 8q36 16 39 54q3 32 -22 51q-11 11 -23 14q32 0 49 31q7 15 7 29q0 20 -15 39q-26 30 -78 30h-24q-15 3 -27 21q-7 17 -4 28q4 11 18 15q24 7 39 -2q5 -4 15 -23 q18 -41 53 -43q32 -1 50 15t20 40q3 25 -11 46.5t-41 25.5h-24q-31 0 -41 10q-20 20 -17 39q0 14 7 19q6 6 20 6q19 -4 29 -17q28 -47 67 -53q35 -6 56 19q19 22 10 57q-8 31 -22 39.5t-50 11.5l-8 2q-55 3 -55 39q0 17 6 23q8 8 22 8q11 -2 18 -9t19 -30l6 -10 q18 -28 52 -31q32 -4 49 20q18 22 8 60q-10 32 -39 45q-40 12 -40 50q0 5 1 11q0 10 10 17q6 5 15.5 5t15.5 -5q18 -8 21 -62q3 -34 28 -49q20 -13 40 -13q12 0 24 5q22 9 30 29q8 23 0 47q11 -11 35 -19q14 -4 25 0l-117 -118l76 -74l250 252l248 -252l75 74l-114 118h12 q24 8 35 19q-9 -28 0 -47q8 -20 30 -29q12 -5 24 -5q19 0 40 13q26 16 29 49q3 55 20 62q12 9 31 0q10 -7 10 -17v-6q0 -42 -39 -55q-29 -13 -39 -45q-4 -15 -2 -33t10 -27q6 -10 21 -16t29 -4q34 3 49 31l6 10q13 23 20.5 30t18.5 9q12 0 20 -8q8 -6 8 -23q0 -35 -55 -39 l-10 -2q-35 -3 -49.5 -11.5t-22.5 -39.5q-9 -35 13 -57q22 -25 53 -19q41 6 69 53q10 14 29 17q12 0 18 -6q9 -6 9 -19q0 -19 -17 -39q-12 -10 -41 -10h-26q-25 -4 -39 -25.5t-12 -46.5q3 -24 20.5 -40t48.5 -15q37 2 55 43q10 19 15 23q15 9 37 2q16 -3 20 -15 q3 -13 -6 -28q-9 -17 -27 -21h-22q-54 0 -78 -30q-15 -19 -15 -39q0 -14 7 -29q17 -31 49 -31q-11 -3 -25 -14q-23 -20 -20 -51q3 -37 37 -54q16 -8 30 -8q20 0 48 23q1 1 6 4t8 4q6 4 13 5t10 0l4 -1l10 12l8 15q-10 8 -26 9t-40 -11q-9 -10 -14 -11q-16 -12 -21.5 -14 t-19.5 2q-20 10 -20 27q-3 14 10 24q12 9 19.5 9.5t27.5 -5.5l6 -2q21 -4 38 -4q33 0 54 15q23 20 23 49q0 37 -41 53q-15 7 -30 7q-23 0 -44 -19q-3 -6 -8 -11q-18 -18 -41 -20q-14 0 -23 12q-6 16 7 33q10 12 20 15t31 3h28q33 4 50 37q19 28 8 56q-10 27 -41 36 q-14 4 -26 4q-22 0 -40 -12q-8 -4 -26 -35q-6 -14 -11 -19t-14 -5q-35 0 -35 27q-2 11 4.5 21t18.5 13h20q46 0 64 21q26 24 26 56v7q0 28 -18 43q-19 16 -47 13q-31 -6 -49 -31q-21 -30 -33 -35q-6 -3 -14 -4q-17 -3 -25 8q-7 7 -4 27q4 17 9.5 20t33.5 6h8q27 3 46 12 t26.5 21.5t10.5 22t3 18.5q0 28 -16 47q-20 17 -47 17q-15 0 -28 -8.5t-19.5 -17.5t-18.5 -28l-6 -10q-5 -13 -22 -16q-15 0 -23 8q-7 7 0 31q3 17 18 20q60 23 60 84v12q0 30 -27 43q-17 10 -34 10q-15 0 -29 -8q-21 -11 -28 -31.5t-11 -58.5q0 -14 -13 -24q-14 -8 -32 -4 q-10 3 -13 10q-5 11 5 35q3 10 18 16q24 10 37 31q17 28 17 56q0 8 -1 16q-6 26 -28 38q-28 18 -58 -2q-33 -17 -33 -51q0 -27 2 -35q0 -26 -2 -32q-4 -15 -28 -23q-13 0 -15 2q-11 13 -11 28q0 19 18 40q21 24 21 56q0 13 -3 26q-10 37 -41 47q-2 0 -7 1t-7 1l168 170 l-76 73l-262 -266l-262 266l-76 -73l170 -174q-14 6 -29 2q-31 -9 -41 -47q-3 -13 -3 -25q0 -31 22 -57q18 -20 18 -39q0 -15 -12 -29q-2 -2 -15 -2q-9 3 -18 10.5t-10 14.5q-2 5 -2 30q2 8 2 35q0 33 -33 53q-30 17 -57 0q-23 -13 -29 -38q-1 -8 -1 -17q0 -28 15 -55 q15 -21 39 -31q16 -6 19 -16q8 -19 4 -35q-3 -7 -13 -10q-18 -4 -32 4q-12 9 -15 24q-2 37 -9.5 58t-29.5 32q-14 8 -28 8q-16 0 -33 -10q-26 -13 -29 -43v-6q0 -67 62 -90q15 -3 18 -20q3 -11 2 -20t-4 -11q0 -1 -3 -3t-7.5 -3.5t-9.5 -1.5q-18 3 -25 16l-6 10 q-10 17 -17 27t-19.5 18t-29.5 9q-28 0 -45 -17q-18 -18 -18 -47q0 -9 3 -18.5t10.5 -22t26.5 -21.5t46 -12h10q28 -3 33.5 -6t9.5 -20q3 -20 -4 -27q-8 -11 -25 -8q-25 2 -47 39q-18 25 -49 31q-28 3 -47 -13q-17 -14 -20 -43q0 -37 26 -63q21 -21 66 -21h20 q12 -3 18.5 -13t4.5 -21q-3 -27 -35 -27q-10 1 -14.5 5.5t-10.5 18.5q-18 31 -26 35q-18 12 -41 12q-13 0 -27 -4q-29 -10 -39 -36q-10 -27 6 -56q20 -34 52 -37q16 -3 28 0q38 0 52 -18q14 -17 4 -33q-6 -12 -23 -12q-21 2 -39 20l-10 11q-19 19 -43 19q-15 0 -31 -7 q-39 -17 -39 -53zM301 672q0 15 21 22q4 4 14 4q12 0 22 -10l9 -8q23 -24 41 -27q-12 -3 -27 -6l-8 -2q-41 -10 -62 4q-10 10 -10 23zM561 90l223 330l27 -19l-221 -329zM670 1294q3 13 12 19q4 2 10 2q11 0 15 -4q16 -6 16 -25q0 -21 -2 -29q-3 -17 0 -36q-5 5 -19 10 q-15 7 -22 18q-12 19 -11 34q-1 6 1 11zM721 49l141 379l31 -12l-141 -379zM807 1339q4 21 18 25q2 1 4 1q9 0 19 -11q22 -22 14 -37l-4 -12q-11 -36 -4 -58q2 -6 10 -18l-28 -29q7 15 8 31q0 29 -27 59q-13 13 -13 31q0 8 3 18zM874 627q0 -55 39 -94t95 -39t94.5 39 t38.5 94q0 57 -43 94v115h-183v-115q-41 -38 -41 -94zM887 1257q-3 6 -3 13q0 10 5 22l6 13q6 20 -4 43l45 -48l-47 -47q-2 0 -2 4zM899 -8l53 424l33 -4l-53 -424zM907 627q0 40 30 69t71 29t69.5 -29t28.5 -69q0 -42 -28.5 -71.5t-69.5 -29.5t-71 30t-30 71zM950 745v58 h115v-58q-29 13 -57 13q-32 0 -58 -13zM1040 412l33 4l53 -424l-32 -4zM1085 1300l31 31q-3 -13 0 -26l4 -13q8 -17 6 -32zM1135 416l30 12l142 -379l-31 -12zM1147 1317q-1 1 -1 3q0 5 4 14q5 12 13 20q2 4 10 8q5 3 9 3q2 0 4 -1q14 -4 18 -25q9 -30 -10 -49 q-26 -30 -26 -62q0 -7 1 -14l-18 21l6 12q7 24 -4 58zM1212 401l27 19l221 -330l-26 -18zM1288 1286q0 18 17 25q4 4 14 4q6 0 10 -2q9 -6 12 -19q3 -24 -10 -45q-8 -11 -24 -18q-14 -7 -17 -10v36q-2 8 -2 29zM1604 653q19 4 38 27q2 1 5.5 4t5.5 4q11 11 22 11q7 0 15 -5 q18 -6 18 -22q0 -15 -8 -23q-12 -8 -31 -8q-14 0 -31 4l-8 2q-10 2 -26 6z" />
<glyph unicode="l" horiz-adv-x="3143" d="M72 0v1638l10 11h2994l10 -11v-1638l-10 -10h-2994zM92 10h2974v1618h-2974v-1618zM307 258h113v389l104 152l273 -541h137l-332 651l322 467h-140l-366 -573v573h-111v-1118zM1169 866h277v58h-213v194h207v60h-207v143h213v59h-277v-514zM1174 262h276v60h-213v194h207 v57h-207v146h213v57h-276v-514zM1704 893v485h94l139 -411l140 411h94v-485h-64v287v49q2 23 2 74l-139 -410h-65l-140 410v-17q0 -3 1 -21t1 -32q1 -11 1 -21.5t-0.5 -20t-0.5 -11.5v-287h-63zM1749 426q0 -87 51 -143t137 -56q87 0 138 56t51 143v326h-64v-303 q0 -162 -125 -162q-122 0 -122 162v303h-66v-326zM2380 893l182 485h74l176 -485h-72l-49 145h-192l-52 -145h-67zM2441 262h66v217h26l150 -217h78l-162 223q55 7 89 48.5t34 97.5q0 82 -68 123q-37 22 -135 22h-78v-514zM2507 532v187h16q28 0 49 -3t43.5 -12t34.5 -28.5 t12 -48.5q0 -95 -135 -95h-20zM2519 1092h152l-74 215z" />
<glyph unicode="m" horiz-adv-x="1722" d="M45 801v33l801 800h33l800 -800v-33l-800 -801h-33zM125 817l737 -737l737 737l-737 737zM215 709l100 100l-100 102l49 50l103 -103l114 117l-102 104l49 49l102 -104l119 119l-102 102l49 49l102 -102l117 119l-102 100l51 49l100 -100l105 102l49 -49l-105 -102 l117 -117l105 104l49 -49l-105 -104l119 -119l102 104l50 -49l-103 -104l117 -117l104 103l50 -50l-105 -104l105 -102l-50 -50l-104 103l-117 -117l103 -104l-50 -50l-102 105l-119 -119l105 -104l-49 -49l-105 104l-115 -117l101 -100l-49 -51l-103 102l-102 -102l-49 49 l102 102l-117 119l-102 -102l-49 49l102 102l-119 117l-100 -100l-51 49l102 102l-114 115l-103 -103zM416 809l114 -115l117 115l-117 117zM580 645l118 -119l115 117l-117 117zM580 975l116 -115l117 117l-115 117zM745 809l119 -117l117 117l-119 119zM748 477l116 -119 l117 117l-117 119zM748 1143l114 -117l119 119l-117 115zM913 643l117 -119l119 119l-119 117zM913 977l117 -119l119 119l-119 119zM1079 809l119 -117l117 117l-117 119z" />
<glyph unicode="n" horiz-adv-x="1742" d="M37 688l131 131l-131 129l63 64l129 -131l150 149l-133 133l63 62l131 -131l152 149l-131 131l63 62l129 -129l152 149l-131 131l63 64l129 -131l133 133l64 -64l-133 -133l147 -147l133 133l64 -64l-133 -133l151 -149l131 133l64 -64l-133 -133l151 -151l131 133 l64 -62l-133 -133l133 -133l-64 -63l-131 133l-151 -152l133 -131l-64 -63l-131 133l-151 -152l133 -133l-64 -61l-131 131l-149 -148l131 -129l-64 -63l-129 129l-131 -131l-63 63l131 131l-150 150l-131 -131l-63 63l131 131l-152 152l-129 -131l-63 63l131 129l-150 150 l-129 -131zM293 819l147 -149l150 149l-150 148zM504 608l151 -151l148 147l-152 152zM504 1030l147 -147l152 149l-150 148zM715 819l151 -151l150 151l-152 150zM717 393l151 -149l148 147l-150 152zM717 1243l147 -147l152 149l-150 148zM928 604l151 -149l150 149 l-150 152zM928 1032l151 -151l150 151l-152 150zM1141 819l151 -151l150 151l-150 150z" />
<glyph unicode="o" horiz-adv-x="2007" d="M55 1563l912 -1563q14 -25 43 -25q27 0 41 25l901 1563q8 12 8 23.5t-8 23.5q-12 24 -41 24h-1813q-31 0 -43 -24q-6 -12 -6 -23.5t6 -23.5zM98 1538h1813q-27 0 -43 25q-13 23 0 47l-901 -1561q14 25 43 25q28 0 41 -25l-912 1563q14 -29 0 -49q-13 -25 -41 -25z M760 680h264q369 0 369 401q0 183 -94.5 274t-274.5 91h-264v-766zM862 766v594h172q136 0 196 -75t60 -218q0 -80 -21 -139.5t-49 -89.5t-67.5 -47.5t-66 -21t-54.5 -3.5h-170z" />
<glyph unicode="p" horiz-adv-x="3244" d="M180 668q0 -139 54.5 -265.5t146 -217.5t218 -145t265.5 -54h37v1364h-37q-139 0 -265.5 -54t-218 -145t-146 -217.5t-54.5 -265.5zM254 668q0 119 45 228.5t121.5 190.5t182.5 131.5t224 57.5v-1217q-157 10 -288.5 93.5t-208 220t-76.5 295.5zM1077 631q0 30 21 50.5 t51 20.5t51 -20.5t21 -50.5q0 -29 -21.5 -49.5t-50.5 -20.5t-50.5 20.5t-21.5 49.5zM1366 631q0 31 20.5 51t51.5 20q29 0 49 -20t20 -51q0 -29 -20 -49.5t-49 -20.5q-31 0 -51.5 20.5t-20.5 49.5zM1657 631q0 31 20.5 51t51.5 20q29 0 49 -20t20 -51q0 -29 -20 -49.5 t-49 -20.5q-31 0 -51.5 20.5t-20.5 49.5zM1962 362h119v308q35 51 88 51q17 0 27.5 -6t14.5 -21t4.5 -23t0.5 -28v-281h119v308q35 51 88 51q17 0 27.5 -6t14.5 -21t4.5 -23t0.5 -28v-281h117v322q0 62 -35 96.5t-88 34.5q-67 0 -137 -59q-33 59 -115 59q-65 0 -131 -55v47 h-119v-445zM2773 -2v1343h74v-153l184 153v-96q-79 -69 -184 -153v-174l184 153v-92l-182 -160v-174l182 156v-99q-158 -133 -184 -153v-174l184 153v-92l-182 -160v-174l182 156v-96q-9 -8 -59 -49t-74 -64q-3 -3 -17.5 -14t-22.5 -19.5t-11 -17.5h-74z" />
<glyph unicode="q" horiz-adv-x="2492" d="M43 831h1567l815 -829h-1561zM47 827l797 805h1558l-803 -805h-1552zM143 811l787 -772h614l-190 178l-381 2l-125 127l328 -4l-187 188l-325 -4l-123 121h372l-157 164h-613zM150 854h598l174 170l-367 2l125 125l295 -2l178 178l-295 2l123 117l352 2l162 154h-606z M866 854l219 2l250 248l172 178l-166 -424h203l760 744h-219l-207 -205l-172 -178l147 383h-241zM1002 648q40 -94 167 -220q201 -198 416 -298q196 -92 384 -92q19 0 38 1q64 4 102 19.5t51 39.5q8 15 8 35q0 12 -4 27q-8 36 -30.5 76t-60.5 92l-252 4q26 -31 40 -55 t17 -43t-10.5 -29t-44.5 -10q-25 0 -51 6.5t-47 13.5t-50.5 24.5t-45.5 27.5t-48.5 35.5t-44.5 35.5t-47.5 40.5t-44.5 37.5q-155 133 -155 193q0 9 3 16q11 24 58 24h4q127 0 276 -133l250 -2q-350 314 -719 317h-5q-109 0 -151 -45q-22 -23 -22 -60q0 -33 19 -78z" />
<glyph unicode="r" horiz-adv-x="2605" d="M82 821q0 -171 97.5 -327.5t262 -269.5t391.5 -180t476 -67q200 0 387.5 42.5t338.5 121t264.5 182t175.5 232.5t62 266t-62 266t-175.5 232.5t-264.5 182t-338.5 121t-387.5 42.5q-249 0 -476 -67t-391.5 -180t-262 -269.5t-97.5 -327.5zM158 821q0 124 58.5 241.5 t165 212t248 165.5t317 110t362.5 39q156 0 305.5 -27.5t275.5 -77.5t232.5 -121t180.5 -155t115.5 -183.5t41.5 -203.5q0 -156 -91 -298.5t-245.5 -245t-367.5 -163.5t-447 -61q-311 0 -576.5 103t-420 280t-154.5 385zM324 770q0 -40 27 -68t67 -28t67 28t27 68 q0 39 -27.5 66.5t-66.5 27.5t-66.5 -27.5t-27.5 -66.5zM369 770q0 20 14.5 34.5t34.5 14.5t34.5 -14.5t14.5 -34.5q0 -21 -14 -35t-35 -14t-35 14t-14 35zM557 358q0 -66 52 -111.5t124 -45.5h1151q74 0 126 45.5t52 111.5q0 65 -52.5 111.5t-125.5 46.5h-1151 q-72 0 -124 -46.5t-52 -111.5zM557 1296l53 -77q19 -29 46 -29q19 0 42 14q34 24 34 52q0 17 -13 36l-51 78l-33 -22l47 -72q20 -32 0 -45q-23 -17 -43 14l-47 74zM604 358q0 46 37.5 79.5t91.5 33.5h1151q55 0 93 -33.5t38 -79.5t-38 -79t-93 -33h-1151q-54 0 -91.5 33 t-37.5 79zM657 911q0 -100 87.5 -184.5t238 -134t326.5 -49.5q177 0 327.5 49.5t238 134t87.5 184.5q0 101 -87.5 186.5t-238 135t-327.5 49.5q-176 0 -326.5 -49.5t-238 -135t-87.5 -186.5zM659 266h109v29h-68v35h62v28h-62v31h66v29h-107v-152zM694 426h29l27 31h-41z M705 911q0 88 80.5 162.5t220 118t303.5 43.5q165 0 304.5 -43.5t220.5 -118t81 -162.5t-81 -162t-220.5 -117.5t-304.5 -43.5q-164 0 -303.5 43.5t-220 117.5t-80.5 162zM774 1370q5 -18 19 -25t28 -5.5t26 0t15 -10.5q5 -12 -18 -20q-21 -8 -43 -4l6 -33q21 0 45 8 q52 16 52 50q0 8 -3 18q-8 22 -29 27t-36.5 1t-22.5 8q-4 12 23 23q10 4 32 4l-6 29q-14 2 -39 -6t-41 -24q-11 -11 -10 -26q0 -7 2 -14zM793 266h102v31h-61v121h-41v-152zM911 266h109v29h-68v35h62v28h-62v31h66v29h-107v-152zM915 1133l76 -484l94 15l-55 354l189 -332 l133 21l-78 483l-94 -16l53 -334l-182 313zM930 1468l35 -147l106 25l-6 26l-68 -14l-8 33l62 14l-7 29l-61 -15l-6 31l63 14l-6 27zM1040 342q0 -39 25.5 -58.5t60.5 -19.5q27 0 45 6l-2 31q-20 -8 -36 -8q-24 0 -38 13t-14 36q0 21 13 35t34 14t39 -12l4 33q-28 8 -45 8 q-38 0 -62 -20.5t-24 -57.5zM1178 387h39v-121h38v121h37v31h-114v-31zM1220.5 1404.5q6.5 -5.5 14.5 -5.5q9 0 14.5 6t3.5 14q0 9 -6 15t-14 6q-8 -2 -14 -9q-5 -6 -5 -12q0 -9 6.5 -14.5zM1309 266h41v60h8q11 0 16.5 -6.5t11.5 -26.5l9 -27h41l-15 41q-1 3 -2.5 8.5 t-2.5 8t-2.5 6t-3 5t-4 3.5t-5.5 2v2q29 6 29 37q0 19 -14 29t-36 10h-71v-152zM1350 354v35h10q29 0 29 -16q0 -19 -29 -19h-10zM1370 707l98 -27l50 182l127 -33l18 76l-125 33l37 137l151 -39l23 76l-252 68zM1401 1366l41 -8l16 31l58 -9l6 -34l43 -7l-35 158l-47 8z M1456 266v152h41v-152h-41zM1473 1415l28 55l8 -61zM1522 342q0 -39 25.5 -58.5t60.5 -19.5q27 0 45 6l-2 31q-20 -8 -37 -8q-23 0 -37 13t-14 36q0 21 13 35t34 14t39 -12l4 33q-28 8 -45 8q-38 0 -62 -20.5t-24 -57.5zM1610 1331l39 -12l14 51l14 -4q15 -4 27 -4 q35 0 45 35q2 8 2 15q0 36 -53 50l-47 15zM1669 1399l12 39l11 -2q23 -8 18 -27q-5 -21 -31 -14zM1673 266v152h41v-152h-41zM1733 387h36v-121h41v121h37v31h-114v-31zM1767 1280l99 -45l12 27l-61 28l14 31l55 -27l12 27l-55 27l12 26l60 -26l12 24l-96 45zM1864 266h108 v29h-69v35h63v28h-63v31h67v29h-106v-152zM1898 426h27l29 31h-41zM1915 1206l86 -57l16 25l-51 34l68 101l-35 22zM2097 770q0 -40 28 -68t68 -28q39 0 67 28t28 68q0 38 -28.5 66t-66.5 28q-40 0 -68 -28t-28 -66zM2144 770q0 21 14 35t35 14q20 0 35 -14.5t15 -34.5 q0 -21 -14.5 -35t-35.5 -14q-22 0 -35.5 13.5t-13.5 35.5z" />
<glyph unicode="s" horiz-adv-x="1830" d="M68 811q0 -173 67.5 -330.5t181 -271t271 -181t330.5 -67.5q172 0 329 67.5t271 181t181.5 271t67.5 330.5q0 172 -67.5 329.5t-181.5 271.5t-271 181.5t-329 67.5q-231 0 -426.5 -114.5t-309.5 -310t-114 -425.5zM106 811q0 164 64 314t173 258.5t259.5 172.5t315.5 64 q132 0 255 -41t222.5 -116t174 -174.5t115.5 -222.5t41 -255q0 -164 -64 -314t-172 -259t-258 -173.5t-314 -64.5q-165 0 -315.5 64.5t-259.5 173.5t-173 259t-64 314zM207 811q0 -229 133 -414.5t348 -257.5l12 37q-203 69 -327.5 244t-124.5 391q0 192 104 356.5 t277 247.5l-17 35q-184 -88 -294.5 -262t-110.5 -377zM586 1419l317 -276l27 31l-318 276zM801 109h227v41h-227v-41zM805 1448h227v82h-227v-82zM897 125h39v1360h-39v-1360zM905 1174l25 -31l317 276l-26 31zM1133 176l12 -37q216 72 348.5 257.5t132.5 414.5 q0 203 -109.5 377t-293.5 262l-19 -35q174 -83 278.5 -247.5t104.5 -356.5q0 -216 -125.5 -391t-328.5 -244z" />
<glyph unicode="t" horiz-adv-x="1419" d="M59 817q0 169 48 322.5t139 273.5q94 123 214.5 188.5t252.5 65.5q134 0 254.5 -65.5t212.5 -188.5q90 -120 138 -273.5t48 -322.5t-48 -322.5t-138 -273.5q-92 -123 -212.5 -188.5t-254.5 -65.5q-132 0 -252.5 65.5t-214.5 188.5q-91 120 -139 273.5t-48 322.5zM158 817 q0 -153 44 -292t118 -239.5t177 -160t216 -59.5t216 59.5t178 160t119 240t44 291.5q0 153 -44 292.5t-119 240.5t-178 161t-216 60t-216 -60t-177 -161t-118 -240.5t-44 -292.5zM403 397h101q0 -91 62 -136.5t155 -45.5q50 0 90 11t70 42.5t30 81.5q0 68 -75 101 q-32 14 -76 26q-15 3 -44.5 9.5t-43.5 9.5q-56 13 -91 24t-74.5 33.5t-59 58.5t-19.5 86q0 74 41 126.5t101 75t132 22.5q123 0 200 -61t81 -183h-98q-9 79 -58 117.5t-129 38.5q-71 0 -118.5 -30t-47.5 -97q0 -61 74 -91q16 -7 78 -24q69 -15 88 -19q42 -9 72.5 -18.5 t65 -27t56 -39.5t36 -57t14.5 -79q0 -47 -18 -85.5t-47 -64.5t-68 -43.5t-80.5 -25.5t-83.5 -8q-137 0 -226.5 69t-89.5 203zM481 1186v96h465v-96h-465zM668 1004v464h96v-464h-96z" />
<glyph unicode="u" horiz-adv-x="2607" d="M90 788v91q0 10 4 26q22 188 168 355l45 -41q-40 -42 -88 -125q-13 -22 -38 -91.5t-25 -101.5q0 -3 -6 -51q0 -50 2 -62q-10 2 -62 0zM158 537q25 17 55 30q62 -133 217 -258q8 -6 25 -18.5t31 -23t26 -17.5l-35 -51q-16 8 -46.5 32.5t-39.5 30.5q-72 54 -139 135.5 t-94 139.5zM305 823q0 -127 77.5 -242t223.5 -204q141 -86 323 -132t382 -46t381.5 45.5t322.5 132.5q145 88 222 203t77 243t-77.5 243.5t-221.5 203.5q-141 87 -322.5 132.5t-381.5 45.5t-382 -46t-323 -132q-146 -89 -223.5 -204t-77.5 -243zM369 823q0 152 126 281.5 t343 205.5t473 76q191 0 365.5 -45t300.5 -120.5t201 -179.5t75 -218t-75 -218t-201.5 -179t-300.5 -119.5t-365 -44.5q-256 0 -473 75.5t-343 204.5t-126 281zM451 1427q189 133 421 191h5l12 -59q-214 -53 -402 -181q-5 4 -11.5 13t-14 20.5t-10.5 15.5zM618 809 q0 -116 79 -197.5t188 -81.5t187.5 81.5t78.5 197.5q0 117 -78 200t-188 83t-188.5 -83t-78.5 -200zM694 1128q0 20 13.5 34t33.5 14t33.5 -14t13.5 -34t-13.5 -33.5t-33.5 -13.5t-33.5 13.5t-13.5 33.5zM702 82l25 57q190 -70 305 -84q13 -4 17 -2l112 -14l-4 -62h-8 q-1 0 -15.5 2.5t-33 5t-29.5 3.5q-89 10 -227 47q-31 9 -142 47zM713 811q0 76 50 129t122 53q71 0 121.5 -53t50.5 -129q0 -75 -51.5 -129.5t-120.5 -54.5q-70 0 -121 54.5t-51 129.5zM979 1128q0 20 13.5 34t33.5 14t33.5 -14t13.5 -34t-13.5 -33.5t-33.5 -13.5 t-33.5 13.5t-13.5 33.5zM1124 1665q14 2 76 6q3 0 46.5 2t45.5 2h92l93 -6l110 -16l-12 -60l-141 17q-10 0 -30 1l-20 1h-143l-111 -8zM1184 1081l198 -538h78l199 538h-100l-138 -409l-137 409h-100zM1405 -25q2 4 2.5 8.5t0.5 9.5t-1 19t-2 27q4 -4 59 0q204 19 379 84 l21 -57q0 -3 -2 -5q-156 -54 -310 -73q-11 -1 -39 -6t-43 -5zM1710 543h275v96h-181v125h172v96h-172v123h181v98h-275v-538zM1812 1536l19 57q112 -34 228 -96t184 -125l-41 -47q-86 74 -178.5 120.5t-211.5 90.5zM2064 219q4 8 15 12q84 49 172.5 130.5t132.5 160.5 l51 -35q-68 -108 -145 -178q-100 -90 -197 -141zM2365 1151l52 35q83 -120 106 -266q6 -36 6 -39v-113q0 -21 -6 -39l-59 12l6 54v59q0 24 -11 74.5t-12 54.5q-1 7 -7 20t-7 17q-17 52 -68 131z" />
<glyph unicode="v" horiz-adv-x="1818" d="M72 559q0 -32 23 -55t55 -23h1529q32 0 54 23t22 55v510q0 31 -22 53.5t-54 22.5h-1529q-32 0 -55 -22.5t-23 -53.5v-510zM123 559v510q0 10 8 17.5t19 7.5h1529q11 0 18 -7t7 -18v-510q0 -11 -7.5 -19t-17.5 -8h-1529q-10 0 -18.5 8t-8.5 19zM205 811q0 -81 58 -138 t140 -57q50 0 99 27v55q-45 -39 -101 -39q-62 0 -105.5 46t-43.5 108q0 64 43.5 110t105.5 46q59 0 101 -39v55q-44 27 -94 27q-85 0 -144 -58t-59 -143zM418 74q0 -32 22 -54t54 -22h841q32 0 54 22t22 54v432h-51v-432q0 -10 -7 -17.5t-18 -7.5h-841q-11 0 -19 7.5 t-8 17.5v432h-49v-432zM418 1120h49v432q0 10 8.5 18.5t18.5 8.5h841q10 0 17.5 -8t7.5 -19v-215v-149l2 -49q0 -16 0.5 -23t6 -14.5t17.5 -7.5v51l27 -23q-2 10 -2 430q0 32 -22 55t-54 23h-841q-32 0 -54 -23t-22 -55v-432zM557 625h205v43h-158v143h152v43h-152v107h158 v43h-205v-379zM815 625h88q56 0 93.5 26.5t37.5 79.5q0 33 -21.5 61.5t-54.5 34.5q19 9 30 29.5t11 42.5q0 105 -137 105h-47v-379zM862 668v131h29q39 0 67.5 -15t28.5 -51q0 -65 -88 -65h-37zM862 836v125h12q39 0 60.5 -13t21.5 -49q0 -38 -21 -50.5t-61 -12.5h-12z M1087 625h203v43h-155v143h151v43h-151v107h155v43h-203v-379zM1327 811q0 -81 58.5 -138t138.5 -57q51 0 100 27v55q-45 -39 -100 -39q-63 0 -106.5 45.5t-43.5 108.5q0 64 44 110t106 46q58 0 100 -39v55q-43 27 -96 27q-84 0 -142.5 -58.5t-58.5 -142.5z" />
<glyph unicode="w" horiz-adv-x="2009" d="M51 -2l957 1655l262 -457l-606 -369l-35 -22l20 -37l273 -496l-273 -159h174l181 104l36 23l-20 36l-275 498l570 346l14 -24l-192 -375l-11 -23l13 -20l329 -565h103l-344 589l153 304l582 -1008h-1911z" />
<glyph unicode="x" horiz-adv-x="2471" d="M53 487l25 39q44 69 164 213q-105 121 -158 205l-25 39l31 31q269 269 524 372t641 103h5h4q216 0 395 -43l199 186l-150 -198q196 -52 366 -158.5t336 -278.5l-57 -59l-18 -20l-49 -52l-11 -8q-139 190 -295.5 305.5t-347.5 167.5l-131 -174q59 -9 112.5 -25.5t95 -33 t89.5 -48t79.5 -54t81.5 -68.5t78.5 -74t86.5 -86l16 -16l25 -25q-71 -81 -125.5 -135t-121 -107t-131.5 -85t-147.5 -57.5t-180.5 -36.5t-220 -11q-53 0 -147 4l-199 -176q137 -33 356 -33h2h11q332 0 573.5 126.5t439.5 399.5l64 -57l18 -16l62 -58q-255 -269 -522.5 -386 t-634.5 -117h-9q-295 0 -471 45l-454 -402l323 441q-307 111 -567 389zM297 506q131 -128 233.5 -206t204.5 -122l117 158q-274 68 -483 268q-54 -72 -72 -98zM303 965q11 -16 33.5 -47t32.5 -46q142 133 311.5 206t396.5 91q82 7 156 7q81 0 135 -5l188 179 q-150 30 -294 30h-5h-2q-213 0 -359 -35.5t-283.5 -123t-309.5 -256.5zM473 739q108 -130 211.5 -202t239.5 -103l104 141h-299l524 492h-20h-2h-2q-107 0 -178 -8q-191 -18 -320 -92t-258 -228zM1206 768h416l-412 -365h13h4h6h6q113 0 199.5 22.5t135 56.5t79.5 80.5 t41.5 86.5t11.5 84h-6q0 21 -3 45t-19.5 67t-44.5 78.5t-84 70.5t-132 53z" />
<glyph unicode="y" horiz-adv-x="2269" d="M129 518l616 934q138 207 304 207h6q51 0 97 -17q48 -18 86 -51.5t65 -66t55 -74.5q428 -644 588 -881l-56 -37l-69 103l-211 317l-307 461q-36 53 -66 87.5t-81 63.5q-48 27 -103 27h-4q-70 0 -129.5 -42.5t-118.5 -131.5l-615 -934q-57 -85 -57 -165q0 -72 45 -140 q76 -112 283 -112h1192q96 0 164.5 20.5t113.5 81.5q-42 26 -55.5 62t-6.5 58l7 23l55 121l-18 8l14 27l49 -23l58 125l43 -20l-58 -125l105 -49l57 125l45 -21l-59 -125l49 -22l-12 -27l-17 6l-55 -118q-1 -2 -2.5 -4.5t-7.5 -10.5t-13 -14.5t-19 -14t-25.5 -11t-32.5 -3.5 t-39 6q-38 -59 -99 -92t-114.5 -41t-126.5 -8h-1192q-245 0 -338 141q-55 80 -55 177q0 101 65 200zM606 829q0 181 129.5 310t311.5 129q181 0 309.5 -128.5t128.5 -310.5v-24v-207v-25q0 -182 -128.5 -311t-309.5 -129t-310 129t-129 311v31v193q0 5 -1 15.5t-1 16.5z M651 573q0 -164 116 -280.5t280 -116.5t279.5 116.5t115.5 280.5q0 163 -115.5 279.5t-279.5 116.5t-280 -116.5t-116 -279.5zM846 311v15q38 3 53 14q12 12 12 53v334q0 39 -12 51q-14 14 -53 17v12h211v-12q-44 -3 -56 -15q-14 -11 -14 -49v-360q0 -11 4 -19t19 -8 q6 -2 18 -2h35q102 0 135 16q32 14 68 84h18l-37 -131h-401z" />
<glyph unicode="z" horiz-adv-x="1822" d="M63 809q0 -173 67.5 -330.5t181 -271t271 -181t330.5 -67.5t330.5 67.5t271 181t181 271t67.5 330.5t-67.5 330.5t-181 271t-271 181t-330.5 67.5t-330.5 -67.5t-271 -181t-181 -271t-67.5 -330.5zM158 809q0 154 59.5 294t160.5 241t241 161t294 60t294 -60t241 -161 t161 -241t60 -294t-60 -294t-161 -241t-241 -161t-294 -60t-294 60t-241 161t-160.5 241t-59.5 294zM492 348v33q51 3 73 14q37 21 37 74v653q0 51 -37 72q-21 10 -73 16v33h405q247 0 375 -131q117 -120 117 -319q0 -186 -117 -306q-130 -139 -361 -139h-419zM817 469 q0 -36 14 -57q16 -19 58 -19q118 0 194 82q76 85 76 320q0 138 -41 241q-67 162 -223 162q-54 0 -68 -20q-10 -17 -10 -56v-653z" />
<glyph unicode="{" d="M178 418v778h82v-778h-82zM485 418h84v321h207q107 0 173.5 62.5t66.5 167.5q0 103 -66.5 165t-173.5 62h-291v-778zM569 813v309h199q74 0 119 -39.5t45 -113.5q0 -76 -45 -116t-119 -40h-199zM1133 635q0 -100 59 -161.5t158 -61.5q97 0 156 65t59 166 q0 96 -56.5 157.5t-146.5 61.5q-49 0 -82 -16l174 350h-82l-190 -385q-49 -98 -49 -176zM1210 639q0 72 38 115t100 43q65 0 101 -45t36 -113q0 -71 -37 -114.5t-100 -43.5q-62 0 -100 44t-38 114zM1708 602h80q12 -121 131 -121q61 0 96 35q19 19 29 48.5t12 52.5t2 59 q0 40 -5 70t-18 58.5t-40 44t-68 15.5q-50 0 -84 -21t-45 -57h-72v410h394v-70h-322v-247q47 53 139 53q87 0 136 -49q38 -37 50.5 -88t12.5 -119q0 -71 -12 -120.5t-49 -86.5q-59 -59 -156 -59q-102 0 -156 57q-49 49 -55 135z" />
<glyph unicode="|" d="M178 418v778h82v-778h-82zM485 418h84v321h207q107 0 173.5 62.5t66.5 167.5q0 103 -66.5 165t-173.5 62h-291v-778zM569 813v309h199q74 0 119 -39.5t45 -113.5q0 -76 -45 -116t-119 -40h-199zM1133 635q0 -100 59 -161.5t158 -61.5q97 0 156 65t59 166 q0 96 -56.5 157.5t-146.5 61.5q-49 0 -82 -16l174 350h-82l-190 -385q-49 -98 -49 -176zM1210 639q0 72 38 115t100 43q65 0 101 -45t36 -113q0 -71 -37 -114.5t-100 -43.5q-62 0 -100 44t-38 114zM1702 635q0 -100 59.5 -161.5t157.5 -61.5t156.5 64.5t58.5 166.5 q0 96 -55.5 157.5t-145.5 61.5q-51 0 -82 -16l172 350h-79l-191 -385q-51 -102 -51 -176zM1782 639q0 72 37 115t100 43q64 0 100.5 -45.5t36.5 -112.5q0 -71 -38 -114.5t-99 -43.5q-63 0 -100 43.5t-37 114.5z" />
<glyph unicode="}" d="M178 418v778h82v-778h-82zM485 418h84v321h207q107 0 173.5 62.5t66.5 167.5q0 103 -66.5 165t-173.5 62h-291v-778zM569 813v309h199q74 0 119 -39.5t45 -113.5q0 -76 -45 -116t-119 -40h-199zM1133 635q0 -100 59 -161.5t158 -61.5q97 0 156 65t59 166 q0 96 -56.5 157.5t-146.5 61.5q-49 0 -82 -16l174 350h-82l-190 -385q-49 -98 -49 -176zM1210 639q0 72 38 115t100 43q65 0 101 -45t36 -113q0 -71 -37 -114.5t-100 -43.5q-62 0 -100 44t-38 114zM1714 1004v192h432v-70l-270 -708h-82l270 708h-272v-122h-78z" />
<glyph unicode="&#xa5;" d="M178 418v778h82v-778h-82zM485 418h84v321h207q107 0 173.5 62.5t66.5 167.5q0 103 -66.5 165t-173.5 62h-291v-778zM569 813v309h199q74 0 119 -39.5t45 -113.5q0 -76 -45 -116t-119 -40h-199zM1133 635q0 -100 59 -161.5t158 -61.5q97 0 156 65t59 166 q0 96 -56.5 157.5t-146.5 61.5q-49 0 -82 -16l174 350h-82l-190 -385q-49 -98 -49 -176zM1210 639q0 72 38 115t100 43q65 0 101 -45t36 -113q0 -71 -37 -114.5t-100 -43.5q-62 0 -100 44t-38 114zM1688 633q0 -97 65.5 -159t163.5 -62t163.5 62t65.5 159q0 125 -116 188 q102 59 102 172q0 90 -61 149.5t-154 59.5t-154 -59.5t-61 -149.5q0 -113 102 -172q-116 -65 -116 -188zM1765 633q0 64 43.5 107.5t108.5 43.5t108 -43t43 -108t-43.5 -108.5t-107.5 -43.5q-65 0 -108.5 43.5t-43.5 108.5zM1782 993q0 61 38 100.5t97 39.5t97 -39.5 t38 -100.5q0 -62 -37.5 -100.5t-97.5 -38.5t-97.5 38.5t-37.5 100.5z" />
<glyph unicode="&#xa7;" horiz-adv-x="1820" d="M94 231q0 -96 68 -163.5t164 -67.5h1179q97 0 164.5 67t67.5 164v1180q0 95 -67.5 163t-164.5 68h-1179q-95 0 -163.5 -68t-68.5 -163v-1180zM187.5 272.5q-2.5 3.5 2 10.5t17.5 16l201 141q8 4 41 4h436v107h-422q-26 0 -53 12q-24 12 -41 37.5t-17 61.5v591v2 q0 31 17 60q11 23 38.5 38t65.5 15h889q36 0 65 -18q58 -34 58 -115v-573q0 -20 -15 -54q-12 -23 -36.5 -40t-57.5 -17h-424v-107h441l43 -4q12 -8 198 -141q21 -16 20 -24t-12 -9l-12 -2h-1419q-2 0 -5 0.5t-9.5 2.5t-9 5.5zM418 662q0 -7 1 -12t1.5 -8t3.5 -6.5t4 -4.5 t6 -5l4 -3l25 -7h909q6 0 10.5 0.5t8 2t5.5 2.5t5 4t3.5 4t3.5 5l3 5q8 14 6 23v573q0 25 -8 40.5t-15.5 19t-19.5 5.5l-12 3h-889q-20 0 -32.5 -7t-15.5 -14.5t-4.5 -16.5t-2.5 -10v-593z" />
<glyph unicode="&#xad;" horiz-adv-x="552" d="M66 518v144h419v-144h-419z" />
<glyph unicode="&#xb5;" horiz-adv-x="1753" d="M106 750l23 8l31 12l10 2v10q13 65 27 101q13 32 28 37q0 2 2 0q27 -27 45 -156q27 -181 33 -508q-57 -209 -72 -285q-22 -104 -34 -211q-11 -80 0 -129q10 -29 26 -37q16 -10 35 0q38 12 59 76q21 59 33 180q9 73 15 179q8 130 10 231q66 208 176 516q114 320 127 422 q6 55 -8 82q-20 33 -60 18q-38 -12 -61 -71q-24 -63 -43 -164q-8 -50 -10 -62q-46 -258 -125 -528q-11 646 -86 698q-18 11 -35 5q-51 -18 -88 -105q-33 -86 -47 -225l-8 -72zM645 350q-15 -189 37 -262q55 -77 139 -43q128 47 201 213q73 162 94 352q22 186 -26 281 q-52 103 -148 67q-51 -19 -90 -63q-7 -7 -18 -25l57 316l264 98l6 2l2 6l19 160l2 18l-19 -6l-327 -121l-7 -2l-2 -6l-131 -727l-4 -16l19 4l67 16l6 2l2 4q7 14 19 38.5t21.5 41t19.5 29.5q30 43 70 55q48 17 73 -34q30 -56 15 -191q-11 -103 -58 -217q-44 -103 -108 -127 q-31 -11 -54 2q-20 14 -27 52.5t-7 111.5v16l-17 -6l-82 -31l-6 -2zM1130 518q0 -113 6.5 -170.5t30.5 -91.5q53 -78 140 -43q127 47 200 213q75 174 95 352q21 184 -27 281q-52 103 -148 67q-47 -17 -90 -63q-7 -7 -18 -25l57 316l264 96l7 4l2 6l18 160l2 18l-18 -6 l-330 -121l-6 -2v-6l-131 -727l-4 -16l18 4l68 16l6 2l2 4q24 65 59 109q30 40 70 55q47 18 74 -35q29 -54 14 -190q-11 -106 -57 -217q-44 -103 -111 -127q-28 -11 -51 2q-20 14 -27.5 53t-7.5 111v16l-16 -6l-82 -31l-9 -2v-6z" />
<glyph unicode="&#xb6;" horiz-adv-x="1794" d="M111 766l24 8l31 12l8 2l2 11q12 61 27 102q13 32 28 37h2q27 -18 48 -158q27 -184 30 -514q-47 -178 -69 -289q-33 -157 -39 -215q-9 -91 2 -131q10 -29 26 -37q16 -10 35 0q37 11 62 78q20 55 32 181q9 79 15 182q8 135 10 235q53 170 178 523q116 320 129 428 q6 54 -8 84q-22 30 -61 18q-34 -11 -62 -74q-23 -61 -43 -166q-1 -4 -2 -14t-3 -22.5t-5 -26.5q-41 -248 -127 -537q-11 655 -88 709q-14 11 -33 4q-55 -18 -90 -104q-34 -81 -49 -230l-8 -71zM690 618q-45 -409 78 -503q51 -41 119 -17q35 12 73 46t79 93.5t73.5 159.5 t46.5 224q28 256 -67 333q-51 42 -117 19q-74 -28 -137 -125q20 110 48.5 196t53 132.5t52 79t41.5 41.5t26 14q24 8 41 3t35 -26l16 -20l6 -8l4 10l8 22l45 111l5 10l2 2l-2 4l-9 6q-36 36 -73 45t-82 -6q-129 -46 -228.5 -276.5t-136.5 -569.5zM799 543q38 110 88 185.5 t94 90.5q18 7 31 -2q22 -19 30 -76.5t0 -134.5q-18 -165 -65 -252t-92 -100q-24 -12 -45 4q-59 47 -41 285zM1206 401q20 -116 76 -151q36 -20 88 -2q133 49 221 330q62 196 92 466q35 289 11 439q-18 119 -76 153q-42 22 -94 2q-148 -53 -236 -381q-50 -179 -74 -403 q-35 -297 -8 -453zM1307 559q-7 129 16 318q29 262 82 419q47 147 113 172q21 8 38 -2q27 -15 33 -96q10 -147 -16 -362q-39 -321 -86 -441q-48 -123 -109 -145q-15 -8 -30 0q-34 21 -41 137z" />
<glyph unicode="&#xb7;" horiz-adv-x="1783" d="M125 731l25 8l30 11l8 4l2 8q9 59 25 100q13 30 27 37h2q28 -19 47 -154q25 -163 31 -499q-35 -126 -70 -281q-28 -129 -37 -209q-8 -79 2 -125q9 -27 25 -37q15 -9 34 0q39 12 60 76q21 56 33 176q7 55 14 174q2 38 5 117.5t5 112.5q47 152 172 506q112 311 125 415 q5 52 -8 82q-23 31 -59 19t-60 -72q-25 -65 -43 -162q-1 -3 -2.5 -13t-3.5 -21.5t-4 -24.5q-53 -291 -121 -522q-11 632 -86 688q-17 10 -33 4q-52 -17 -88 -102q-36 -96 -47 -222l-6 -69zM698 592q-44 -392 76 -486q48 -40 115 -18q34 12 70.5 45t76.5 91t72 155t45 217 q28 248 -66 324q-50 38 -112 16q-70 -24 -133 -121q19 107 46 191t51 129t50 76t40.5 40t25.5 13q25 9 40 4.5t33 -25.5l17 -20l6 -6l4 8l8 22l43 107l4 10l2 4l-2 2l-8 6q-66 66 -151 37q-124 -44 -220 -267.5t-133 -553.5zM805 520q37 107 84 180t90 88q23 8 31 -4 q21 -15 28.5 -72t-0.5 -130q-18 -160 -63 -244.5t-88 -97.5q-26 -10 -43 4q-60 42 -39 276zM1167 537q0 -79 1 -116t9 -78.5t25 -63.5q53 -74 137 -43q125 46 197 210q73 165 94 347q22 183 -26 274q-19 39 -46.5 58.5t-51.5 18t-48 -8.5q-47 -17 -88 -64q-6 -6 -18 -22 l57 309l260 96l6 2v6l19 158l2 18l-17 -6l-323 -119l-6 -2l-2 -6l-129 -714l-2 -17l16 4l67 17l5 2l2 4q40 82 59 106q30 41 68 56q48 14 73 -35q30 -61 15 -189q-11 -103 -58 -213q-43 -102 -106 -125q-34 -9 -51 2q-20 14 -27.5 52t-7.5 108v19l-17 -7l-81 -30l-7 -2v-6z " />
<glyph unicode="&#xd0;" horiz-adv-x="1024" d="M0 518v144h1024v-144h-1024z" />
<glyph unicode="&#xd3;" horiz-adv-x="1388" d="M80 616q0 260 188 445q176 176 426 176q256 0 434 -178q185 -182 185 -443q0 -255 -160 -432q-186 -204 -461 -204q-170 0 -310.5 83.5t-221 229.5t-80.5 323zM203 614q0 -222 144 -371t353 -149q135 0 247.5 68t178.5 188.5t66 267.5q0 133 -65.5 248t-181.5 184.5 t-253 69.5q-172 0 -303 -110q-86 -74 -136 -180t-50 -216z" />
<glyph unicode="&#x2000;" horiz-adv-x="837" />
<glyph unicode="&#x2001;" horiz-adv-x="1675" />
<glyph unicode="&#x2002;" horiz-adv-x="837" />
<glyph unicode="&#x2003;" horiz-adv-x="1675" />
<glyph unicode="&#x2004;" horiz-adv-x="558" />
<glyph unicode="&#x2005;" horiz-adv-x="418" />
<glyph unicode="&#x2006;" horiz-adv-x="279" />
<glyph unicode="&#x2007;" horiz-adv-x="279" />
<glyph unicode="&#x2008;" horiz-adv-x="209" />
<glyph unicode="&#x2009;" horiz-adv-x="335" />
<glyph unicode="&#x200a;" horiz-adv-x="93" />
<glyph unicode="&#x2010;" horiz-adv-x="552" d="M66 518v144h419v-144h-419z" />
<glyph unicode="&#x2011;" horiz-adv-x="552" d="M66 518v144h419v-144h-419z" />
<glyph unicode="&#x2012;" horiz-adv-x="552" d="M66 518v144h419v-144h-419z" />
<glyph unicode="&#x2013;" horiz-adv-x="1157" d="M66 518v144h1024v-144h-1024z" />
<glyph unicode="&#x2014;" horiz-adv-x="2181" d="M66 518v144h2048v-144h-2048z" />
<glyph unicode="&#x202f;" horiz-adv-x="335" />
<glyph unicode="&#x205f;" horiz-adv-x="418" />
<glyph unicode="&#x20ac;" horiz-adv-x="1384" d="M72 623q0 259 188 444q179 176 428 176q254 0 432 -178q187 -184 187 -442q0 -256 -160 -433q-186 -204 -461 -204q-171 0 -312 83.5t-221.5 230t-80.5 323.5zM197 621q0 -110 39 -207t105 -165t156.5 -107.5t190.5 -39.5v525v501q-175 0 -307 -114q-86 -72 -135 -177 t-49 -216z" />
<glyph unicode="&#x25fc;" horiz-adv-x="1628" d="M0 0v1628h1628v-1628h-1628z" />
</font>
</defs>
</svg>
